<?xml version="1.0" standalone="no"?>
<!DOCTYPE svg PUBLIC "-//W3C//DTD SVG 1.1//EN" "http://www.w3.org/Graphics/SVG/1.1/DTD/svg11.dtd" >
<svg xmlns="http://www.w3.org/2000/svg" xmlns:xlink="http://www.w3.org/1999/xlink" version="1.1">
<metadata>
Created by FontForge 20170731 at Wed Nov 20 22:49:08 2019
 By Aleksey,,,
Copyright 2015 The Courier Prime Project Authors (https://github.com/quoteunquoteapps/CourierPrime).
</metadata>
<defs>
<font id="CourierPrime-Bold" horiz-adv-x="1228" >
  <font-face 
    font-family="Courier Prime"
    font-weight="700"
    font-stretch="normal"
    units-per-em="2048"
    panose-1="0 0 8 9 0 0 0 0 0 0"
    ascent="1638"
    descent="-410"
    x-height="924"
    cap-height="1187"
    bbox="-793 -544 1539 1827"
    underline-thickness="130"
    underline-position="-350"
    unicode-range="U+000D-FB02"
  />
<missing-glyph 
d="M1084.5 1306.5q14.5 -15.5 14.5 -52.5l-3 -1469q0 -37 -14.5 -52.5t-48.5 -15.5h-821q-34 0 -48.5 15.5t-14.5 52.5l3 1469q0 37 14.5 52.5t48.5 15.5h821q34 0 48.5 -15.5zM991 -181l2 1401h-736l-2 -1401h736zM384 73.5q-18 8.5 -18 21.5q0 4 3 10l214 410l-214 408
q-2 3 -2 10q0 14 17 23t38 9q18 0 30.5 -5.5t17.5 -15.5l162 -333l162 333q5 10 17.5 15.5t30.5 5.5q21 0 38 -9t17 -23q0 -7 -2 -10l-214 -408l214 -410q3 -6 3 -10q0 -13 -18 -21.5t-39 -8.5q-38 0 -47 19l-162 333l-162 -333q-9 -19 -47 -19q-21 0 -39 8.5z" />
    <glyph glyph-name=".notdef" 
d="M1084.5 1306.5q14.5 -15.5 14.5 -52.5l-3 -1469q0 -37 -14.5 -52.5t-48.5 -15.5h-821q-34 0 -48.5 15.5t-14.5 52.5l3 1469q0 37 14.5 52.5t48.5 15.5h821q34 0 48.5 -15.5zM991 -181l2 1401h-736l-2 -1401h736zM384 73.5q-18 8.5 -18 21.5q0 4 3 10l214 410l-214 408
q-2 3 -2 10q0 14 17 23t38 9q18 0 30.5 -5.5t17.5 -15.5l162 -333l162 333q5 10 17.5 15.5t30.5 5.5q21 0 38 -9t17 -23q0 -7 -2 -10l-214 -408l214 -410q3 -6 3 -10q0 -13 -18 -21.5t-39 -8.5q-38 0 -47 19l-162 333l-162 -333q-9 -19 -47 -19q-21 0 -39 8.5z" />
    <glyph glyph-name=".null" horiz-adv-x="0" 
 />
    <glyph glyph-name="nonmarkingreturn" unicode="&#xd;" 
 />
    <glyph glyph-name="space" unicode=" " 
 />
    <glyph glyph-name="exclam" unicode="!" 
d="M762 1257q10 -12 8 -38l-57 -657q-5 -58 -99 -58t-99 58l-57 657q-2 26 8 38t33 12h230q23 0 33 -12zM732.5 315.5q36.5 -14.5 36.5 -48.5v-214q0 -34 -36.5 -48.5t-118.5 -14.5t-118.5 14.5t-36.5 48.5v214q0 34 36.5 48.5t118.5 14.5t118.5 -14.5z" />
    <glyph glyph-name="quotedbl" unicode="&#x22;" 
d="M510 1219l-73 -480q-5 -33 -26 -50.5t-67 -17.5t-67 17.5t-26 50.5l-73 480q-1 4 -1 12q0 38 42 38h250q48 0 41 -50zM1050 1219l-73 -480q-5 -33 -26 -50.5t-67 -17.5t-67 17.5t-26 50.5l-73 480q-1 4 -1 12q0 38 42 38h250q48 0 41 -50z" />
    <glyph glyph-name="numbersign" unicode="#" 
d="M1152 931q13 -9 19.5 -33t6.5 -71t-6.5 -71t-19.5 -32.5t-37 -8.5h-156l-61 -233h127q24 0 37 -9t19.5 -33t6.5 -71t-6.5 -71t-19.5 -32.5t-37 -8.5h-185l-64 -246q-4 -16 -25.5 -24.5t-51.5 -8.5q-45 0 -81.5 16t-36.5 42q0 6 1 9l55 212h-221l-64 -246
q-4 -16 -25.5 -24.5t-51.5 -8.5q-45 0 -81.5 16t-36.5 42q0 6 1 9l55 212h-100q-24 0 -37 8.5t-19.5 32.5t-6.5 71t6.5 71t19.5 33t37 9h159l60 233h-129q-24 0 -37 8.5t-19.5 32.5t-6.5 71t6.5 71t19.5 33t37 9h188l61 236q4 16 25.5 24.5t51.5 8.5q45 0 81.5 -16t36.5 -42
q0 -6 -1 -9l-53 -202h222l61 236q4 16 25.5 24.5t51.5 8.5q45 0 81.5 -16t36.5 -42q0 -6 -1 -9l-53 -202h98q24 0 37 -9zM696 482l60 233h-221l-61 -233h222z" />
    <glyph glyph-name="dollar" unicode="$" 
d="M682 1298q19 -14 19 -49v-191q49 -18 93 -45v10q0 34 24.5 48.5t87.5 14.5q64 0 91 -14.5t27 -48.5v-211q0 -34 -21.5 -48.5t-70.5 -14.5q-53 0 -73 21q-64 68 -158 97v-146q122 -14 199 -46q80 -33 125 -92t45 -156q0 -91 -43 -159t-126 -107t-200 -43v-180
q0 -35 -19 -49t-74 -14t-74 14t-19 49v204q-52 17 -101 47v-8q0 -34 -29 -48.5t-93 -14.5t-91 14.5t-27 48.5v223q0 33 23.5 48t72.5 15q61 0 83 -28q59 -75 162 -104v161q-65 10 -117.5 25t-95.5 39q-138 76 -138 240q0 86 45.5 150t125 99t180.5 37v163q0 35 19 49t74 14
t74 -14zM446.5 858q-24.5 -20 -24.5 -49q0 -32 36 -51q21 -11 57 -16v142q-44 -6 -68.5 -26zM812 401q0 33 -42 54q-28 12 -69 18v-153q111 12 111 81z" />
    <glyph glyph-name="percent" unicode="%" 
d="M461 1172q63 -37 100 -100t37 -137t-37 -137t-100 -100t-137 -37t-137 37t-100 100t-37 137t37 137t100 100t137 37t137 -37zM1024 1103q14 0 31.5 -11.5t42.5 -37.5q44 -45 44 -73q0 -19 -22 -41l-877 -834q-23 -21 -40 -21q-14 0 -31.5 11.5t-41.5 37.5q-45 48 -45 75
q0 17 23 40l877 834q20 20 39 20zM262.5 996.5q-25.5 -25.5 -25.5 -61.5t25.5 -61.5t61.5 -25.5t61.5 25.5t25.5 61.5t-25.5 61.5t-61.5 25.5t-61.5 -25.5zM1041 489q63 -37 100 -100t37 -137t-37 -137t-100 -100t-137 -37t-137 37t-100 100t-37 137t37 137t100 100t137 37
t137 -37zM842.5 313.5q-25.5 -25.5 -25.5 -61.5t25.5 -61.5t61.5 -25.5t61.5 25.5t25.5 61.5t-25.5 61.5t-61.5 25.5t-61.5 -25.5z" />
    <glyph glyph-name="ampersand" unicode="&#x26;" 
d="M912 1113q22 -12 32.5 -26.5t10.5 -35.5v-197q0 -34 -29 -48.5t-93 -14.5q-62 0 -85 14t-23 49v102q-72 36 -143 36q-56 0 -91 -36t-35 -95q0 -48 28 -94.5t80 -100.5l181 -189q27 65 47 126q7 20 19 31t33 11h220q24 0 37 -8t19.5 -30t6.5 -64t-6.5 -64t-19.5 -30.5
t-37 -8.5h-91q-27 -77 -57 -141l91 -94h77q24 0 37 -8.5t19.5 -30.5t6.5 -64t-6.5 -64t-19.5 -30t-37 -8h-171q-40 0 -72 33l-65 67q-129 -122 -320 -122q-105 0 -184 43.5t-122 121t-43 177.5q0 95 45 168.5t135 133.5q-85 120 -85 244q0 99 46 177t132 122t203 44
q155 0 329 -96zM371.5 404.5q-16.5 -33.5 -16.5 -74.5q0 -57 33 -91t88 -34q78 0 141 61l-195 203q-34 -31 -50.5 -64.5z" />
    <glyph glyph-name="quotesingle" unicode="'" 
d="M780 1219l-73 -480q-5 -33 -26 -50.5t-67 -17.5t-67 17.5t-26 50.5l-73 480q-1 4 -1 12q0 38 42 38h250q48 0 41 -50z" />
    <glyph glyph-name="parenleft" unicode="(" 
d="M799 1383q23 0 47.5 -18.5t44.5 -49.5q36 -54 36 -95q0 -27 -18 -39q-200 -125 -302 -286.5t-102 -375.5t102 -375.5t302 -286.5q18 -12 18 -39q0 -41 -36 -95q-20 -31 -44.5 -49.5t-47.5 -18.5q-14 0 -28 8q-139 79 -254.5 198t-187.5 286t-72 372t72 372t187.5 286
t254.5 198q14 8 28 8z" />
    <glyph glyph-name="parenright" unicode=")" 
d="M711.5 1177q115.5 -119 187.5 -286t72 -372t-72 -372t-187.5 -286t-254.5 -198q-14 -8 -28 -8q-23 0 -47.5 18.5t-44.5 49.5q-36 54 -36 95q0 27 18 39q200 125 302 286.5t102 375.5t-102 375.5t-302 286.5q-18 12 -18 39q0 41 36 95q20 31 44.5 49.5t47.5 18.5
q14 0 28 -8q139 -79 254.5 -198z" />
    <glyph glyph-name="asterisk" unicode="*" 
d="M702.5 1178.5q31.5 -30.5 31.5 -77.5q0 -17 -4 -32l-47 -204l179 108q32 20 66 20t61.5 -22t41.5 -65q8 -27 8 -47q0 -45 -29 -73t-76 -33l-208 -19l158 -137q21 -19 32.5 -41.5t11.5 -45.5q0 -54 -55 -95q-38 -28 -77 -28q-32 0 -58.5 19.5t-40.5 53.5l-83 193l-83 -193
q-14 -34 -40.5 -53.5t-58.5 -19.5q-39 0 -77 28q-55 41 -55 95q0 23 11.5 45.5t32.5 41.5l158 137l-208 19q-47 5 -76 33t-29 73q0 20 8 47q14 43 41.5 65t61.5 22t66 -20l179 -108l-47 204q-4 15 -4 32q0 47 31.5 77.5t88.5 30.5t88.5 -30.5z" />
    <glyph glyph-name="plus" unicode="+" 
d="M685 1019.5q24 -6.5 32.5 -19.5t8.5 -37v-268h269q24 0 37 -9t19.5 -33t6.5 -71t-6.5 -71t-19.5 -32.5t-37 -8.5h-269v-269q0 -24 -8.5 -37t-32.5 -19.5t-71 -6.5t-71 6.5t-33 19.5t-9 37v269h-268q-24 0 -37 8.5t-19.5 32.5t-6.5 71t6.5 71t19.5 33t37 9h268v268
q0 24 9 37t33 19.5t71 6.5t71 -6.5z" />
    <glyph glyph-name="comma" unicode="," 
d="M775 345q9 -9 9 -24t-7 -30l-237 -537q-20 -48 -106 -48q-38 0 -59.5 14t-21.5 39q0 9 1 13l100 542q4 19 17.5 29.5t34.5 10.5h243q17 0 26 -9z" />
    <glyph glyph-name="hyphen" unicode="-" 
d="M1032 686q13 -9 19.5 -33t6.5 -71t-6.5 -71t-19.5 -32.5t-37 -8.5h-762q-24 0 -37 8.5t-19.5 32.5t-6.5 71t6.5 71t19.5 33t37 9h762q24 0 37 -9z" />
    <glyph glyph-name="period" unicode="." 
d="M740 355.5q39 -14.5 39 -48.5v-254q0 -34 -39 -48.5t-126 -14.5t-126 14.5t-39 48.5v254q0 34 39 48.5t126 14.5t126 -14.5z" />
    <glyph glyph-name="slash" unicode="/" 
d="M1023.5 1377q45.5 -22 45.5 -56q0 -11 -4 -20l-666 -1618q-18 -43 -82 -43q-67 0 -112.5 22t-45.5 56q0 11 4 20l666 1618q18 43 82 43q67 0 112.5 -22z" />
    <glyph glyph-name="zero" unicode="0" 
d="M870 1130.5q109 -78.5 167 -218t58 -319.5t-58 -319.5t-167 -217.5t-256 -78t-256 78t-167 217.5t-58 319.5t58 319.5t167 218t256 78.5t256 -78.5zM455.5 883.5q-54.5 -98.5 -54.5 -290.5t54.5 -290t158.5 -98t158.5 98t54.5 290t-54.5 290.5t-158.5 98.5t-158.5 -98.5z
" />
    <glyph glyph-name="one" unicode="1" 
d="M1042 196.5q13 -8.5 19.5 -30.5t6.5 -64t-6.5 -64t-19.5 -30t-37 -8h-732q-24 0 -37 8t-19.5 30t-6.5 64t6.5 64t19.5 30.5t37 8.5h246v674l-209 -119q-18 -10 -32 -10q-19 0 -36.5 18t-35.5 57q-20 44 -20 73q0 21 9.5 35t29.5 25l422 238q28 16 57 16t47 -16t18 -48
v-943h236q24 0 37 -8.5z" />
    <glyph glyph-name="two" unicode="2" 
d="M823.5 1163.5q92.5 -45.5 140 -127.5t47.5 -192q0 -101 -45.5 -186t-144.5 -180l-273 -263h282v92q0 35 23 49t85 14q64 0 93 -14.5t29 -48.5v-242q0 -34 -15 -49.5t-50 -15.5h-774q-24 0 -37 8.5t-19.5 30.5t-6.5 64q0 40 5 60t19 33l429 413q83 80 114.5 129t31.5 101
q0 69 -40 111t-116 42q-87 0 -173 -42v-140q0 -35 -23 -49t-85 -14q-64 0 -93 14.5t-29 48.5v237q0 41 43 64q89 49 181 73.5t178 24.5q131 0 223.5 -45.5z" />
    <glyph glyph-name="three" unicode="3" 
d="M901.5 1121.5q109.5 -87.5 109.5 -252.5q0 -171 -141 -245q83 -38 129.5 -105.5t46.5 -162.5q0 -187 -127 -282.5t-355 -95.5q-198 0 -343 77q-38 19 -38 64q0 27 17 72q34 84 76 84q8 0 20 -5q65 -31 134 -48t134 -17q106 0 160 39.5t54 113.5q0 72 -43 108.5t-127 36.5
h-103q-35 0 -49 22.5t-14 84.5t14 85t49 23h76q89 0 132.5 33t43.5 103q0 68 -42 103t-124 35q-75 0 -153 -23v-79q0 -35 -23 -49t-85 -14q-64 0 -93 14.5t-29 48.5v187q0 45 49 64q79 32 164.5 50t168.5 18q202 0 311.5 -87.5z" />
    <glyph glyph-name="four" unicode="4" 
d="M839.5 1186q23.5 -23 23.5 -67v-544h172q24 0 37 -8.5t19.5 -30.5t6.5 -64t-6.5 -64t-19.5 -30t-37 -8h-172v-165h142q24 0 37 -8.5t19.5 -30.5t6.5 -64t-6.5 -64t-19.5 -30t-37 -8h-562q-24 0 -37 8t-19.5 30t-6.5 64t6.5 64t19.5 30.5t37 8.5h170v165h-430q-24 0 -37 8
t-19.5 30t-6.5 64q0 65 19 89l470 579q27 34 62.5 51.5t86.5 17.5q58 0 81.5 -23zM403 575h219l16 292z" />
    <glyph glyph-name="five" unicode="5" 
d="M970 1164q14 -23 14 -85t-14 -84.5t-49 -22.5h-442l-14 -223q96 37 192 37q124 0 211.5 -50.5t132.5 -141t45 -208.5q0 -201 -125.5 -304.5t-346.5 -103.5q-95 0 -188.5 23.5t-171.5 65.5q-38 21 -38 64q0 27 17 72q34 84 76 84q8 0 20 -5q154 -77 285 -77q92 0 148 48
t56 133q0 81 -45.5 127t-128.5 46q-94 0 -192 -36q-42 -16 -82 -16q-64 0 -90.5 15t-24.5 50l33 550q2 35 16.5 50t48.5 15h608q35 0 49 -23z" />
    <glyph glyph-name="six" unicode="6" 
d="M1017.5 1184q14.5 -26 19.5 -82q2 -17 2 -45q0 -87 -41 -90q-184 -9 -304.5 -47t-187 -110t-86.5 -186q54 60 121 88.5t154 28.5q111 0 198 -47.5t136 -132.5t49 -195q0 -112 -57.5 -200.5t-159.5 -138t-230 -49.5q-126 0 -223 51t-162 147q-41 61 -63.5 148t-22.5 188
q0 211 93.5 363.5t276.5 238t447 95.5q26 1 40.5 -25zM535 509q-45 -20 -70 -56t-25 -82t22.5 -85t66 -62t101.5 -23q86 0 138 44.5t52 119.5q0 77 -48.5 120.5t-133.5 43.5q-58 0 -103 -20z" />
    <glyph glyph-name="seven" unicode="7" 
d="M1054 1178.5q13 -8.5 19.5 -30.5t6.5 -64q0 -49 -9 -72l-417 -988q-10 -23 -34.5 -34.5t-58.5 -11.5q-29 0 -57 7q-45 10 -73.5 32.5t-28.5 52.5q0 12 6 27l376 875h-366v-192q0 -35 -23 -49t-85 -14q-64 0 -93 14.5t-29 48.5v342q0 35 15.5 50t49.5 15h764q24 0 37 -8.5
z" />
    <glyph glyph-name="eight" unicode="8" 
d="M828 1164q92 -45 141 -122.5t49 -170.5q0 -92 -43 -154.5t-120 -97.5q95 -35 148.5 -106t53.5 -178q0 -110 -55.5 -190.5t-155.5 -123.5t-232 -43t-232 43t-155.5 123.5t-55.5 190.5q0 108 53 178.5t149 105.5q-77 34 -120 97t-43 155q0 93 49 170.5t141 122.5t214 45
t214 -45zM501 952.5q-42 -38.5 -42 -101.5t41 -101t114 -38t114 38t41 101t-42 101.5t-113 38.5t-113 -38.5zM482 474q-46 -44 -46 -118t46 -117t132 -43t132 43t46 117t-46 118t-132 44t-132 -44z" />
    <glyph glyph-name="nine" unicode="9" 
d="M820 1158q97 -51 162 -147q41 -61 63.5 -148t22.5 -188q0 -326 -183.5 -504t-573.5 -193q-26 -1 -40.5 25t-19.5 82q-2 17 -2 45q0 87 41 90q182 9 289.5 46.5t160.5 108.5t68 188q-54 -60 -121 -88.5t-154 -28.5q-111 0 -198 47.5t-136 132.5t-49 195q0 112 57.5 200.5
t159.5 138t230 49.5q126 0 223 -51zM460 941.5q-52 -44.5 -52 -119.5q0 -77 48.5 -120.5t133.5 -43.5q58 0 103 20t70 56t25 82t-22.5 85t-66 62t-101.5 23q-86 0 -138 -44.5z" />
    <glyph glyph-name="colon" unicode=":" 
d="M488 608.5q-39 14.5 -39 48.5v214q0 34 39 48.5t126 14.5t126 -14.5t39 -48.5v-214q0 -34 -39 -48.5t-126 -14.5t-126 14.5zM488 4.5q-39 14.5 -39 48.5v214q0 34 39 48.5t126 14.5t126 -14.5t39 -48.5v-214q0 -34 -39 -48.5t-126 -14.5t-126 14.5z" />
    <glyph glyph-name="semicolon" unicode=";" 
d="M488 608.5q-39 14.5 -39 48.5v214q0 34 39 48.5t126 14.5t126 -14.5t39 -48.5v-214q0 -34 -39 -48.5t-126 -14.5t-126 14.5zM795 345q9 -9 9 -24t-7 -30l-237 -537q-20 -48 -106 -48q-38 0 -59.5 14t-21.5 39q0 9 1 13l100 542q4 19 17.5 29.5t34.5 10.5h243q17 0 26 -9z
" />
    <glyph glyph-name="less" unicode="&#x3c;" 
d="M979 1089q20 0 38 -18t39 -60q26 -52 26 -83q0 -34 -36 -53l-585 -292l585 -292q36 -19 36 -53q0 -31 -26 -83q-21 -42 -39 -60t-38 -18q-13 0 -33 10l-780 402q-25 13 -35.5 33t-10.5 61t10.5 61t35.5 33l780 402q20 10 33 10z" />
    <glyph glyph-name="equal" unicode="=" 
d="M1032 915q13 -9 19.5 -33t6.5 -71t-6.5 -71t-19.5 -32.5t-37 -8.5h-762q-24 0 -37 8.5t-19.5 32.5t-6.5 71t6.5 71t19.5 33t37 9h762q24 0 37 -9zM1032 457q13 -9 19.5 -33t6.5 -71t-6.5 -71t-19.5 -32.5t-37 -8.5h-762q-24 0 -37 8.5t-19.5 32.5t-6.5 71t6.5 71t19.5 33
t37 9h762q24 0 37 -9z" />
    <glyph glyph-name="greater" unicode="&#x3e;" 
d="M1097.5 644q10.5 -20 10.5 -61t-10.5 -61t-35.5 -33l-780 -402q-20 -10 -33 -10q-20 0 -38 18t-39 60q-26 52 -26 83q0 34 36 53l585 292l-585 292q-36 19 -36 53q0 31 26 83q21 42 39 60t38 18q13 0 33 -10l780 -402q25 -13 35.5 -33z" />
    <glyph glyph-name="question" unicode="?" 
d="M895.5 1175q102.5 -94 102.5 -261q0 -139 -75.5 -218.5t-231.5 -122.5l-6 -86q-2 -25 -24 -36.5t-77 -11.5t-77 11.5t-24 36.5l-12 209q-2 44 31 51l103 20q72 14 107 49.5t35 97.5q0 68 -39.5 103t-116.5 35q-75 0 -153 -30v-92q0 -35 -23 -49t-85 -14q-64 0 -93 14.5
t-29 48.5v190q0 41 41 61q186 88 351 88q193 0 295.5 -94zM695 275.5q34 -14.5 34 -48.5v-174q0 -34 -34 -48.5t-111 -14.5t-111 14.5t-34 48.5v174q0 34 34 48.5t111 14.5t111 -14.5z" />
    <glyph glyph-name="at" unicode="@" 
d="M936.5 1008q119.5 -70 185 -194.5t65.5 -282.5q0 -127 -39.5 -219.5t-109 -141t-157.5 -48.5q-69 0 -114.5 38t-62.5 101q-77 -144 -197 -144q-84 0 -135 63t-51 177q0 103 44 206.5t117 170t156 66.5q91 0 128 -115l33 69q5 9 29 9q19 0 40 -6q26 -7 41 -17.5t11 -23.5
l-72 -312q-8 -32 -8 -53q0 -36 16 -54.5t41 -18.5q38 0 68 31t47.5 88.5t17.5 133.5q0 118 -45 207t-130 138t-200 49q-133 0 -237.5 -71.5t-163 -194.5t-58.5 -270q0 -116 42.5 -204t124.5 -136.5t197 -48.5q136 0 258 40q8 3 14 3q14 0 24 -13.5t19 -46.5q7 -27 7 -44
t-6 -26t-18 -14q-53 -23 -133.5 -37.5t-162.5 -14.5q-163 0 -282.5 66.5t-183 188.5t-63.5 287q0 192 81.5 349.5t225 248.5t320.5 91q157 0 276.5 -70zM578 603.5q-35 -39.5 -58.5 -101t-23.5 -123.5q0 -47 18 -72.5t48 -25.5q34 0 68.5 44.5t57 107t22.5 108.5
q0 102 -66 102q-31 0 -66 -39.5z" />
    <glyph glyph-name="A" unicode="A" 
d="M762 1171.5q25 -15.5 36 -49.5l290 -917h87q24 0 37 -8t19.5 -30t6.5 -64t-6.5 -64t-19.5 -30.5t-37 -8.5h-424q-24 0 -37 8.5t-19.5 30.5t-6.5 64t6.5 64t19.5 30t37 8h86l-45 145h-364l-45 -145h74q24 0 37 -8t19.5 -30t6.5 -64t-6.5 -64t-19.5 -30.5t-37 -8.5h-404
q-24 0 -37 8.5t-19.5 30.5t-6.5 64t6.5 64t19.5 30t37 8h84l253 777h-167q-24 0 -37 8.5t-19.5 30.5t-6.5 64t6.5 64t19.5 30t37 8h474q40 0 65 -15.5zM609 982l-123 -427h249l-120 427h-6z" />
    <glyph glyph-name="B" unicode="B" 
d="M963.5 1101.5q100.5 -85.5 100.5 -237.5q0 -82 -40.5 -140.5t-113.5 -93.5q229 -62 229 -286q0 -169 -111 -256.5t-318 -87.5h-577q-24 0 -37 8t-19.5 30t-6.5 64t6.5 64t19.5 30.5t37 8.5h107v777h-107q-24 0 -37 8t-19.5 30t-6.5 64t6.5 64t19.5 30.5t37 8.5h521
q209 0 309.5 -85.5zM490 714h142q90 0 134 32t44 98q0 67 -42.5 97.5t-135.5 30.5h-142v-258zM490 215h192q194 0 194 139q0 74 -47.5 109.5t-146.5 35.5h-192v-284z" />
    <glyph glyph-name="C" unicode="C" 
d="M1091 1195q23 -14 23 -49v-384q0 -34 -30.5 -48.5t-101.5 -14.5q-47 0 -72.5 6.5t-35.5 19.5t-10 37q0 100 -54.5 160t-155.5 60q-139 0 -211 -100t-72 -288q0 -186 76.5 -287.5t216.5 -101.5q87 0 167 23.5t174 71.5q16 8 30 8q47 0 78 -83q14 -38 14 -68q0 -51 -46 -73
q-214 -106 -427 -106q-164 0 -289 75t-193.5 214.5t-68.5 326.5q0 186 67 325.5t185.5 214.5t268.5 75q175 0 260 -126v63q0 34 29 48.5t93 14.5q62 0 85 -14z" />
    <glyph glyph-name="D" unicode="D" 
d="M895 1118q126 -69 193 -202.5t67 -321.5t-67 -321.5t-193 -203t-301 -69.5h-471q-24 0 -37 8t-19.5 30t-6.5 64t6.5 64t19.5 30.5t37 8.5h97v777h-97q-24 0 -37 8t-19.5 30t-6.5 64t6.5 64t19.5 30.5t37 8.5h471q175 0 301 -69zM470 215h104q155 0 234 96.5t79 282.5
t-79 282t-234 96h-104v-757z" />
    <glyph glyph-name="E" unicode="E" 
d="M1085 1172q15 -15 15 -50v-302q0 -34 -29 -48.5t-93 -14.5q-62 0 -85 14t-23 49v152h-400v-253h244q35 0 49 -23t14 -85t-14 -84.5t-49 -22.5h-244v-289h410v202q0 34 29.5 48.5t96.5 14.5q66 0 90 -14t24 -49v-352q0 -34 -15 -49.5t-50 -15.5h-932q-24 0 -37 8t-19.5 30
t-6.5 64t6.5 64t19.5 30.5t37 8.5h97v777h-97q-24 0 -37 8t-19.5 30t-6.5 64t6.5 64t19.5 30.5t37 8.5h912q35 0 50 -15z" />
    <glyph glyph-name="F" unicode="F" 
d="M1105 1172q15 -15 15 -50v-302q0 -34 -29 -48.5t-93 -14.5q-62 0 -85 14t-23 49v152h-390v-305h304q35 0 49 -23t14 -85t-14 -84.5t-49 -22.5h-304v-247h217q24 0 37 -8.5t19.5 -30.5t6.5 -64t-6.5 -64t-19.5 -30t-37 -8h-594q-24 0 -37 8t-19.5 30t-6.5 64t6.5 64
t19.5 30.5t37 8.5h127v777h-127q-24 0 -37 8t-19.5 30t-6.5 64t6.5 64t19.5 30.5t37 8.5h932q35 0 50 -15z" />
    <glyph glyph-name="G" unicode="G" 
d="M1061 1195q23 -14 23 -49v-344q0 -34 -30.5 -48.5t-101.5 -14.5q-47 0 -72.5 6.5t-35.5 19.5t-10 37q0 86 -52 133t-158 47q-139 0 -211 -100t-72 -288q0 -186 76.5 -287.5t216.5 -101.5q111 0 210 30v167h-193q-24 0 -37 8t-19.5 30t-6.5 64t6.5 64t19.5 30.5t37 8.5
h474q24 0 37 -8.5t19.5 -30.5t6.5 -64t-6.5 -64t-19.5 -30t-37 -8h-31v-259q0 -24 -9.5 -42t-26.5 -27q-93 -48 -204 -72t-230 -24q-164 0 -289 75t-193.5 214.5t-68.5 326.5q0 186 67 325.5t185.5 214.5t268.5 75q176 0 260 -118v55q0 34 29 48.5t93 14.5q62 0 85 -14z" />
    <glyph glyph-name="H" unicode="H" 
d="M1152 1178.5q13 -8.5 19.5 -30.5t6.5 -64t-6.5 -64t-19.5 -30t-37 -8h-57v-777h57q24 0 37 -8.5t19.5 -30.5t6.5 -64t-6.5 -64t-19.5 -30t-37 -8h-374q-24 0 -37 8t-19.5 30t-6.5 64t6.5 64t19.5 30.5t37 8.5h67v299h-388v-299h67q24 0 37 -8.5t19.5 -30.5t6.5 -64
t-6.5 -64t-19.5 -30t-37 -8h-374q-24 0 -37 8t-19.5 30t-6.5 64t6.5 64t19.5 30.5t37 8.5h57v777h-57q-24 0 -37 8t-19.5 30t-6.5 64t6.5 64t19.5 30.5t37 8.5h374q24 0 37 -8.5t19.5 -30.5t6.5 -64t-6.5 -64t-19.5 -30t-37 -8h-67v-263h388v263h-67q-24 0 -37 8t-19.5 30
t-6.5 64t6.5 64t19.5 30.5t37 8.5h374q24 0 37 -8.5z" />
    <glyph glyph-name="I" unicode="I" 
d="M1012 1178.5q13 -8.5 19.5 -30.5t6.5 -64t-6.5 -64t-19.5 -30t-37 -8h-236v-777h256q24 0 37 -8.5t19.5 -30.5t6.5 -64t-6.5 -64t-19.5 -30t-37 -8h-762q-24 0 -37 8t-19.5 30t-6.5 64t6.5 64t19.5 30.5t37 8.5h256v777h-236q-24 0 -37 8t-19.5 30t-6.5 64t6.5 64
t19.5 30.5t37 8.5h722q24 0 37 -8.5z" />
    <glyph glyph-name="J" unicode="J" 
d="M1152 1178.5q13 -8.5 19.5 -30.5t6.5 -64t-6.5 -64t-19.5 -30t-37 -8h-186v-619q0 -192 -108 -288.5t-317 -96.5q-234 0 -389 147q-16 16 -16 50v324q0 34 30.5 48.5t101.5 14.5q47 0 72.5 -6.5t35.5 -19.5t10 -37v-260q69 -34 166 -34q82 0 123 43.5t41 134.5v599h-306
q-24 0 -37 8t-19.5 30t-6.5 64t6.5 64t19.5 30.5t37 8.5h742q24 0 37 -8.5z" />
    <glyph glyph-name="K" unicode="K" 
d="M1167 1178.5q13 -8.5 19.5 -30.5t6.5 -64t-6.5 -64t-19.5 -30t-37 -8h-43l-350 -341q56 -3 102 -30.5t80 -75.5q23 -33 42 -68.5t43 -86.5q36 -74 50 -98q22 -37 46 -57t55 -20h10q24 0 37 -8.5t19.5 -30.5t6.5 -64t-6.5 -64t-19.5 -30t-37 -8h-139q-61 0 -103.5 37.5
t-78.5 104.5q-23 43 -48 100q-18 38 -37 76t-35 63q-26 39 -58 61.5t-66 22.5q-44 0 -79 -34l-51 -50v-176h115q24 0 37 -8.5t19.5 -30.5t6.5 -64t-6.5 -64t-19.5 -30t-37 -8h-472q-24 0 -37 8t-19.5 30t-6.5 64t6.5 64t19.5 30.5t37 8.5h107v777h-107q-24 0 -37 8t-19.5 30
t-6.5 64t6.5 64t19.5 30.5t37 8.5h404q24 0 37 -8.5t19.5 -30.5t6.5 -64t-6.5 -64t-19.5 -30t-37 -8h-47v-320l324 320h-53q-24 0 -37 8t-19.5 30t-6.5 64t6.5 64t19.5 30.5t37 8.5h389q24 0 37 -8.5z" />
    <glyph glyph-name="L" unicode="L" 
d="M774 1178.5q13 -8.5 19.5 -30.5t6.5 -64t-6.5 -64t-19.5 -30t-37 -8h-218v-767h351v312q0 34 30.5 48.5t101.5 14.5q47 0 72.5 -6.5t35.5 -19.5t10 -37v-462q0 -34 -15 -49.5t-50 -15.5h-932q-24 0 -37 8t-19.5 30t-6.5 64t6.5 64t19.5 30.5t37 8.5h146v777h-146
q-24 0 -37 8t-19.5 30t-6.5 64t6.5 64t19.5 30.5t37 8.5h614q24 0 37 -8.5z" />
    <glyph glyph-name="M" unicode="M" 
d="M1172 1178.5q13 -8.5 19.5 -30.5t6.5 -64t-6.5 -64t-19.5 -30t-37 -8h-54l14 -777h60q24 0 37 -8.5t19.5 -30.5t6.5 -64t-6.5 -64t-19.5 -30t-37 -8h-374q-24 0 -37 8t-19.5 30t-6.5 64t6.5 64t19.5 30.5t37 8.5h92l-6 592l-151 -408q-13 -35 -36 -49.5t-65 -14.5
q-43 0 -66 14.5t-37 49.5l-152 405l-6 -589h93q24 0 37 -8.5t19.5 -30.5t6.5 -64t-6.5 -64t-19.5 -30t-37 -8h-374q-24 0 -37 8t-19.5 30t-6.5 64t6.5 64t19.5 30.5t37 8.5h59l15 777h-54q-24 0 -37 8t-19.5 30t-6.5 64t6.5 64t19.5 30.5t37 8.5h284q21 0 34.5 -7t19.5 -24
l183 -491l182 491q6 17 19.5 24t34.5 7h285q24 0 37 -8.5z" />
    <glyph glyph-name="N" unicode="N" 
d="M1172 1178.5q13 -8.5 19.5 -30.5t6.5 -64t-6.5 -64t-19.5 -30t-37 -8h-57v-938q0 -33 -25 -49.5t-85 -16.5q-46 0 -68.5 12.5t-39.5 40.5l-450 745h-4v-571h111q24 0 37 -8.5t19.5 -30.5t6.5 -64t-6.5 -64t-19.5 -30t-37 -8h-404q-24 0 -37 8t-19.5 30t-6.5 64t6.5 64
t19.5 30.5t37 8.5h67v777h-67q-24 0 -37 8t-19.5 30t-6.5 64t6.5 64t19.5 30.5t37 8.5h264q40 0 56 -27l415 -687h4v509h-92q-24 0 -37 8t-19.5 30t-6.5 64t6.5 64t19.5 30.5t37 8.5h375q24 0 37 -8.5z" />
    <glyph glyph-name="O" unicode="O" 
d="M903 1134.5q125 -74.5 193.5 -214t68.5 -326.5t-68.5 -326.5t-193.5 -214.5t-289 -75t-289 75t-193.5 214.5t-68.5 326.5t68.5 326.5t193.5 214t289 74.5t289 -74.5zM403 882q-72 -100 -72 -288t72 -288.5t211 -100.5t211 100.5t72 288.5t-72 288t-211 100t-211 -100z
" />
    <glyph glyph-name="P" unicode="P" 
d="M1018.5 1083.5q118.5 -103.5 118.5 -298.5t-118.5 -299t-348.5 -104h-150v-177h217q24 0 37 -8.5t19.5 -30.5t6.5 -64t-6.5 -64t-19.5 -30t-37 -8h-614q-24 0 -37 8t-19.5 30t-6.5 64t6.5 64t19.5 30.5t37 8.5h147v777h-147q-24 0 -37 8t-19.5 30t-6.5 64t6.5 64
t19.5 30.5t37 8.5h547q230 0 348.5 -103.5zM520 597h119q119 0 179.5 46t60.5 142t-60.5 141.5t-179.5 45.5h-119v-375z" />
    <glyph glyph-name="Q" unicode="Q" 
d="M903 1138q125 -71 193.5 -201t68.5 -303t-68.5 -303.5t-193.5 -201.5t-289 -71q-25 0 -45 2l-106 -106q78 29 156 29q31 0 65.5 -4.5t65.5 -10.5q28 -5 57.5 -9.5t55.5 -4.5q78 0 153 40q12 6 25 6q22 0 43.5 -18t36.5 -49q19 -38 19 -69q0 -42 -35 -68
q-57 -42 -111.5 -59.5t-111.5 -17.5q-36 0 -73.5 5.5t-88.5 15.5q-65 12 -106.5 17.5t-87.5 5.5q-118 0 -229 -47q-6 -3 -14 -3q-19 0 -40 18t-36 46q-22 39 -22 74q0 30 17 47l188 200q-153 61 -240 201t-87 335q0 173 68.5 303t193.5 201t289 71t289 -71zM403.5 891
q-72.5 -91 -72.5 -257t72.5 -257.5t210.5 -91.5t210.5 91.5t72.5 257.5t-72.5 257t-210.5 91t-210.5 -91z" />
    <glyph glyph-name="R" unicode="R" 
d="M974 1094q113 -93 113 -270q0 -231 -248 -291q54 -21 86 -62q21 -27 38.5 -56.5t40.5 -74.5q24 -48 37 -69q20 -33 40 -49.5t45 -16.5h19q24 0 37 -8.5t19.5 -30.5t6.5 -64t-6.5 -64t-19.5 -30t-37 -8h-97q-79 0 -128 32t-90 107q-20 35 -48 96q-20 46 -38 79.5t-40 65.5
q-31 43 -69 62t-91 19h-64v-256h97q24 0 37 -8.5t19.5 -30.5t6.5 -64t-6.5 -64t-19.5 -30t-37 -8h-454q-24 0 -37 8t-19.5 30t-6.5 64t6.5 64t19.5 30.5t37 8.5h107v777h-107q-24 0 -37 8t-19.5 30t-6.5 64t6.5 64t19.5 30.5t37 8.5h527q211 0 324 -93zM480 676h149
q102 0 151 36.5t49 111.5t-49 111.5t-151 36.5h-149v-296z" />
    <glyph glyph-name="S" unicode="S" 
d="M1007 1194.5q27 -14.5 27 -48.5v-274q0 -34 -21.5 -48.5t-70.5 -14.5q-33 0 -52 8t-30 24q-47 74 -121 114.5t-171 40.5q-73 0 -114.5 -37t-41.5 -96q0 -29 18 -47.5t52 -32.5q44 -17 151 -35q104 -20 170 -37.5t124 -53.5q160 -97 160 -313q0 -110 -46.5 -192
t-139.5 -128t-229 -46q-167 0 -283 101v-38q0 -34 -24.5 -48.5t-87.5 -14.5q-64 0 -91 14.5t-27 48.5v334q0 34 21.5 48.5t70.5 14.5q35 0 55.5 -9t31.5 -31q54 -103 129 -155t175 -52q88 0 134 36t46 100q0 40 -20.5 67.5t-59.5 46.5q-32 16 -70.5 26t-113.5 26
q-86 18 -142 33t-105 41q-76 40 -119 106.5t-43 172.5t49 188.5t137.5 128.5t202.5 46q80 0 148 -26t118 -74v37q0 34 24.5 48.5t87.5 14.5q64 0 91 -14.5z" />
    <glyph glyph-name="T" unicode="T" 
d="M1115 1172q15 -15 15 -50v-422q0 -33 -27.5 -48t-84.5 -15q-55 0 -76.5 14.5t-21.5 48.5v272h-181v-767h216q24 0 37 -8.5t19.5 -30.5t6.5 -64t-6.5 -64t-19.5 -30t-37 -8h-682q-24 0 -37 8t-19.5 30t-6.5 64t6.5 64t19.5 30.5t37 8.5h216v767h-181v-272q0 -33 -27.5 -48
t-84.5 -15q-55 0 -76.5 14.5t-21.5 48.5v422q0 35 15.5 50t49.5 15h902q35 0 50 -15z" />
    <glyph glyph-name="U" unicode="U" 
d="M1152 1178.5q13 -8.5 19.5 -30.5t6.5 -64t-6.5 -64t-19.5 -30t-37 -8h-47v-569q0 -138 -55 -236t-157 -148.5t-242 -50.5t-242 50.5t-157 148.5t-55 236v569h-47q-24 0 -37 8t-19.5 30t-6.5 64t6.5 64t19.5 30.5t37 8.5h374q24 0 37 -8.5t19.5 -30.5t6.5 -64t-6.5 -64
t-19.5 -30t-37 -8h-77v-549q0 -115 55 -171.5t149 -56.5t149 56.5t55 171.5v549h-77q-24 0 -37 8t-19.5 30t-6.5 64t6.5 64t19.5 30.5t37 8.5h374q24 0 37 -8.5z" />
    <glyph glyph-name="V" unicode="V" 
d="M1212 1178.5q13 -8.5 19.5 -30.5t6.5 -64t-6.5 -64t-19.5 -30t-37 -8h-68l-363 -939q-14 -36 -43 -50.5t-90 -14.5t-89.5 15t-41.5 50l-350 939h-77q-24 0 -37 8t-19.5 30t-6.5 64t6.5 64t19.5 30.5t37 8.5h434q24 0 37 -8.5t19.5 -30.5t6.5 -64t-6.5 -64t-19.5 -30
t-37 -8h-89l215 -613l229 613h-71q-24 0 -37 8t-19.5 30t-6.5 64t6.5 64t19.5 30.5t37 8.5h404q24 0 37 -8.5z" />
    <glyph glyph-name="W" unicode="W" 
d="M1222 1178.5q13 -8.5 19.5 -30.5t6.5 -64t-6.5 -64t-19.5 -30t-37 -8h-56l-101 -939q-3 -25 -14 -39t-36 -20t-71 -6q-66 0 -95.5 15t-41.5 50l-160 471l-162 -471q-12 -35 -42 -50t-97 -15q-46 0 -70.5 6t-35 20t-13.5 39l-97 939h-50q-24 0 -37 8t-19.5 30t-6.5 64
t6.5 64t19.5 30.5t37 8.5h394q24 0 37 -8.5t19.5 -30.5t6.5 -64t-6.5 -64t-19.5 -30t-37 -8h-117l53 -584l146 428q7 23 27 35t67 12q50 0 72 -9.5t28 -30.5l147 -435l54 584h-103q-24 0 -37 8t-19.5 30t-6.5 64t6.5 64t19.5 30.5t37 8.5h374q24 0 37 -8.5z" />
    <glyph glyph-name="X" unicode="X" 
d="M1142 1178.5q13 -8.5 19.5 -30.5t6.5 -64t-6.5 -64t-19.5 -30t-37 -8h-56l-266 -378l291 -399h61q24 0 37 -8.5t19.5 -30.5t6.5 -64t-6.5 -64t-19.5 -30t-37 -8h-404q-24 0 -37 8t-19.5 30t-6.5 64t6.5 64t19.5 30.5t37 8.5h52l-173 244l-171 -244h38q24 0 37 -8.5
t19.5 -30.5t6.5 -64t-6.5 -64t-19.5 -30t-37 -8h-384q-24 0 -37 8t-19.5 30t-6.5 64t6.5 64t19.5 30.5t37 8.5h62l291 410l-263 367h-60q-24 0 -37 8t-19.5 30t-6.5 64t6.5 64t19.5 30.5t37 8.5h394q24 0 37 -8.5t19.5 -30.5t6.5 -64t-6.5 -64t-19.5 -30t-37 -8h-43
l146 -209l145 209h-24q-24 0 -37 8t-19.5 30t-6.5 64t6.5 64t19.5 30.5t37 8.5h364q24 0 37 -8.5z" />
    <glyph glyph-name="Y" unicode="Y" 
d="M1162 1178.5q13 -8.5 19.5 -30.5t6.5 -64t-6.5 -64t-19.5 -30t-37 -8h-44l-342 -523v-254h196q24 0 37 -8.5t19.5 -30.5t6.5 -64t-6.5 -64t-19.5 -30t-37 -8h-642q-24 0 -37 8t-19.5 30t-6.5 64t6.5 64t19.5 30.5t37 8.5h196v255l-340 522h-46q-24 0 -37 8t-19.5 30
t-6.5 64t6.5 64t19.5 30.5t37 8.5h394q24 0 37 -8.5t19.5 -30.5t6.5 -64t-6.5 -64t-19.5 -30t-37 -8h-67l186 -292l188 292h-53q-24 0 -37 8t-19.5 30t-6.5 64t6.5 64t19.5 30.5t37 8.5h374q24 0 37 -8.5z" />
    <glyph glyph-name="Z" unicode="Z" 
d="M1054 1178.5q13 -8.5 19.5 -30.5t6.5 -64q0 -61 -23 -92l-574 -777h367v222q0 34 29 48.5t93 14.5q62 0 85 -14t23 -49v-372q0 -34 -15 -49.5t-50 -15.5h-814q-24 0 -37 8t-19.5 30t-6.5 64q0 66 20 93l574 777h-334v-202q0 -34 -29 -48.5t-93 -14.5q-62 0 -85 14t-23 49
v352q0 35 15.5 50t49.5 15h784q24 0 37 -8.5z" />
    <glyph glyph-name="bracketleft" unicode="[" 
d="M912 -131.5q14 -23.5 14 -89.5t-14 -89t-49 -23h-510q-34 0 -48.5 14.5t-14.5 48.5v1579q0 34 14.5 48.5t48.5 14.5h510q35 0 49 -23.5t14 -89.5t-14 -89t-49 -23h-323v-1255h323q35 0 49 -23.5z" />
    <glyph glyph-name="backslash" unicode="\" 
d="M399 1356l666 -1618q4 -9 4 -20q0 -34 -45.5 -56t-112.5 -22q-64 0 -82 43l-666 1618q-4 9 -4 20q0 34 45.5 56t112.5 22q64 0 82 -43z" />
    <glyph glyph-name="bracketright" unicode="]" 
d="M923.5 1357.5q14.5 -14.5 14.5 -48.5v-1579q0 -34 -14.5 -48.5t-48.5 -14.5h-510q-35 0 -49 23t-14 89t14 89.5t49 23.5h323v1255h-323q-35 0 -49 23t-14 89t14 89.5t49 23.5h510q34 0 48.5 -14.5z" />
    <glyph glyph-name="asciicircum" unicode="^" 
d="M679.5 1200q23.5 -9 32.5 -28l318 -610q5 -10 5 -18q0 -23 -27 -40.5t-68 -27.5q-34 -8 -62 -8q-29 0 -49.5 7.5t-27.5 21.5l-187 390l-187 -390q-7 -14 -27.5 -21.5t-49.5 -7.5q-28 0 -62 8q-41 10 -68 27.5t-27 40.5q0 8 5 18l318 610q9 19 32 28t66 9q42 0 65.5 -9z
" />
    <glyph glyph-name="underscore" unicode="_" 
d="M1253 -296.5q7 -8.5 10 -32.5t3 -72t-3 -71.5t-10 -32t-20 -8.5h-1238q-13 0 -20 8.5t-10 32t-3 71.5t3 72t10 32.5t20 8.5h1238q13 0 20 -8.5z" />
    <glyph glyph-name="grave" unicode="`" 
d="M820 1135q0 -28 -22 -63q-32 -51 -68 -51q-12 0 -23 6l-407 205q-24 12 -24 44q0 39 40 93q57 75 103 75q17 0 33 -11l347 -255q21 -15 21 -43z" />
    <glyph glyph-name="a" unicode="a" 
d="M921 851q98 -95 98 -272v-289q0 -40 17 -62.5t49 -22.5h31q24 0 37 -8.5t19.5 -30.5t6.5 -64t-6.5 -64t-19.5 -30t-37 -8h-112q-62 0 -109.5 25.5t-72.5 80.5q-79 -61 -167 -94.5t-181 -33.5q-113 0 -195 38.5t-125.5 110t-43.5 168.5q0 140 99 217t277 77q133 0 283 -30
v29q0 67 -42 99t-148 32q-59 0 -131.5 -14.5t-143.5 -38.5q-17 -5 -29 -5q-25 0 -44.5 18.5t-35.5 62.5q-15 44 -15 72q0 51 46 68q89 32 189 48t188 16q220 0 318 -95zM404.5 358q-36.5 -25 -36.5 -73q0 -47 35.5 -71.5t102.5 -24.5q69 0 136.5 27.5t126.5 75.5v64
q-132 27 -258 27q-70 0 -106.5 -25z" />
    <glyph glyph-name="b" unicode="b" 
d="M422.5 1297.5q14.5 -14.5 14.5 -48.5v-421q51 57 118 87.5t145 30.5q131 0 229 -64t150 -174t52 -246t-52 -246t-150 -174t-229 -64q-95 0 -173 44.5t-130 124.5v-84q0 -34 -14.5 -48.5t-48.5 -14.5h-224q-24 0 -37 8.5t-19.5 30.5t-6.5 64t6.5 64t19.5 30t37 8h77v902
h-97q-24 0 -37 8t-19.5 30t-6.5 64t6.5 64t19.5 30.5t37 8.5h284q34 0 48.5 -14.5zM544 689q-52 -30 -83 -88.5t-31 -138.5t31 -138.5t83 -88.5t116 -30q62 0 108 31.5t70.5 89.5t24.5 136t-24.5 136t-70.5 89.5t-108 31.5q-64 0 -116 -30z" />
    <glyph glyph-name="c" unicode="c" 
d="M1040 932q23 -14 23 -49v-321q0 -34 -30.5 -48.5t-101.5 -14.5q-47 0 -72.5 6.5t-35.5 19.5t-10 37q0 42 -20.5 78t-61 57.5t-97.5 21.5q-72 0 -126 -31.5t-83.5 -90t-29.5 -135.5t29.5 -135.5t83.5 -90t126 -31.5q77 0 157.5 25t156.5 69q18 10 33 10q45 0 79 -79
q18 -43 18 -73q0 -45 -43 -69q-93 -52 -195.5 -81t-205.5 -29q-152 0 -267 62t-177.5 172t-62.5 250t63 250.5t171.5 172t242.5 61.5q162 0 229 -117v54q0 34 29 48.5t93 14.5q62 0 85 -14z" />
    <glyph glyph-name="d" unicode="d" 
d="M1026.5 1297.5q14.5 -14.5 14.5 -48.5v-1044h87q24 0 37 -8t19.5 -30t6.5 -64t-6.5 -64t-19.5 -30.5t-37 -8.5h-234q-34 0 -48.5 14.5t-14.5 48.5v84q-52 -80 -130 -124.5t-173 -44.5q-131 0 -229 64t-150 174t-52 246t52 246t150 174t229 64q78 0 145 -30.5t118 -87.5
v279h-147q-24 0 -37 8t-19.5 30t-6.5 64t6.5 64t19.5 30.5t37 8.5h334q34 0 48.5 -14.5zM460 687.5q-46 -31.5 -70.5 -89.5t-24.5 -136t24.5 -136t70.5 -89.5t108 -31.5q64 0 116 30t83 88.5t31 138.5t-31 138.5t-83 88.5t-116 30q-62 0 -108 -31.5z" />
    <glyph glyph-name="e" unicode="e" 
d="M887 880.5q107 -65.5 161.5 -182t54.5 -266.5q0 -34 -14.5 -48t-48.5 -14h-642q19 -80 81.5 -122.5t158.5 -42.5q155 0 336 55q12 4 24 4q22 0 38 -20t29 -68q10 -37 10 -63t-11.5 -40.5t-37.5 -23.5q-100 -33 -204 -52t-204 -19q-152 0 -262 62t-167.5 171.5
t-57.5 250.5q0 140 60 250t173 172t264 62q152 0 259 -65.5zM402 565h440q-17 73 -72.5 113.5t-141.5 40.5q-183 0 -226 -154z" />
    <glyph glyph-name="f" unicode="f" 
d="M1074 1260q25 -9 37.5 -25.5t12.5 -44.5q0 -26 -10 -62q-12 -44 -29.5 -63t-41.5 -19q-12 0 -29 5q-127 39 -222 39q-129 0 -129 -166v-60h311q35 0 49 -23t14 -85t-14 -84.5t-49 -22.5h-311v-444h281q24 0 37 -8.5t19.5 -30.5t6.5 -64t-6.5 -64t-19.5 -30t-37 -8h-714
q-24 0 -37 8t-19.5 30t-6.5 64t6.5 64t19.5 30.5t37 8.5h183v444h-183q-35 0 -49 22.5t-14 84.5t14 85t49 23h183v73q0 186 91.5 283t265.5 97q152 0 304 -57z" />
    <glyph glyph-name="g" unicode="g" 
d="M701 906q78 -40 130 -115v70q0 34 14.5 48.5t48.5 14.5h234q24 0 37 -8.5t19.5 -30.5t6.5 -64t-6.5 -64t-19.5 -30t-37 -8h-87v-718q0 -196 -117.5 -303.5t-351.5 -107.5q-86 0 -188 16.5t-195 45.5q-48 15 -48 69q0 24 13 70q15 47 33.5 68t43.5 21q13 0 24 -4
q191 -59 307 -59q121 0 175 50.5t54 153.5v102q-51 -55 -118 -85t-145 -30q-129 0 -227 60.5t-151 167t-53 241.5t53 241.5t151 167t227 60.5q95 0 173 -40zM420 655.5q-55 -63.5 -55 -178.5t55 -178.5t148 -63.5q64 0 116.5 27.5t83 82t30.5 132.5t-30.5 132.5t-83 82
t-116.5 27.5q-93 0 -148 -63.5z" />
    <glyph glyph-name="h" unicode="h" 
d="M442.5 1297.5q14.5 -14.5 14.5 -48.5v-486q120 183 290 183q91 0 159.5 -40t105.5 -113.5t37 -172.5v-415h77q24 0 37 -8.5t19.5 -30.5t6.5 -64t-6.5 -64t-19.5 -30t-37 -8h-374q-24 0 -37 8t-19.5 30t-6.5 64t6.5 64t19.5 30.5t37 8.5h47v356q0 78 -27 118t-90 40
q-58 0 -110 -48.5t-83.5 -129.5t-31.5 -173v-163h47q24 0 37 -8.5t19.5 -30.5t6.5 -64t-6.5 -64t-19.5 -30t-37 -8h-374q-24 0 -37 8t-19.5 30t-6.5 64t6.5 64t19.5 30.5t37 8.5h77v902h-97q-24 0 -37 8t-19.5 30t-6.5 64t6.5 64t19.5 30.5t37 8.5h284q34 0 48.5 -14.5z" />
    <glyph glyph-name="i" unicode="i" 
d="M738.5 909.5q14.5 -14.5 14.5 -48.5v-656h281q24 0 37 -8.5t19.5 -30.5t6.5 -64t-6.5 -64t-19.5 -30t-37 -8h-804q-24 0 -37 8t-19.5 30t-6.5 64t6.5 64t19.5 30.5t37 8.5h273v514h-213q-24 0 -37 8t-19.5 30t-6.5 64t6.5 64t19.5 30.5t37 8.5h400q34 0 48.5 -14.5z
M724.5 1348.5q28.5 -14.5 28.5 -48.5v-164q0 -34 -26.5 -48.5t-96.5 -14.5t-98.5 14.5t-28.5 48.5v164q0 35 26 49t96 14q71 0 99.5 -14.5z" />
    <glyph glyph-name="j" unicode="j" 
d="M908.5 909.5q14.5 -14.5 14.5 -48.5v-891q0 -186 -91.5 -283t-265.5 -97q-86 0 -178.5 24.5t-183.5 70.5q-45 22 -45 67q0 28 18 70t37 61.5t44 19.5q14 0 35 -8q82 -37 143.5 -57.5t107.5 -20.5q129 0 129 166v736h-383q-24 0 -37 8t-19.5 30t-6.5 64t6.5 64t19.5 30.5
t37 8.5h570q34 0 48.5 -14.5zM894.5 1348.5q28.5 -14.5 28.5 -48.5v-164q0 -34 -26.5 -48.5t-96.5 -14.5t-98.5 14.5t-28.5 48.5v164q0 35 26 49t96 14q71 0 99.5 -14.5z" />
    <glyph glyph-name="k" unicode="k" 
d="M1155 184q14 -21 14 -82q0 -42 -6.5 -64t-19.5 -30t-37 -8h-171q-50 0 -78 40l-252 350l-138 -105v-80h87q24 0 37 -8.5t19.5 -30.5t6.5 -64t-6.5 -64t-19.5 -30t-37 -8h-414q-24 0 -37 8t-19.5 30t-6.5 64t6.5 64t19.5 30.5t37 8.5h77v902h-97q-24 0 -37 8t-19.5 30
t-6.5 64t6.5 64t19.5 30.5t37 8.5h284q34 0 48.5 -14.5t14.5 -48.5v-722l260 212h-50q-35 0 -49 19t-14 73q0 55 14 74t49 19h414q35 0 49 -19t14 -74q0 -54 -14 -73t-49 -19h-40l-249 -201l243 -333h61q35 0 49 -21z" />
    <glyph glyph-name="l" unicode="l" 
d="M728.5 1297.5q14.5 -14.5 14.5 -48.5v-1044h281q24 0 37 -8.5t19.5 -30.5t6.5 -64t-6.5 -64t-19.5 -30t-37 -8h-804q-24 0 -37 8t-19.5 30t-6.5 64t6.5 64t19.5 30.5t37 8.5h273v902h-233q-24 0 -37 8t-19.5 30t-6.5 64t6.5 64t19.5 30.5t37 8.5h420q34 0 48.5 -14.5z
" />
    <glyph glyph-name="m" unicode="m" 
d="M1111 871q53 -75 53 -228v-580q0 -34 -14.5 -48.5t-48.5 -14.5h-124q-34 0 -48.5 14.5t-14.5 48.5v523q0 53 -12.5 78t-39.5 25q-47 0 -74.5 -73t-27.5 -213v-340q0 -34 -14.5 -48.5t-48.5 -14.5h-124q-34 0 -48.5 14.5t-14.5 48.5v523q0 53 -12.5 78t-39.5 25
q-47 0 -74.5 -73t-27.5 -213v-340q0 -34 -14.5 -48.5t-48.5 -14.5h-124q-34 0 -48.5 14.5t-14.5 48.5v656h-57q-24 0 -37 8t-19.5 30t-6.5 64t6.5 64t19.5 30.5t37 8.5h174q34 0 48.5 -14.5t14.5 -48.5v-144q47 113 110.5 171t139.5 58q148 0 191 -203q46 100 107 151.5
t132 51.5q92 0 145 -75z" />
    <glyph glyph-name="n" unicode="n" 
d="M916.5 906q68.5 -40 105.5 -113.5t37 -172.5v-415h77q24 0 37 -8.5t19.5 -30.5t6.5 -64t-6.5 -64t-19.5 -30t-37 -8h-374q-24 0 -37 8t-19.5 30t-6.5 64t6.5 64t19.5 30.5t37 8.5h47v356q0 78 -27 118t-90 40q-58 0 -110 -48.5t-83.5 -129.5t-31.5 -173v-163h47
q24 0 37 -8.5t19.5 -30.5t6.5 -64t-6.5 -64t-19.5 -30t-37 -8h-374q-24 0 -37 8t-19.5 30t-6.5 64t6.5 64t19.5 30.5t37 8.5h77v514h-97q-24 0 -37 8t-19.5 30t-6.5 64t6.5 64t19.5 30.5t37 8.5h244q34 0 48.5 -14.5t14.5 -48.5v-145q132 230 330 230q91 0 159.5 -40z" />
    <glyph glyph-name="o" unicode="o" 
d="M880 884q114 -62 175.5 -172t61.5 -250t-61.5 -250t-175.5 -172t-266 -62t-266 62t-175.5 172t-61.5 250t61.5 250t175.5 172t266 62t266 -62zM489 687.5q-53 -31.5 -81.5 -89.5t-28.5 -136t28.5 -136t81.5 -89.5t125 -31.5t125 31.5t81.5 89.5t28.5 136t-28.5 136
t-81.5 89.5t-125 31.5t-125 -31.5z" />
    <glyph glyph-name="p" unicode="p" 
d="M929 882q98 -64 150 -174t52 -246t-52 -246t-150 -174t-229 -64q-78 0 -145 30.5t-118 87.5v-279h167q24 0 37 -8t19.5 -30t6.5 -64t-6.5 -64t-19.5 -30.5t-37 -8.5h-504q-24 0 -37 8t-19.5 30t-6.5 64t6.5 64t19.5 30.5t37 8.5h87v902h-87q-24 0 -37 8t-19.5 30t-6.5 64
t6.5 64t19.5 30.5t37 8.5h234q34 0 48.5 -14.5t14.5 -48.5v-84q52 80 130 124.5t173 44.5q131 0 229 -64zM544 689q-52 -30 -83 -88.5t-31 -138.5t31 -138.5t83 -88.5t116 -30q62 0 108 31.5t70.5 89.5t24.5 136t-24.5 136t-70.5 89.5t-108 31.5q-64 0 -116 -30z" />
    <glyph glyph-name="q" unicode="q" 
d="M701 901.5q78 -44.5 130 -124.5v84q0 34 14.5 48.5t48.5 14.5h234q24 0 37 -8.5t19.5 -30.5t6.5 -64t-6.5 -64t-19.5 -30t-37 -8h-87v-902h87q24 0 37 -8.5t19.5 -30.5t6.5 -64t-6.5 -64t-19.5 -30t-37 -8h-504q-24 0 -37 8.5t-19.5 30.5t-6.5 64t6.5 64t19.5 30t37 8
h167v279q-51 -57 -118 -87.5t-145 -30.5q-131 0 -229 64t-150 174t-52 246t52 246t150 174t229 64q95 0 173 -44.5zM460 687.5q-46 -31.5 -70.5 -89.5t-24.5 -136t24.5 -136t70.5 -89.5t108 -31.5q64 0 116 30t83 88.5t31 138.5t-31 138.5t-83 88.5t-116 30
q-62 0 -108 -31.5z" />
    <glyph glyph-name="r" unicode="r" 
d="M1087 890q44 -32 44 -84q0 -33 -18 -78t-40.5 -68t-47.5 -23q-14 0 -30 8q-56 31 -116 31q-77 0 -144 -49t-107.5 -135t-40.5 -192v-95h287q24 0 37 -8.5t19.5 -30.5t6.5 -64t-6.5 -64t-19.5 -30t-37 -8h-684q-24 0 -37 8t-19.5 30t-6.5 64t6.5 64t19.5 30.5t37 8.5h147
v514h-117q-24 0 -37 8t-19.5 30t-6.5 64t6.5 64t19.5 30.5t37 8.5h274q34 0 48.5 -14.5t14.5 -48.5v-217q75 145 172.5 223.5t197.5 78.5q85 0 160 -56z" />
    <glyph glyph-name="s" unicode="s" 
d="M997 931.5q27 -14.5 27 -48.5v-211q0 -34 -21.5 -48.5t-70.5 -14.5q-53 0 -73 21q-59 63 -135 89.5t-176 26.5q-59 0 -92.5 -21t-33.5 -56q0 -42 74 -60q39 -10 133 -19q93 -11 154.5 -22t116.5 -33q80 -33 125 -92t45 -156q0 -95 -46.5 -164.5t-136 -107t-215.5 -37.5
q-139 0 -258 71v-8q0 -34 -29 -48.5t-93 -14.5t-91 14.5t-27 48.5v223q0 33 23.5 48t72.5 15q61 0 83 -28q50 -63 128 -92t171 -29q160 0 160 83q0 25 -22.5 40t-66.5 25q-25 5 -116 18q-101 12 -173.5 27.5t-131.5 48.5q-138 76 -138 240q0 87 47 152t129.5 99.5
t185.5 34.5q151 0 268 -73v10q0 34 24.5 48.5t87.5 14.5q64 0 91 -14.5z" />
    <glyph glyph-name="t" unicode="t" 
d="M557.5 1202.5q25.5 -6.5 35.5 -19.5t10 -37v-282h371q35 0 49 -23t14 -85t-14 -84.5t-49 -22.5h-371v-278q0 -166 129 -166q46 0 107.5 20.5t143.5 57.5q22 9 35 9q21 0 39 -17.5t34 -57.5q18 -45 18 -73q0 -22 -10.5 -36.5t-31.5 -25.5q-206 -104 -357 -104
q-174 0 -265.5 97t-91.5 283v291h-193q-35 0 -49 22.5t-14 84.5t14 85t49 23h193v282q0 34 30.5 48.5t101.5 14.5q47 0 72.5 -6.5z" />
    <glyph glyph-name="u" unicode="u" 
d="M1017.5 909.5q14.5 -14.5 14.5 -48.5v-656h77q24 0 37 -8t19.5 -30t6.5 -64t-6.5 -64t-19.5 -30.5t-37 -8.5h-224q-34 0 -48.5 14.5t-14.5 48.5v145q-132 -230 -330 -230q-91 0 -159.5 40t-105.5 113.5t-37 172.5v415h-77q-24 0 -37 8.5t-19.5 30.5t-6.5 64t6.5 64
t19.5 30t37 8h264q34 0 48.5 -14.5t14.5 -48.5v-498q0 -78 27 -118t90 -40q58 0 110 48.5t83.5 129.5t31.5 173v163h-107q-24 0 -37 8.5t-19.5 30.5t-6.5 64t6.5 64t19.5 30t37 8h294q34 0 48.5 -14.5z" />
    <glyph glyph-name="v" unicode="v" 
d="M1162 915.5q13 -8.5 19.5 -30.5t6.5 -64t-6.5 -64t-19.5 -30t-37 -8h-68l-293 -676q-15 -35 -49 -50t-104 -15t-103 15t-48 50l-291 676h-66q-24 0 -37 8t-19.5 30t-6.5 64t6.5 64t19.5 30.5t37 8.5h404q24 0 37 -8.5t19.5 -30.5t6.5 -64t-6.5 -64t-19.5 -30t-37 -8h-67
l177 -441l179 441h-55q-24 0 -37 8t-19.5 30t-6.5 64t6.5 64t19.5 30.5t37 8.5h384q24 0 37 -8.5z" />
    <glyph glyph-name="w" unicode="w" 
d="M1222 915.5q13 -8.5 19.5 -30.5t6.5 -64t-6.5 -64t-19.5 -30t-37 -8h-41l-146 -676q-8 -36 -34.5 -50.5t-86.5 -14.5q-58 0 -86 15t-41 50l-140 355l-142 -355q-14 -35 -42 -50t-87 -15q-60 0 -85.5 14.5t-33.5 50.5l-143 676h-34q-24 0 -37 8t-19.5 30t-6.5 64t6.5 64
t19.5 30.5t37 8.5h344q24 0 37 -8.5t19.5 -30.5t6.5 -64t-6.5 -64t-19.5 -30t-37 -8h-85l75 -388l138 339q11 28 33 42.5t63 14.5q43 0 64.5 -12t32.5 -38l137 -346l78 388h-72q-24 0 -37 8t-19.5 30t-6.5 64t6.5 64t19.5 30.5t37 8.5h334q24 0 37 -8.5z" />
    <glyph glyph-name="x" unicode="x" 
d="M1122 915.5q13 -8.5 19.5 -30.5t6.5 -64t-6.5 -64t-19.5 -30t-37 -8h-59l-241 -251l259 -263h51q24 0 37 -8.5t19.5 -30.5t6.5 -64t-6.5 -64t-19.5 -30t-37 -8h-384q-24 0 -37 8t-19.5 30t-6.5 64t6.5 64t19.5 30.5t37 8.5h14l-131 134l-124 -134h17q24 0 37 -8.5
t19.5 -30.5t6.5 -64t-6.5 -64t-19.5 -30t-37 -8h-354q-24 0 -37 8t-19.5 30t-6.5 64t6.5 64t19.5 30.5t37 8.5h54l254 264l-246 250h-52q-24 0 -37 8t-19.5 30t-6.5 64t6.5 64t19.5 30.5t37 8.5h374q24 0 37 -8.5t19.5 -30.5t6.5 -64t-6.5 -64t-19.5 -30t-37 -8h-13
l128 -131l121 131h-22q-24 0 -37 8t-19.5 30t-6.5 64t6.5 64t19.5 30.5t37 8.5h354q24 0 37 -8.5z" />
    <glyph glyph-name="y" unicode="y" 
d="M1162 915.5q13 -8.5 19.5 -30.5t6.5 -64t-6.5 -64t-19.5 -30t-37 -8h-64l-383 -776q-70 -141 -133.5 -214.5t-145 -104t-210.5 -34.5q-36 -1 -54.5 27t-18.5 102q0 51 13.5 73t38.5 24q79 5 128.5 30t90 79.5t97.5 164.5l-306 629h-75q-24 0 -37 8t-19.5 30t-6.5 64
t6.5 64t19.5 30.5t37 8.5h404q24 0 37 -8.5t19.5 -30.5t6.5 -64t-6.5 -64t-19.5 -30t-37 -8h-60l174 -380l174 380h-54q-24 0 -37 8t-19.5 30t-6.5 64t6.5 64t19.5 30.5t37 8.5h384q24 0 37 -8.5z" />
    <glyph glyph-name="z" unicode="z" 
d="M1054 916q13 -8 19.5 -30t6.5 -64q0 -27 -7 -45t-25 -37l-523 -535h325v124q0 35 26 49t96 14q47 0 70 -6t30.5 -19t7.5 -38v-264q0 -34 -15 -49.5t-50 -15.5h-814q-24 0 -37 8t-19.5 30t-6.5 64q0 27 7 45t25 37l523 535h-305v-114q0 -35 -26 -49t-96 -14q-47 0 -70 6
t-30.5 19t-7.5 38v254q0 35 15.5 50t49.5 15h794q24 0 37 -8z" />
    <glyph glyph-name="braceleft" unicode="{" 
d="M984 1350.5q14 -21.5 14 -83.5q0 -46 -6 -69t-19.5 -31t-37.5 -8q-98 0 -151.5 -21.5t-73 -67t-15.5 -123.5l5 -97l1 -26q0 -105 -54 -173.5t-177 -103.5v-10q123 -34 178.5 -103t55.5 -171q0 -20 -1 -30l-9 -131q-1 -12 -1 -36q0 -67 23 -107t76 -59.5t143 -19.5
q24 0 37.5 -7.5t19.5 -30.5t6 -69q0 -62 -14 -84t-49 -22q-251 0 -372 88.5t-121 274.5q0 29 3 60l13 143q1 8 1 24q0 85 -59.5 131.5t-171.5 46.5q-24 0 -37 8.5t-19.5 31.5t-6.5 67t6.5 66.5t19.5 31t37 8.5q112 0 169.5 46t57.5 131q0 16 -1 25l-10 109q-3 30 -3 58
q0 181 121 268t373 87q35 0 49 -21.5z" />
    <glyph glyph-name="bar" unicode="|" 
d="M712 1379.5q27 -14.5 27 -48.5v-1623q0 -33 -33 -48t-99 -15q-64 0 -91 14.5t-27 48.5v1623q0 33 33 48t99 15q64 0 91 -14.5z" />
    <glyph glyph-name="braceright" unicode="}" 
d="M666 1285q121 -87 121 -268q0 -28 -3 -58l-10 -109q-1 -9 -1 -25q0 -85 57.5 -131t169.5 -46q24 0 37 -8.5t19.5 -31t6.5 -66.5t-6.5 -67t-19.5 -31.5t-37 -8.5q-112 0 -171.5 -46.5t-59.5 -131.5q0 -16 1 -24l13 -143q3 -31 3 -60q0 -186 -121 -274.5t-372 -88.5
q-35 0 -49 22t-14 84q0 46 6 69t19.5 30.5t37.5 7.5q90 0 143 19.5t76 59.5t23 107q0 24 -1 36l-9 131q-1 10 -1 30q0 102 55.5 171t178.5 103v10q-131 37 -183.5 112t-46.5 191l5 97q1 10 1 28q0 67 -22.5 106.5t-74.5 58.5t-144 19q-24 0 -37.5 8t-19.5 31t-6 69
q0 62 14 83.5t49 21.5q252 0 373 -87z" />
    <glyph glyph-name="asciitilde" unicode="~" 
d="M530 747.5q47 -17.5 113 -51.5q53 -28 90 -42.5t73 -14.5q39 0 69.5 16t62.5 50q18 19 40 19q33 0 74 -37q47 -41 47 -78q0 -17 -13 -38q-59 -87 -128.5 -131t-159.5 -44q-54 0 -102.5 18t-112.5 52q-54 28 -90 42t-71 14q-39 0 -69.5 -16t-62.5 -50q-18 -19 -40 -19
q-33 0 -74 37q-47 41 -47 78q0 17 13 38q59 87 128.5 131t159.5 44q53 0 100 -17.5z" />
    <glyph glyph-name="uni00A0" unicode="&#xa0;" 
 />
    <glyph glyph-name="exclamdown" unicode="&#xa1;" 
d="M495.5 608.5q-36.5 14.5 -36.5 48.5v214q0 34 36.5 48.5t118.5 14.5t118.5 -14.5t36.5 -48.5v-214q0 -34 -36.5 -48.5t-118.5 -14.5t-118.5 14.5zM466 -333q-10 12 -8 38l57 657q5 58 99 58t99 -58l57 -657q2 -26 -8 -38t-33 -12h-230q-23 0 -33 12z" />
    <glyph glyph-name="cent" unicode="&#xa2;" 
d="M1078 297q0 -45 -43 -69q-156 -87 -324 -106v-184q0 -35 -19 -49t-74 -14t-74 14t-19 49v189q-122 21 -211.5 86.5t-138 166t-48.5 222.5q0 126 51 228.5t141.5 167.5t205.5 82v169q0 35 19 49t74 14t74 -14t19 -49v-179q79 -27 122 -101v54q0 34 29 48.5t93 14.5
q62 0 85 -14t23 -49v-321q0 -34 -30.5 -48.5t-101.5 -14.5q-47 0 -72.5 6.5t-35.5 19.5t-10 37q0 48 -26.5 87.5t-75.5 56.5v-495q118 19 237 88q18 10 33 10q45 0 79 -79q18 -43 18 -73zM429.5 458q34.5 -61 95.5 -90v468q-61 -29 -95.5 -90t-34.5 -144t34.5 -144z" />
    <glyph glyph-name="sterling" unicode="&#xa3;" 
d="M955 1120q46 -24 46 -63v-207q0 -34 -29 -48.5t-93 -14.5q-62 0 -85 14t-23 49v111q-64 31 -143 31q-62 0 -97.5 -36.5t-35.5 -97.5q0 -43 15 -79.5t45 -88.5q4 -8 10 -17.5t12 -22.5h288q24 0 37 -9t19.5 -33t6.5 -71t-6.5 -71t-19.5 -32.5t-37 -8.5h-241
q-8 -59 -37 -112t-78 -106q75 28 141 28q39 0 88 -9q54 -8 80 -8q66 0 133 33q7 4 16 4q20 0 40.5 -20t34.5 -51q19 -40 19 -77t-21 -51q-59 -44 -113 -62t-109 -18q-31 0 -62 4.5t-74 12.5q-51 10 -88.5 15t-78.5 5q-114 0 -228 -47q-4 -2 -12 -2q-19 0 -39.5 20t-36.5 50
q-21 44 -21 77q0 35 21 50q89 70 130.5 128t45.5 136h-162q-24 0 -37 8.5t-19.5 32.5t-6.5 71t6.5 71t19.5 33t37 9h95q-32 61 -49.5 110t-17.5 107q0 98 45 175.5t130.5 122t203.5 44.5q162 0 335 -89z" />
    <glyph glyph-name="currency" unicode="&#xa4;" 
d="M1126 232q0 -15 -13.5 -35t-43.5 -50q-29 -30 -49 -43t-35 -13q-18 0 -39 21l-133 133q-91 -47 -199 -47t-199 47l-133 -133q-21 -21 -39 -21q-15 0 -35 13t-49 43q-30 30 -43.5 50t-13.5 35q0 18 21 39l131 131q-50 91 -50 200q0 110 50 202l-130 130q-21 21 -21 39
q0 15 13 35t43 49q30 30 50 43.5t35 13.5q18 0 39 -21l133 -133q89 46 198 46t198 -46l133 133q21 21 39 21q15 0 35 -13.5t50 -43.5q30 -29 43 -49t13 -35q0 -18 -21 -39l-130 -130q50 -92 50 -202q0 -109 -50 -200l131 -131q21 -21 21 -39zM449.5 505q23.5 -43 66.5 -67
t98 -24t98 24t66.5 67t23.5 97t-23.5 97t-66.5 67t-98 24t-98 -24t-66.5 -67t-23.5 -97t23.5 -97z" />
    <glyph glyph-name="yen" unicode="&#xa5;" 
d="M1162 1178.5q13 -8.5 19.5 -30.5t6.5 -64t-6.5 -64t-19.5 -30t-37 -8h-44l-93 -142h57q35 0 49 -19t14 -74q0 -54 -14 -73t-49 -19h-178l-94 -143h252q35 0 49 -19t14 -74q0 -54 -14 -73t-49 -19h-286v-122h196q24 0 37 -8.5t19.5 -30.5t6.5 -64t-6.5 -64t-19.5 -30
t-37 -8h-642q-24 0 -37 8t-19.5 30t-6.5 64t6.5 64t19.5 30.5t37 8.5h196v122h-286q-35 0 -49 19t-14 73q0 55 14 74t49 19h252l-93 143h-179q-35 0 -49 19t-14 73q0 55 14 74t49 19h58l-92 142h-46q-24 0 -37 8t-19.5 30t-6.5 64t6.5 64t19.5 30.5t37 8.5h394q24 0 37 -8.5
t19.5 -30.5t6.5 -64t-6.5 -64t-19.5 -30t-37 -8h-67l186 -292l188 292h-53q-24 0 -37 8t-19.5 30t-6.5 64t6.5 64t19.5 30.5t37 8.5h374q24 0 37 -8.5z" />
    <glyph glyph-name="brokenbar" unicode="&#xa6;" 
d="M712 1379.5q27 -14.5 27 -48.5v-623q0 -33 -33 -48t-99 -15q-64 0 -91 14.5t-27 48.5v623q0 33 33 48t99 15q64 0 91 -14.5zM712 379.5q27 -14.5 27 -48.5v-623q0 -33 -33 -48t-99 -15q-64 0 -91 14.5t-27 48.5v623q0 33 33 48t99 15q64 0 91 -14.5z" />
    <glyph glyph-name="section" unicode="&#xa7;" 
d="M1003 1172q15 -15 15 -50v-262q0 -34 -29 -48.5t-93 -14.5q-62 0 -85 14t-23 49v132h-193q-43 0 -66 -18.5t-23 -53.5q0 -69 86 -111l291 -145q90 -45 138 -119t48 -171q0 -139 -114 -234q15 -45 15 -99q0 -81 -35 -142t-102.5 -95t-163.5 -34h-394q-34 0 -49.5 15
t-15.5 50v262q0 34 29 48.5t93 14.5q62 0 85 -14t23 -49v-132h193q43 0 66 18.5t23 53.5q0 69 -86 111l-291 145q-90 45 -138 119t-48 171q0 140 113 233q-14 48 -14 100q0 81 35 142t102.5 95t163.5 34h394q35 0 50 -15zM407 592q0 -39 24 -69t76 -56l265 -132
q21 -11 36 -20q13 22 13 50q0 39 -24 69t-76 56l-265 132q-13 6 -37 20q-12 -22 -12 -50z" />
    <glyph glyph-name="dieresis" unicode="&#xa8;" 
d="M490.5 1348.5q28.5 -14.5 28.5 -48.5v-164q0 -34 -26.5 -48.5t-96.5 -14.5t-98.5 14.5t-28.5 48.5v164q0 35 26 49t96 14q71 0 99.5 -14.5zM930.5 1348.5q28.5 -14.5 28.5 -48.5v-164q0 -34 -26.5 -48.5t-96.5 -14.5t-98.5 14.5t-28.5 48.5v164q0 35 26 49t96 14
q71 0 99.5 -14.5z" />
    <glyph glyph-name="copyright" unicode="&#xa9;" 
d="M913.5 1128.5q133.5 -80.5 209 -221t75.5 -313.5t-75.5 -314t-209 -221.5t-300.5 -80.5t-300.5 80.5t-209 221.5t-75.5 314t75.5 313.5t209 221t300.5 80.5t300.5 -80.5zM386 996q-98 -60 -151.5 -165.5t-53.5 -236.5t53.5 -236.5t151.5 -166t227 -60.5t227 60.5
t151.5 166t53.5 236.5t-53.5 236.5t-151.5 165.5t-227 60t-227 -60zM734.5 926q48.5 -11 90.5 -32q18 -9 26.5 -21t8.5 -29q0 -21 -12 -53q-12 -31 -23.5 -45t-28.5 -14q-10 0 -19 4q-80 28 -138 28q-71 0 -112.5 -45t-41.5 -126t41.5 -126t112.5 -45q58 0 138 28q9 4 19 4
q17 0 28.5 -14t23.5 -45t12 -53q0 -17 -8.5 -29t-26.5 -21q-42 -21 -90.5 -32t-95.5 -11q-96 0 -171.5 41.5t-118 119t-42.5 183.5t42.5 183.5t118 119t171.5 41.5q47 0 95.5 -11z" />
    <glyph glyph-name="ordfeminine" unicode="&#xaa;" 
d="M852.5 1136q75.5 -73 75.5 -209v-222q0 -31 13 -48t37 -17h24q27 0 38 -16t11 -64q0 -47 -10.5 -62.5t-38.5 -15.5h-86q-102 0 -140 81q-61 -47 -129 -72.5t-139 -25.5q-131 0 -205 65.5t-74 178.5q0 107 76 166.5t213 59.5q99 0 217 -23v22q0 50 -34 75.5t-115 25.5
q-83 0 -208 -41q-11 -4 -22 -4q-21 0 -36 17t-27 53q-10 28 -10 47q0 36 35 49q70 26 147.5 39.5t142.5 13.5q169 0 244.5 -73zM455 756.5q-28 -19.5 -28 -55.5t27.5 -55t78.5 -19q53 0 105 21.5t97 57.5v50q-101 20 -198 20q-54 0 -82 -19.5z" />
    <glyph glyph-name="guillemotleft" unicode="&#xab;" 
d="M422 946q35 0 92 -39q65 -44 65 -86q0 -18 -14 -35l-209 -250l209 -251q14 -17 14 -35q0 -42 -65 -86q-57 -39 -92 -39q-25 0 -40 19l-279 366q-9 12 -9 26q0 15 9 25l279 366q15 19 40 19zM942 946q35 0 92 -39q65 -44 65 -86q0 -18 -14 -35l-209 -250l209 -251
q14 -17 14 -35q0 -42 -65 -86q-57 -39 -92 -39q-25 0 -40 19l-279 366q-9 12 -9 26q0 15 9 25l279 366q15 19 40 19z" />
    <glyph glyph-name="logicalnot" unicode="&#xac;" 
d="M1083 830q15 -15 15 -50v-472q0 -34 -30.5 -48.5t-101.5 -14.5q-47 0 -72.5 6.5t-35.5 19.5t-10 37v322h-665q-24 0 -37 8.5t-19.5 31.5t-6.5 68t6.5 67.5t19.5 31t37 8.5h850q35 0 50 -15z" />
    <glyph glyph-name="uni00AD" unicode="&#xad;" 
d="M1002 542q13 -9 19.5 -33t6.5 -71t-6.5 -71t-19.5 -32.5t-37 -8.5h-702q-24 0 -37 8.5t-19.5 32.5t-6.5 71t6.5 71t19.5 33t37 9h702q24 0 37 -9z" />
    <glyph glyph-name="registered" unicode="&#xae;" 
d="M863.5 1267q111.5 -67 174.5 -184t63 -261t-63 -261.5t-174.5 -185t-250.5 -67.5t-250.5 67.5t-174.5 185t-63 261.5t63 261t174.5 184t250.5 67t250.5 -67zM424 1156q-82 -50 -126.5 -137.5t-44.5 -196.5q0 -110 44.5 -198t126.5 -138t189 -50t189 50t126.5 138
t44.5 198q0 109 -44.5 196.5t-126.5 137.5t-189 50t-189 -50zM762 1063.5q46 -27.5 71 -74t25 -100.5q0 -56 -26 -98.5t-75 -65.5l64 -73q17 -20 17 -36q0 -22 -37 -48q-34 -23 -53 -23q-20 0 -38 23l-99 128h-62v-90q0 -31 -14 -42.5t-57 -11.5t-57 11.5t-14 42.5v432
q0 29 12.5 41t40.5 12h196q60 0 106 -27.5zM549 825h82q37 0 58 17t21 47q0 29 -19 46.5t-52 17.5h-90v-128z" />
    <glyph glyph-name="macron" unicode="&#xaf;" 
d="M922 1266.5q13 -8.5 19.5 -30.5t6.5 -64t-6.5 -64t-19.5 -30t-37 -8h-542q-24 0 -37 8t-19.5 30t-6.5 64t6.5 64t19.5 30.5t37 8.5h542q24 0 37 -8.5z" />
    <glyph glyph-name="degree" unicode="&#xb0;" 
d="M703 1165.5q74 -43.5 117.5 -117.5t43.5 -161t-43.5 -161t-117.5 -117.5t-161 -43.5t-161 43.5t-117.5 117.5t-43.5 161t43.5 161t117.5 117.5t161 43.5t161 -43.5zM463.5 965.5q-32.5 -32.5 -32.5 -78.5t32.5 -78.5t78.5 -32.5t78.5 32.5t32.5 78.5t-32.5 78.5
t-78.5 32.5t-78.5 -32.5z" />
    <glyph glyph-name="plusminus" unicode="&#xb1;" 
d="M685 1119.5q24 -6.5 32.5 -19.5t8.5 -37v-218h269q24 0 37 -9t19.5 -33t6.5 -71t-6.5 -71t-19.5 -32.5t-37 -8.5h-269v-219q0 -24 -8.5 -37t-32.5 -19.5t-71 -6.5t-71 6.5t-33 19.5t-9 37v219h-268q-24 0 -37 8.5t-19.5 32.5t-6.5 71t6.5 71t19.5 33t37 9h268v218
q0 24 9 37t33 19.5t71 6.5t71 -6.5zM1032 216q13 -9 19.5 -33t6.5 -71t-6.5 -71t-19.5 -32.5t-37 -8.5h-762q-24 0 -37 8.5t-19.5 32.5t-6.5 71t6.5 71t19.5 33t37 9h762q24 0 37 -9z" />
    <glyph glyph-name="uni00B2" unicode="&#xb2;" 
d="M806 1300.5q68 -33.5 103 -93.5t35 -140q0 -78 -47 -141.5t-139 -129.5l-198 -143h238v46q0 25 18 36.5t68 11.5q52 0 75.5 -12t23.5 -36v-170q0 -25 -10.5 -35.5t-35.5 -10.5h-605q-25 0 -39 24.5t-14 75.5q0 55 28 76l327 253q56 42 82 75.5t26 70.5q0 48 -31 75.5
t-86 27.5q-34 0 -68.5 -6.5t-63.5 -19.5v-88q0 -25 -18 -36.5t-68 -11.5q-52 0 -75.5 12t-23.5 36v173q0 28 31 45q64 34 144.5 51.5t157.5 17.5q97 0 165 -33.5z" />
    <glyph glyph-name="uni00B3" unicode="&#xb3;" 
d="M859 1268q83 -66 83 -184t-122 -177q64 -24 99 -72t35 -117q0 -125 -91.5 -189t-259.5 -64q-74 0 -153 15t-136 39q-34 14 -34 54q0 23 10 50q12 34 28 51.5t32 17.5q8 0 12 -2q55 -23 116.5 -37.5t115.5 -14.5q148 0 148 86q0 43 -27 65t-80 22h-93q-24 0 -36 20t-12 66
t12 66t36 20h74q62 0 93 23t31 68q0 41 -34 64t-99 23q-66 0 -136 -26v-58q0 -25 -18 -36.5t-68 -11.5q-52 0 -75.5 12t-23.5 36v153q0 32 31 45q64 28 144 43.5t161 15.5q154 0 237 -66z" />
    <glyph glyph-name="acute" unicode="&#xb4;" 
d="M809 1444q46 0 103 -75q40 -54 40 -93q0 -32 -24 -44l-407 -205q-10 -6 -23 -6q-36 0 -68 51q-22 35 -22 63t21 43l347 255q16 11 33 11z" />
    <glyph glyph-name="uni00B5" unicode="&#xb5;" 
d="M1041.5 909.5q14.5 -14.5 14.5 -48.5v-798q0 -34 -14.5 -48.5t-48.5 -14.5h-84q-34 0 -48.5 14.5t-14.5 48.5v115q-66 -94 -153 -147t-187 -53q-34 0 -72 10v-313q0 -34 -14.5 -48.5t-48.5 -14.5h-124q-34 0 -48.5 14.5t-14.5 48.5v1186q0 34 14.5 48.5t48.5 14.5h124
q34 0 48.5 -14.5t14.5 -48.5v-488q0 -158 137 -158q57 0 111.5 40t89 107.5t34.5 143.5v355q0 34 14.5 48.5t48.5 14.5h124q34 0 48.5 -14.5z" />
    <glyph glyph-name="paragraph" unicode="&#xb6;" 
d="M1112 1178.5q13 -8.5 19.5 -30.5t6.5 -64t-6.5 -64t-19.5 -30t-37 -8h-66v-1329q0 -33 -27.5 -48t-84.5 -15q-55 0 -76.5 14.5t-21.5 48.5v1329h-160v-1329q0 -33 -27.5 -48t-84.5 -15q-55 0 -76.5 14.5t-21.5 48.5v787q-99 15 -173 63.5t-114.5 126.5t-40.5 179
q0 117 53 202.5t147.5 130.5t217.5 45h556q24 0 37 -8.5z" />
    <glyph glyph-name="periodcentered" unicode="&#xb7;" 
d="M740 755.5q39 -14.5 39 -48.5v-254q0 -34 -39 -48.5t-126 -14.5t-126 14.5t-39 48.5v254q0 34 39 48.5t126 14.5t126 -14.5z" />
    <glyph glyph-name="cedilla" unicode="&#xb8;" 
d="M855.5 -135.5q54.5 -52.5 54.5 -137.5q0 -96 -71.5 -147.5t-207.5 -51.5q-147 0 -256 42q-24 10 -24 39q0 19 10 45q24 64 54 64q4 0 12 -2q82 -29 161 -29q49 0 72.5 12.5t23.5 38.5t-24 36.5t-67 10.5l-23 -1q-8 -1 -24 -1q-37 0 -37 41v204h185v-111
q107 0 161.5 -52.5z" />
    <glyph glyph-name="uni00B9" unicode="&#xb9;" 
d="M958 633q12 -20 12 -65t-12 -65t-40 -20h-564q-28 0 -39.5 19.5t-11.5 65.5q0 45 12 65t39 20h188v441l-139 -72q-17 -9 -31 -9q-36 0 -63 59q-16 35 -16 58q0 32 33 48l308 148q18 8 37 8q27 0 46.5 -15.5t19.5 -43.5v-622h181q28 0 40 -20z" />
    <glyph glyph-name="ordmasculine" unicode="&#xba;" 
d="M819.5 1161q88.5 -48 136.5 -132.5t48 -191.5t-48 -191.5t-136.5 -132.5t-205.5 -48q-116 0 -204.5 48t-137 132.5t-48.5 191.5t48.5 191.5t137 132.5t204.5 48q117 0 205.5 -48zM480.5 981q-50.5 -54 -50.5 -144t50.5 -143.5t133.5 -53.5q84 0 134 53.5t50 143.5
t-50 144t-134 54q-83 0 -133.5 -54z" />
    <glyph glyph-name="guillemotright" unicode="&#xbb;" 
d="M614 536q0 -14 -9 -26l-279 -366q-15 -19 -40 -19q-35 0 -92 39q-65 44 -65 86q0 18 14 35l209 251l-209 250q-14 17 -14 35q0 42 65 86q57 39 92 39q25 0 40 -19l279 -366q9 -10 9 -25zM1134 536q0 -14 -9 -26l-279 -366q-15 -19 -40 -19q-35 0 -92 39q-65 44 -65 86
q0 18 14 35l209 251l-209 250q-14 17 -14 35q0 42 65 86q57 39 92 39q25 0 40 -19l279 -366q9 -10 9 -25z" />
    <glyph glyph-name="onequarter" unicode="&#xbc;" 
d="M535 701q-10 -17 -33 -17h-471q-24 0 -33.5 16.5t-9.5 54.5t10 54.5t33 16.5h157v368l-116 -60q-13 -7 -26 -7q-30 0 -53 49q-13 27 -13 48q0 28 27 41l257 123q14 7 32 7q23 0 38.5 -13t15.5 -36v-520h152q23 0 33 -17t10 -54t-10 -54zM1142 742q0 -19 -20 -31
l-937 -521q-12 -5 -20 -5q-27 0 -56 45q-24 36 -24 58q0 19 20 31l937 521q12 5 20 5q27 0 56 -45q24 -36 24 -58zM1240.5 64q10.5 -17 10.5 -54t-10 -53.5t-33 -16.5h-75v-118q0 -21 -15.5 -30.5t-57.5 -9.5q-48 0 -69 10t-21 30v118h-290q-19 0 -36 32.5t-17 67.5
q0 15 3 24.5t11 20.5l310 378q14 18 35.5 27t56.5 9q45 0 67.5 -12.5t22.5 -34.5v-371h75q22 0 32.5 -17zM970 81l5 199l-155 -199h150z" />
    <glyph glyph-name="onehalf" unicode="&#xbd;" 
d="M535 701q-10 -17 -33 -17h-471q-24 0 -33.5 16.5t-9.5 54.5t10 54.5t33 16.5h157v368l-116 -60q-13 -7 -26 -7q-30 0 -53 49q-13 27 -13 48q0 28 27 41l257 123q14 7 32 7q23 0 38.5 -13t15.5 -36v-520h152q23 0 33 -17t10 -54t-10 -54zM1142 792q0 -19 -20 -31
l-937 -521q-12 -5 -20 -5q-27 0 -56 45q-24 36 -24 58q0 19 20 31l937 521q12 5 20 5q27 0 56 -45q24 -36 24 -58zM1227 -6q20 -10 20 -30v-142q0 -21 -9 -30t-30 -9h-505q-44 0 -44 84q0 45 23 63l273 212q48 35 69.5 62.5t21.5 58.5q0 40 -26 63t-72 23q-62 0 -110 -21
v-74q0 -21 -15.5 -30.5t-56.5 -9.5q-43 0 -63 10t-20 30v145q0 23 26 37q54 28 120.5 43t131.5 15q121 0 187 -61t66 -162q0 -65 -39.5 -118t-115.5 -108l-165 -120h198v39q0 21 15.5 30.5t56.5 9.5q43 0 63 -10z" />
    <glyph glyph-name="threequarters" unicode="&#xbe;" 
d="M474.5 1338.5q69.5 -55.5 69.5 -153.5q0 -99 -102 -148q53 -20 82.5 -60t29.5 -97q0 -105 -76.5 -158.5t-216.5 -53.5q-61 0 -127.5 12.5t-114.5 32.5q-29 13 -29 46q0 17 9 41q10 28 23.5 43t27.5 15q3 0 9 -2q47 -19 98.5 -31t95.5 -12q124 0 124 72q0 35 -23 53.5
t-67 18.5h-77q-20 0 -30.5 17t-10.5 55t10.5 55t30.5 17h61q104 0 104 76q0 34 -28.5 53t-82.5 19q-56 0 -114 -21v-49q0 -21 -15 -30.5t-57 -9.5q-82 0 -82 40v128q0 26 26 38q53 23 119.5 36t134.5 13q129 0 198.5 -55.5zM1062 855q27 0 56 -45q24 -36 24 -58
q0 -19 -20 -31l-937 -521q-12 -5 -20 -5q-27 0 -56 45q-24 36 -24 58q0 19 20 31l937 521q12 5 20 5zM1110.5 486.5q22.5 -12.5 22.5 -34.5v-371h75q22 0 32.5 -17t10.5 -54t-10 -53.5t-33 -16.5h-75v-118q0 -21 -15.5 -30.5t-57.5 -9.5q-48 0 -69 10t-21 30v118h-290
q-19 0 -36 32.5t-17 67.5q0 15 3 24.5t11 20.5l310 378q14 18 35.5 27t56.5 9q45 0 67.5 -12.5zM820 81h150l5 199z" />
    <glyph glyph-name="questiondown" unicode="&#xbf;" 
d="M533 648.5q-34 14.5 -34 48.5v174q0 34 34 48.5t111 14.5t111 -14.5t34 -48.5v-174q0 -34 -34 -48.5t-111 -14.5t-111 14.5zM332.5 -251q-102.5 94 -102.5 261q0 139 75.5 218.5t231.5 122.5l6 86q2 25 24 36.5t77 11.5t77 -11.5t24 -36.5l12 -209q2 -44 -31 -51
l-103 -20q-72 -14 -107 -49.5t-35 -97.5q0 -68 39.5 -103t116.5 -35q75 0 153 30v92q0 35 23 49t85 14q64 0 93 -14.5t29 -48.5v-190q0 -41 -41 -61q-186 -88 -351 -88q-193 0 -295.5 94z" />
    <glyph glyph-name="Agrave" unicode="&#xc0;" 
d="M762 1171.5q25 -15.5 36 -49.5l290 -917h87q24 0 37 -8t19.5 -30t6.5 -64t-6.5 -64t-19.5 -30.5t-37 -8.5h-424q-24 0 -37 8.5t-19.5 30.5t-6.5 64t6.5 64t19.5 30t37 8h86l-45 145h-364l-45 -145h74q24 0 37 -8t19.5 -30t6.5 -64t-6.5 -64t-19.5 -30.5t-37 -8.5h-404
q-24 0 -37 8.5t-19.5 30.5t-6.5 64t6.5 64t19.5 30t37 8h84l253 777h-167q-24 0 -37 8.5t-19.5 30.5t-6.5 64t6.5 64t19.5 30t37 8h474q40 0 65 -15.5zM609 982l-123 -427h249l-120 427h-6zM782 1405q0 -28 -22 -63q-32 -51 -68 -51q-12 0 -23 6l-407 205q-24 12 -24 44
q0 39 40 93q57 75 103 75q17 0 33 -11l347 -255q21 -15 21 -43z" />
    <glyph glyph-name="Aacute" unicode="&#xc1;" 
d="M762 1171.5q25 -15.5 36 -49.5l290 -917h87q24 0 37 -8t19.5 -30t6.5 -64t-6.5 -64t-19.5 -30.5t-37 -8.5h-424q-24 0 -37 8.5t-19.5 30.5t-6.5 64t6.5 64t19.5 30t37 8h86l-45 145h-364l-45 -145h74q24 0 37 -8t19.5 -30t6.5 -64t-6.5 -64t-19.5 -30.5t-37 -8.5h-404
q-24 0 -37 8.5t-19.5 30.5t-6.5 64t6.5 64t19.5 30t37 8h84l253 777h-167q-24 0 -37 8.5t-19.5 30.5t-6.5 64t6.5 64t19.5 30t37 8h474q40 0 65 -15.5zM609 982l-123 -427h249l-120 427h-6zM747 1714q46 0 103 -75q40 -54 40 -93q0 -32 -24 -44l-407 -205q-10 -6 -23 -6
q-36 0 -68 51q-22 35 -22 63t21 43l347 255q16 11 33 11z" />
    <glyph glyph-name="Acircumflex" unicode="&#xc2;" 
d="M762 1171.5q25 -15.5 36 -49.5l290 -917h87q24 0 37 -8t19.5 -30t6.5 -64t-6.5 -64t-19.5 -30.5t-37 -8.5h-424q-24 0 -37 8.5t-19.5 30.5t-6.5 64t6.5 64t19.5 30t37 8h86l-45 145h-364l-45 -145h74q24 0 37 -8t19.5 -30t6.5 -64t-6.5 -64t-19.5 -30.5t-37 -8.5h-404
q-24 0 -37 8.5t-19.5 30.5t-6.5 64t6.5 64t19.5 30t37 8h84l253 777h-167q-24 0 -37 8.5t-19.5 30.5t-6.5 64t6.5 64t19.5 30t37 8h474q40 0 65 -15.5zM609 982l-123 -427h249l-120 427h-6zM635.5 1674.5q15.5 -5.5 29.5 -17.5l265 -225q22 -19 22 -42q0 -25 -25 -60
q-30 -43 -60 -43q-16 0 -33 11l-240 138l-240 -138q-17 -11 -33 -11q-30 0 -60 43q-25 35 -25 60q0 23 22 42l265 225q14 12 29.5 17.5t41.5 5.5t41.5 -5.5z" />
    <glyph glyph-name="Atilde" unicode="&#xc3;" 
d="M762 1171.5q25 -15.5 36 -49.5l290 -917h87q24 0 37 -8t19.5 -30t6.5 -64t-6.5 -64t-19.5 -30.5t-37 -8.5h-424q-24 0 -37 8.5t-19.5 30.5t-6.5 64t6.5 64t19.5 30t37 8h86l-45 145h-364l-45 -145h74q24 0 37 -8t19.5 -30t6.5 -64t-6.5 -64t-19.5 -30.5t-37 -8.5h-404
q-24 0 -37 8.5t-19.5 30.5t-6.5 64t6.5 64t19.5 30t37 8h84l253 777h-167q-24 0 -37 8.5t-19.5 30.5t-6.5 64t6.5 64t19.5 30t37 8h474q40 0 65 -15.5zM609 982l-123 -427h249l-120 427h-6zM518 1629q33 -12 77 -34q36 -18 58.5 -26.5t46.5 -8.5q61 0 129 72q14 14 30 14
q29 0 66 -40q36 -40 36 -76q0 -20 -10 -34q-51 -76 -115 -118.5t-133 -42.5q-40 0 -73 12t-77 34q-36 18 -58.5 26.5t-46.5 8.5q-61 0 -129 -72q-14 -14 -30 -14q-29 0 -66 40q-36 40 -36 76q0 20 10 34q51 76 115 118.5t133 42.5q40 0 73 -12z" />
    <glyph glyph-name="Adieresis" unicode="&#xc4;" 
d="M762 1171.5q25 -15.5 36 -49.5l290 -917h87q24 0 37 -8t19.5 -30t6.5 -64t-6.5 -64t-19.5 -30.5t-37 -8.5h-424q-24 0 -37 8.5t-19.5 30.5t-6.5 64t6.5 64t19.5 30t37 8h86l-45 145h-364l-45 -145h74q24 0 37 -8t19.5 -30t6.5 -64t-6.5 -64t-19.5 -30.5t-37 -8.5h-404
q-24 0 -37 8.5t-19.5 30.5t-6.5 64t6.5 64t19.5 30t37 8h84l253 777h-167q-24 0 -37 8.5t-19.5 30.5t-6.5 64t6.5 64t19.5 30t37 8h474q40 0 65 -15.5zM609 982l-123 -427h249l-120 427h-6zM470.5 1618.5q28.5 -14.5 28.5 -48.5v-164q0 -34 -26.5 -48.5t-96.5 -14.5
t-98.5 14.5t-28.5 48.5v164q0 35 26 49t96 14q71 0 99.5 -14.5zM910.5 1618.5q28.5 -14.5 28.5 -48.5v-164q0 -34 -26.5 -48.5t-96.5 -14.5t-98.5 14.5t-28.5 48.5v164q0 35 26 49t96 14q71 0 99.5 -14.5z" />
    <glyph glyph-name="Aring" unicode="&#xc5;" 
d="M762 1171.5q25 -15.5 36 -49.5l290 -917h87q24 0 37 -8t19.5 -30t6.5 -64t-6.5 -64t-19.5 -30.5t-37 -8.5h-424q-24 0 -37 8.5t-19.5 30.5t-6.5 64t6.5 64t19.5 30t37 8h86l-45 145h-364l-45 -145h74q24 0 37 -8t19.5 -30t6.5 -64t-6.5 -64t-19.5 -30.5t-37 -8.5h-404
q-24 0 -37 8.5t-19.5 30.5t-6.5 64t6.5 64t19.5 30t37 8h84l253 777h-167q-24 0 -37 8.5t-19.5 30.5t-6.5 64t6.5 64t19.5 30t37 8h474q40 0 65 -15.5zM609 982l-123 -427h249l-120 427h-6zM728 1793q60 -34 94 -94t34 -134t-34 -134t-94 -94t-134 -34t-134 34t-94 94
t-34 134t34 134t94 94t134 34t134 -34zM527 1632q-25 -25 -25 -67t25 -67t67 -25t67 25t25 67t-25 67t-67 25t-67 -25z" />
    <glyph glyph-name="AE" unicode="&#xc6;" 
d="M1145 1172q15 -15 15 -50v-272q0 -34 -26 -48.5t-86 -14.5q-58 0 -78 14t-20 49v132h-170v-253h114q35 0 49 -23t14 -85t-14 -84.5t-49 -22.5h-114v-309h180v182q0 34 26.5 48.5t89.5 14.5q42 0 64.5 -6.5t31 -19.5t8.5 -37v-322q0 -34 -15 -49.5t-50 -15.5h-500
q-34 0 -49.5 15.5t-15.5 49.5v265h-202l-32 -125h41q24 0 37 -8.5t19.5 -30.5t6.5 -64t-6.5 -64t-19.5 -30t-37 -8h-324q-24 0 -37 8t-19.5 30t-6.5 64t6.5 64t19.5 30.5t37 8.5h53l199 777h-102q-24 0 -37 8t-19.5 30t-6.5 64t6.5 64t19.5 30.5t37 8.5h912q35 0 50 -15z
M503 982l-103 -437h150v437h-47z" />
    <glyph glyph-name="Ccedilla" unicode="&#xc7;" 
d="M1127 157q0 -51 -46 -73q-176 -88 -357 -103v-64q107 0 161.5 -52.5t54.5 -137.5q0 -96 -71.5 -147.5t-207.5 -51.5q-147 0 -256 42q-24 10 -24 39q0 19 10 45q24 64 54 64q4 0 12 -2q82 -29 161 -29q49 0 72.5 12.5t23.5 38.5t-24 36.5t-67 10.5l-23 -1q-8 -1 -24 -1
q-37 0 -37 41v164q-132 24 -230.5 104.5t-152 208.5t-53.5 293q0 186 67 325.5t185.5 214.5t268.5 75q175 0 260 -126v63q0 34 29 48.5t93 14.5q62 0 85 -14t23 -49v-384q0 -34 -30.5 -48.5t-101.5 -14.5q-47 0 -72.5 6.5t-35.5 19.5t-10 37q0 100 -54.5 160t-155.5 60
q-139 0 -211 -100t-72 -288q0 -186 76.5 -287.5t216.5 -101.5q87 0 167 23.5t174 71.5q16 8 30 8q47 0 78 -83q14 -38 14 -68z" />
    <glyph glyph-name="Egrave" unicode="&#xc8;" 
d="M1085 1172q15 -15 15 -50v-302q0 -34 -29 -48.5t-93 -14.5q-62 0 -85 14t-23 49v152h-400v-253h244q35 0 49 -23t14 -85t-14 -84.5t-49 -22.5h-244v-289h410v202q0 34 29.5 48.5t96.5 14.5q66 0 90 -14t24 -49v-352q0 -34 -15 -49.5t-50 -15.5h-932q-24 0 -37 8t-19.5 30
t-6.5 64t6.5 64t19.5 30.5t37 8.5h97v777h-97q-24 0 -37 8t-19.5 30t-6.5 64t6.5 64t19.5 30.5t37 8.5h912q35 0 50 -15zM852 1405q0 -28 -22 -63q-32 -51 -68 -51q-12 0 -23 6l-407 205q-24 12 -24 44q0 39 40 93q57 75 103 75q17 0 33 -11l347 -255q21 -15 21 -43z" />
    <glyph glyph-name="Eacute" unicode="&#xc9;" 
d="M1085 1172q15 -15 15 -50v-302q0 -34 -29 -48.5t-93 -14.5q-62 0 -85 14t-23 49v152h-400v-253h244q35 0 49 -23t14 -85t-14 -84.5t-49 -22.5h-244v-289h410v202q0 34 29.5 48.5t96.5 14.5q66 0 90 -14t24 -49v-352q0 -34 -15 -49.5t-50 -15.5h-932q-24 0 -37 8t-19.5 30
t-6.5 64t6.5 64t19.5 30.5t37 8.5h97v777h-97q-24 0 -37 8t-19.5 30t-6.5 64t6.5 64t19.5 30.5t37 8.5h912q35 0 50 -15zM777 1714q46 0 103 -75q40 -54 40 -93q0 -32 -24 -44l-407 -205q-10 -6 -23 -6q-36 0 -68 51q-22 35 -22 63t21 43l347 255q16 11 33 11z" />
    <glyph glyph-name="Ecircumflex" unicode="&#xca;" 
d="M1085 1172q15 -15 15 -50v-302q0 -34 -29 -48.5t-93 -14.5q-62 0 -85 14t-23 49v152h-400v-253h244q35 0 49 -23t14 -85t-14 -84.5t-49 -22.5h-244v-289h410v202q0 34 29.5 48.5t96.5 14.5q66 0 90 -14t24 -49v-352q0 -34 -15 -49.5t-50 -15.5h-932q-24 0 -37 8t-19.5 30
t-6.5 64t6.5 64t19.5 30.5t37 8.5h97v777h-97q-24 0 -37 8t-19.5 30t-6.5 64t6.5 64t19.5 30.5t37 8.5h912q35 0 50 -15zM685.5 1674.5q15.5 -5.5 29.5 -17.5l265 -225q22 -19 22 -42q0 -25 -25 -60q-30 -43 -60 -43q-16 0 -33 11l-240 138l-240 -138q-17 -11 -33 -11
q-30 0 -60 43q-25 35 -25 60q0 23 22 42l265 225q14 12 29.5 17.5t41.5 5.5t41.5 -5.5z" />
    <glyph glyph-name="Edieresis" unicode="&#xcb;" 
d="M1085 1172q15 -15 15 -50v-302q0 -34 -29 -48.5t-93 -14.5q-62 0 -85 14t-23 49v152h-400v-253h244q35 0 49 -23t14 -85t-14 -84.5t-49 -22.5h-244v-289h410v202q0 34 29.5 48.5t96.5 14.5q66 0 90 -14t24 -49v-352q0 -34 -15 -49.5t-50 -15.5h-932q-24 0 -37 8t-19.5 30
t-6.5 64t6.5 64t19.5 30.5t37 8.5h97v777h-97q-24 0 -37 8t-19.5 30t-6.5 64t6.5 64t19.5 30.5t37 8.5h912q35 0 50 -15zM520.5 1618.5q28.5 -14.5 28.5 -48.5v-164q0 -34 -26.5 -48.5t-96.5 -14.5t-98.5 14.5t-28.5 48.5v164q0 35 26 49t96 14q71 0 99.5 -14.5z
M960.5 1618.5q28.5 -14.5 28.5 -48.5v-164q0 -34 -26.5 -48.5t-96.5 -14.5t-98.5 14.5t-28.5 48.5v164q0 35 26 49t96 14q71 0 99.5 -14.5z" />
    <glyph glyph-name="Igrave" unicode="&#xcc;" 
d="M1012 1178.5q13 -8.5 19.5 -30.5t6.5 -64t-6.5 -64t-19.5 -30t-37 -8h-236v-777h256q24 0 37 -8.5t19.5 -30.5t6.5 -64t-6.5 -64t-19.5 -30t-37 -8h-762q-24 0 -37 8t-19.5 30t-6.5 64t6.5 64t19.5 30.5t37 8.5h256v777h-236q-24 0 -37 8t-19.5 30t-6.5 64t6.5 64
t19.5 30.5t37 8.5h722q24 0 37 -8.5zM820 1405q0 -28 -22 -63q-32 -51 -68 -51q-12 0 -23 6l-407 205q-24 12 -24 44q0 39 40 93q57 75 103 75q17 0 33 -11l347 -255q21 -15 21 -43z" />
    <glyph glyph-name="Iacute" unicode="&#xcd;" 
d="M1012 1178.5q13 -8.5 19.5 -30.5t6.5 -64t-6.5 -64t-19.5 -30t-37 -8h-236v-777h256q24 0 37 -8.5t19.5 -30.5t6.5 -64t-6.5 -64t-19.5 -30t-37 -8h-762q-24 0 -37 8t-19.5 30t-6.5 64t6.5 64t19.5 30.5t37 8.5h256v777h-236q-24 0 -37 8t-19.5 30t-6.5 64t6.5 64
t19.5 30.5t37 8.5h722q24 0 37 -8.5zM809 1714q46 0 103 -75q40 -54 40 -93q0 -32 -24 -44l-407 -205q-10 -6 -23 -6q-36 0 -68 51q-22 35 -22 63t21 43l347 255q16 11 33 11z" />
    <glyph glyph-name="Icircumflex" unicode="&#xce;" 
d="M1012 1178.5q13 -8.5 19.5 -30.5t6.5 -64t-6.5 -64t-19.5 -30t-37 -8h-236v-777h256q24 0 37 -8.5t19.5 -30.5t6.5 -64t-6.5 -64t-19.5 -30t-37 -8h-762q-24 0 -37 8t-19.5 30t-6.5 64t6.5 64t19.5 30.5t37 8.5h256v777h-236q-24 0 -37 8t-19.5 30t-6.5 64t6.5 64
t19.5 30.5t37 8.5h722q24 0 37 -8.5zM655.5 1674.5q15.5 -5.5 29.5 -17.5l265 -225q22 -19 22 -42q0 -25 -25 -60q-30 -43 -60 -43q-16 0 -33 11l-240 138l-240 -138q-17 -11 -33 -11q-30 0 -60 43q-25 35 -25 60q0 23 22 42l265 225q14 12 29.5 17.5t41.5 5.5t41.5 -5.5z
" />
    <glyph glyph-name="Idieresis" unicode="&#xcf;" 
d="M1012 1178.5q13 -8.5 19.5 -30.5t6.5 -64t-6.5 -64t-19.5 -30t-37 -8h-236v-777h256q24 0 37 -8.5t19.5 -30.5t6.5 -64t-6.5 -64t-19.5 -30t-37 -8h-762q-24 0 -37 8t-19.5 30t-6.5 64t6.5 64t19.5 30.5t37 8.5h256v777h-236q-24 0 -37 8t-19.5 30t-6.5 64t6.5 64
t19.5 30.5t37 8.5h722q24 0 37 -8.5zM490.5 1618.5q28.5 -14.5 28.5 -48.5v-164q0 -34 -26.5 -48.5t-96.5 -14.5t-98.5 14.5t-28.5 48.5v164q0 35 26 49t96 14q71 0 99.5 -14.5zM930.5 1618.5q28.5 -14.5 28.5 -48.5v-164q0 -34 -26.5 -48.5t-96.5 -14.5t-98.5 14.5
t-28.5 48.5v164q0 35 26 49t96 14q71 0 99.5 -14.5z" />
    <glyph glyph-name="Eth" unicode="&#xd0;" 
d="M895 1118q126 -69 193 -202.5t67 -321.5t-67 -321.5t-193 -203t-301 -69.5h-471q-24 0 -37 8t-19.5 30t-6.5 64t6.5 64t19.5 30.5t37 8.5h97v289h-117q-24 0 -37 8.5t-19.5 32.5t-6.5 71t6.5 71t19.5 33t37 9h117v263h-97q-24 0 -37 8t-19.5 30t-6.5 64t6.5 64t19.5 30.5
t37 8.5h471q175 0 301 -69zM808 311.5q79 96.5 79 282.5t-79 282t-234 96h-104v-253h135q24 0 37 -9t19.5 -33t6.5 -71t-6.5 -71t-19.5 -32.5t-37 -8.5h-135v-279h104q155 0 234 96.5z" />
    <glyph glyph-name="Ntilde" unicode="&#xd1;" 
d="M1172 1178.5q13 -8.5 19.5 -30.5t6.5 -64t-6.5 -64t-19.5 -30t-37 -8h-57v-938q0 -33 -25 -49.5t-85 -16.5q-46 0 -68.5 12.5t-39.5 40.5l-450 745h-4v-571h111q24 0 37 -8.5t19.5 -30.5t6.5 -64t-6.5 -64t-19.5 -30t-37 -8h-404q-24 0 -37 8t-19.5 30t-6.5 64t6.5 64
t19.5 30.5t37 8.5h67v777h-67q-24 0 -37 8t-19.5 30t-6.5 64t6.5 64t19.5 30.5t37 8.5h264q40 0 56 -27l415 -687h4v509h-92q-24 0 -37 8t-19.5 30t-6.5 64t6.5 64t19.5 30.5t37 8.5h375q24 0 37 -8.5zM558 1629q33 -12 77 -34q36 -18 58.5 -26.5t46.5 -8.5q61 0 129 72
q14 14 30 14q29 0 66 -40q36 -40 36 -76q0 -20 -10 -34q-51 -76 -115 -118.5t-133 -42.5q-40 0 -73 12t-77 34q-36 18 -58.5 26.5t-46.5 8.5q-61 0 -129 -72q-14 -14 -30 -14q-29 0 -66 40q-36 40 -36 76q0 20 10 34q51 76 115 118.5t133 42.5q40 0 73 -12z" />
    <glyph glyph-name="Ograve" unicode="&#xd2;" 
d="M903 1134.5q125 -74.5 193.5 -214t68.5 -326.5t-68.5 -326.5t-193.5 -214.5t-289 -75t-289 75t-193.5 214.5t-68.5 326.5t68.5 326.5t193.5 214t289 74.5t289 -74.5zM403 882q-72 -100 -72 -288t72 -288.5t211 -100.5t211 100.5t72 288.5t-72 288t-211 100t-211 -100z
M842 1405q0 -28 -22 -63q-32 -51 -68 -51q-12 0 -23 6l-407 205q-24 12 -24 44q0 39 40 93q57 75 103 75q17 0 33 -11l347 -255q21 -15 21 -43z" />
    <glyph glyph-name="Oacute" unicode="&#xd3;" 
d="M903 1134.5q125 -74.5 193.5 -214t68.5 -326.5t-68.5 -326.5t-193.5 -214.5t-289 -75t-289 75t-193.5 214.5t-68.5 326.5t68.5 326.5t193.5 214t289 74.5t289 -74.5zM403 882q-72 -100 -72 -288t72 -288.5t211 -100.5t211 100.5t72 288.5t-72 288t-211 100t-211 -100z
M787 1714q46 0 103 -75q40 -54 40 -93q0 -32 -24 -44l-407 -205q-10 -6 -23 -6q-36 0 -68 51q-22 35 -22 63t21 43l347 255q16 11 33 11z" />
    <glyph glyph-name="Ocircumflex" unicode="&#xd4;" 
d="M903 1134.5q125 -74.5 193.5 -214t68.5 -326.5t-68.5 -326.5t-193.5 -214.5t-289 -75t-289 75t-193.5 214.5t-68.5 326.5t68.5 326.5t193.5 214t289 74.5t289 -74.5zM403 882q-72 -100 -72 -288t72 -288.5t211 -100.5t211 100.5t72 288.5t-72 288t-211 100t-211 -100z
M655.5 1674.5q15.5 -5.5 29.5 -17.5l265 -225q22 -19 22 -42q0 -25 -25 -60q-30 -43 -60 -43q-16 0 -33 11l-240 138l-240 -138q-17 -11 -33 -11q-30 0 -60 43q-25 35 -25 60q0 23 22 42l265 225q14 12 29.5 17.5t41.5 5.5t41.5 -5.5z" />
    <glyph glyph-name="Otilde" unicode="&#xd5;" 
d="M903 1134.5q125 -74.5 193.5 -214t68.5 -326.5t-68.5 -326.5t-193.5 -214.5t-289 -75t-289 75t-193.5 214.5t-68.5 326.5t68.5 326.5t193.5 214t289 74.5t289 -74.5zM403 882q-72 -100 -72 -288t72 -288.5t211 -100.5t211 100.5t72 288.5t-72 288t-211 100t-211 -100z
M558 1629q33 -12 77 -34q36 -18 58.5 -26.5t46.5 -8.5q61 0 129 72q14 14 30 14q29 0 66 -40q36 -40 36 -76q0 -20 -10 -34q-51 -76 -115 -118.5t-133 -42.5q-40 0 -73 12t-77 34q-36 18 -58.5 26.5t-46.5 8.5q-61 0 -129 -72q-14 -14 -30 -14q-29 0 -66 40q-36 40 -36 76
q0 20 10 34q51 76 115 118.5t133 42.5q40 0 73 -12z" />
    <glyph glyph-name="Odieresis" unicode="&#xd6;" 
d="M903 1134.5q125 -74.5 193.5 -214t68.5 -326.5t-68.5 -326.5t-193.5 -214.5t-289 -75t-289 75t-193.5 214.5t-68.5 326.5t68.5 326.5t193.5 214t289 74.5t289 -74.5zM403 882q-72 -100 -72 -288t72 -288.5t211 -100.5t211 100.5t72 288.5t-72 288t-211 100t-211 -100z
M490.5 1618.5q28.5 -14.5 28.5 -48.5v-164q0 -34 -26.5 -48.5t-96.5 -14.5t-98.5 14.5t-28.5 48.5v164q0 35 26 49t96 14q71 0 99.5 -14.5zM930.5 1618.5q28.5 -14.5 28.5 -48.5v-164q0 -34 -26.5 -48.5t-96.5 -14.5t-98.5 14.5t-28.5 48.5v164q0 35 26 49t96 14
q71 0 99.5 -14.5z" />
    <glyph glyph-name="multiply" unicode="&#xd7;" 
d="M873 982q15 0 35 -13t50 -43t42.5 -49.5t12.5 -35.5q0 -19 -20 -39l-220 -220l220 -220q21 -21 21 -39q0 -15 -13 -35t-43 -50t-49.5 -42.5t-35.5 -12.5q-19 0 -39 20l-220 220l-220 -220q-20 -20 -39 -20q-16 0 -35.5 12.5t-49.5 42.5t-43 50t-13 35q0 18 21 39l220 220
l-220 220q-20 20 -20 39q0 16 12.5 35.5t42.5 49.5t50 43t35 13q18 0 39 -21l220 -220l220 220q21 21 39 21z" />
    <glyph glyph-name="Oslash" unicode="&#xd8;" 
d="M1115 1212q13 -16 13 -32t-15 -37l-83 -118q66 -81 100.5 -190t34.5 -241q0 -187 -68.5 -326.5t-193.5 -214.5t-289 -75q-151 0 -272 65l-74 -106q-20 -29 -44 -29t-68 31q-29 20 -42.5 36t-13.5 32q0 15 15 37l83 119q-65 80 -100 189t-35 242q0 187 68.5 326.5
t193.5 214t289 74.5q151 0 272 -65l75 106q20 29 43 29t69 -31q29 -20 42 -36zM403 882q-72 -100 -72 -288q0 -115 28 -202l391 557q-57 33 -136 33q-139 0 -211 -100zM614 205q139 0 211 100.5t72 288.5q0 118 -28 201l-391 -558q58 -32 136 -32z" />
    <glyph glyph-name="Ugrave" unicode="&#xd9;" 
d="M1152 1178.5q13 -8.5 19.5 -30.5t6.5 -64t-6.5 -64t-19.5 -30t-37 -8h-47v-569q0 -138 -55 -236t-157 -148.5t-242 -50.5t-242 50.5t-157 148.5t-55 236v569h-47q-24 0 -37 8t-19.5 30t-6.5 64t6.5 64t19.5 30.5t37 8.5h374q24 0 37 -8.5t19.5 -30.5t6.5 -64t-6.5 -64
t-19.5 -30t-37 -8h-77v-549q0 -115 55 -171.5t149 -56.5t149 56.5t55 171.5v549h-77q-24 0 -37 8t-19.5 30t-6.5 64t6.5 64t19.5 30.5t37 8.5h374q24 0 37 -8.5zM820 1405q0 -28 -22 -63q-32 -51 -68 -51q-12 0 -23 6l-407 205q-24 12 -24 44q0 39 40 93q57 75 103 75
q17 0 33 -11l347 -255q21 -15 21 -43z" />
    <glyph glyph-name="Uacute" unicode="&#xda;" 
d="M1152 1178.5q13 -8.5 19.5 -30.5t6.5 -64t-6.5 -64t-19.5 -30t-37 -8h-47v-569q0 -138 -55 -236t-157 -148.5t-242 -50.5t-242 50.5t-157 148.5t-55 236v569h-47q-24 0 -37 8t-19.5 30t-6.5 64t6.5 64t19.5 30.5t37 8.5h374q24 0 37 -8.5t19.5 -30.5t6.5 -64t-6.5 -64
t-19.5 -30t-37 -8h-77v-549q0 -115 55 -171.5t149 -56.5t149 56.5t55 171.5v549h-77q-24 0 -37 8t-19.5 30t-6.5 64t6.5 64t19.5 30.5t37 8.5h374q24 0 37 -8.5zM809 1714q46 0 103 -75q40 -54 40 -93q0 -32 -24 -44l-407 -205q-10 -6 -23 -6q-36 0 -68 51q-22 35 -22 63
t21 43l347 255q16 11 33 11z" />
    <glyph glyph-name="Ucircumflex" unicode="&#xdb;" 
d="M1152 1178.5q13 -8.5 19.5 -30.5t6.5 -64t-6.5 -64t-19.5 -30t-37 -8h-47v-569q0 -138 -55 -236t-157 -148.5t-242 -50.5t-242 50.5t-157 148.5t-55 236v569h-47q-24 0 -37 8t-19.5 30t-6.5 64t6.5 64t19.5 30.5t37 8.5h374q24 0 37 -8.5t19.5 -30.5t6.5 -64t-6.5 -64
t-19.5 -30t-37 -8h-77v-549q0 -115 55 -171.5t149 -56.5t149 56.5t55 171.5v549h-77q-24 0 -37 8t-19.5 30t-6.5 64t6.5 64t19.5 30.5t37 8.5h374q24 0 37 -8.5zM655.5 1674.5q15.5 -5.5 29.5 -17.5l265 -225q22 -19 22 -42q0 -25 -25 -60q-30 -43 -60 -43q-16 0 -33 11
l-240 138l-240 -138q-17 -11 -33 -11q-30 0 -60 43q-25 35 -25 60q0 23 22 42l265 225q14 12 29.5 17.5t41.5 5.5t41.5 -5.5z" />
    <glyph glyph-name="Udieresis" unicode="&#xdc;" 
d="M1152 1178.5q13 -8.5 19.5 -30.5t6.5 -64t-6.5 -64t-19.5 -30t-37 -8h-47v-569q0 -138 -55 -236t-157 -148.5t-242 -50.5t-242 50.5t-157 148.5t-55 236v569h-47q-24 0 -37 8t-19.5 30t-6.5 64t6.5 64t19.5 30.5t37 8.5h374q24 0 37 -8.5t19.5 -30.5t6.5 -64t-6.5 -64
t-19.5 -30t-37 -8h-77v-549q0 -115 55 -171.5t149 -56.5t149 56.5t55 171.5v549h-77q-24 0 -37 8t-19.5 30t-6.5 64t6.5 64t19.5 30.5t37 8.5h374q24 0 37 -8.5zM490.5 1618.5q28.5 -14.5 28.5 -48.5v-164q0 -34 -26.5 -48.5t-96.5 -14.5t-98.5 14.5t-28.5 48.5v164
q0 35 26 49t96 14q71 0 99.5 -14.5zM930.5 1618.5q28.5 -14.5 28.5 -48.5v-164q0 -34 -26.5 -48.5t-96.5 -14.5t-98.5 14.5t-28.5 48.5v164q0 35 26 49t96 14q71 0 99.5 -14.5z" />
    <glyph glyph-name="Yacute" unicode="&#xdd;" 
d="M809 1714q46 0 103 -75q40 -54 40 -93q0 -32 -24 -44l-407 -205q-10 -6 -23 -6q-36 0 -68 51q-22 35 -22 63t21 43l347 255q16 11 33 11zM1162 1178.5q13 -8.5 19.5 -30.5t6.5 -64t-6.5 -64t-19.5 -30t-37 -8h-44l-342 -523v-254h196q24 0 37 -8.5t19.5 -30.5t6.5 -64
t-6.5 -64t-19.5 -30t-37 -8h-642q-24 0 -37 8t-19.5 30t-6.5 64t6.5 64t19.5 30.5t37 8.5h196v255l-340 522h-46q-24 0 -37 8t-19.5 30t-6.5 64t6.5 64t19.5 30.5t37 8.5h394q24 0 37 -8.5t19.5 -30.5t6.5 -64t-6.5 -64t-19.5 -30t-37 -8h-67l186 -292l188 292h-53
q-24 0 -37 8t-19.5 30t-6.5 64t6.5 64t19.5 30.5t37 8.5h374q24 0 37 -8.5z" />
    <glyph glyph-name="Thorn" unicode="&#xde;" 
d="M804 1178.5q13 -8.5 19.5 -30.5t6.5 -64t-6.5 -64t-19.5 -30t-37 -8h-187v-96h140q183 0 275 -76.5t92 -215.5t-92 -216t-275 -77h-140v-96h187q24 0 37 -8.5t19.5 -30.5t6.5 -64t-6.5 -64t-19.5 -30t-37 -8h-584q-24 0 -37 8t-19.5 30t-6.5 64t6.5 64t19.5 30.5t37 8.5
h147v777h-147q-24 0 -37 8t-19.5 30t-6.5 64t6.5 64t19.5 30.5t37 8.5h584q24 0 37 -8.5zM580 496h109q73 0 106.5 23t33.5 75q0 51 -33.5 74t-106.5 23h-109v-195z" />
    <glyph glyph-name="germandbls" unicode="&#xdf;" 
d="M844 1270q92 -47 139.5 -131t47.5 -193q0 -94 -38.5 -159.5t-117.5 -108.5q103 -39 159 -118.5t56 -192.5q0 -127 -54.5 -214.5t-153.5 -131t-233 -43.5q-40 0 -58.5 25.5t-18.5 87.5q0 65 12 89.5t45 24.5q193 0 193 182q0 78 -47.5 120t-132.5 42q-34 0 -48.5 24.5
t-14.5 87.5q0 62 14 86t49 27q141 14 141 162q0 69 -39.5 111.5t-118.5 42.5q-81 0 -124 -55t-43 -161v-811q0 -34 -14.5 -48.5t-48.5 -14.5h-310q-24 0 -37 8t-19.5 30t-6.5 64t6.5 64t19.5 30.5t37 8.5h123v672q0 134 49 233t142 153t224 54q129 0 221 -47z" />
    <glyph glyph-name="agrave" unicode="&#xe0;" 
d="M921 851q98 -95 98 -272v-289q0 -40 17 -62.5t49 -22.5h31q24 0 37 -8.5t19.5 -30.5t6.5 -64t-6.5 -64t-19.5 -30t-37 -8h-112q-62 0 -109.5 25.5t-72.5 80.5q-79 -61 -167 -94.5t-181 -33.5q-113 0 -195 38.5t-125.5 110t-43.5 168.5q0 140 99 217t277 77q133 0 283 -30
v29q0 67 -42 99t-148 32q-59 0 -131.5 -14.5t-143.5 -38.5q-17 -5 -29 -5q-25 0 -44.5 18.5t-35.5 62.5q-15 44 -15 72q0 51 46 68q89 32 189 48t188 16q220 0 318 -95zM404.5 358q-36.5 -25 -36.5 -73q0 -47 35.5 -71.5t102.5 -24.5q69 0 136.5 27.5t126.5 75.5v64
q-132 27 -258 27q-70 0 -106.5 -25zM882 1135q0 -28 -22 -63q-32 -51 -68 -51q-12 0 -23 6l-407 205q-24 12 -24 44q0 39 40 93q57 75 103 75q17 0 33 -11l347 -255q21 -15 21 -43z" />
    <glyph glyph-name="aacute" unicode="&#xe1;" 
d="M921 851q98 -95 98 -272v-289q0 -40 17 -62.5t49 -22.5h31q24 0 37 -8.5t19.5 -30.5t6.5 -64t-6.5 -64t-19.5 -30t-37 -8h-112q-62 0 -109.5 25.5t-72.5 80.5q-79 -61 -167 -94.5t-181 -33.5q-113 0 -195 38.5t-125.5 110t-43.5 168.5q0 140 99 217t277 77q133 0 283 -30
v29q0 67 -42 99t-148 32q-59 0 -131.5 -14.5t-143.5 -38.5q-17 -5 -29 -5q-25 0 -44.5 18.5t-35.5 62.5q-15 44 -15 72q0 51 46 68q89 32 189 48t188 16q220 0 318 -95zM404.5 358q-36.5 -25 -36.5 -73q0 -47 35.5 -71.5t102.5 -24.5q69 0 136.5 27.5t126.5 75.5v64
q-132 27 -258 27q-70 0 -106.5 -25zM747 1444q46 0 103 -75q40 -54 40 -93q0 -32 -24 -44l-407 -205q-10 -6 -23 -6q-36 0 -68 51q-22 35 -22 63t21 43l347 255q16 11 33 11z" />
    <glyph glyph-name="acircumflex" unicode="&#xe2;" 
d="M921 851q98 -95 98 -272v-289q0 -40 17 -62.5t49 -22.5h31q24 0 37 -8.5t19.5 -30.5t6.5 -64t-6.5 -64t-19.5 -30t-37 -8h-112q-62 0 -109.5 25.5t-72.5 80.5q-79 -61 -167 -94.5t-181 -33.5q-113 0 -195 38.5t-125.5 110t-43.5 168.5q0 140 99 217t277 77q133 0 283 -30
v29q0 67 -42 99t-148 32q-59 0 -131.5 -14.5t-143.5 -38.5q-17 -5 -29 -5q-25 0 -44.5 18.5t-35.5 62.5q-15 44 -15 72q0 51 46 68q89 32 189 48t188 16q220 0 318 -95zM404.5 358q-36.5 -25 -36.5 -73q0 -47 35.5 -71.5t102.5 -24.5q69 0 136.5 27.5t126.5 75.5v64
q-132 27 -258 27q-70 0 -106.5 -25zM655.5 1404.5q15.5 -5.5 29.5 -17.5l265 -225q22 -19 22 -42q0 -25 -25 -60q-30 -43 -60 -43q-16 0 -33 11l-240 138l-240 -138q-17 -11 -33 -11q-30 0 -60 43q-25 35 -25 60q0 23 22 42l265 225q14 12 29.5 17.5t41.5 5.5t41.5 -5.5z
" />
    <glyph glyph-name="atilde" unicode="&#xe3;" 
d="M921 851q98 -95 98 -272v-289q0 -40 17 -62.5t49 -22.5h31q24 0 37 -8.5t19.5 -30.5t6.5 -64t-6.5 -64t-19.5 -30t-37 -8h-112q-62 0 -109.5 25.5t-72.5 80.5q-79 -61 -167 -94.5t-181 -33.5q-113 0 -195 38.5t-125.5 110t-43.5 168.5q0 140 99 217t277 77q133 0 283 -30
v29q0 67 -42 99t-148 32q-59 0 -131.5 -14.5t-143.5 -38.5q-17 -5 -29 -5q-25 0 -44.5 18.5t-35.5 62.5q-15 44 -15 72q0 51 46 68q89 32 189 48t188 16q220 0 318 -95zM404.5 358q-36.5 -25 -36.5 -73q0 -47 35.5 -71.5t102.5 -24.5q69 0 136.5 27.5t126.5 75.5v64
q-132 27 -258 27q-70 0 -106.5 -25zM558 1359q33 -12 77 -34q36 -18 58.5 -26.5t46.5 -8.5q61 0 129 72q14 14 30 14q29 0 66 -40q36 -40 36 -76q0 -20 -10 -34q-51 -76 -115 -118.5t-133 -42.5q-40 0 -73 12t-77 34q-36 18 -58.5 26.5t-46.5 8.5q-61 0 -129 -72
q-14 -14 -30 -14q-29 0 -66 40q-36 40 -36 76q0 20 10 34q51 76 115 118.5t133 42.5q40 0 73 -12z" />
    <glyph glyph-name="adieresis" unicode="&#xe4;" 
d="M921 851q98 -95 98 -272v-289q0 -40 17 -62.5t49 -22.5h31q24 0 37 -8.5t19.5 -30.5t6.5 -64t-6.5 -64t-19.5 -30t-37 -8h-112q-62 0 -109.5 25.5t-72.5 80.5q-79 -61 -167 -94.5t-181 -33.5q-113 0 -195 38.5t-125.5 110t-43.5 168.5q0 140 99 217t277 77q133 0 283 -30
v29q0 67 -42 99t-148 32q-59 0 -131.5 -14.5t-143.5 -38.5q-17 -5 -29 -5q-25 0 -44.5 18.5t-35.5 62.5q-15 44 -15 72q0 51 46 68q89 32 189 48t188 16q220 0 318 -95zM404.5 358q-36.5 -25 -36.5 -73q0 -47 35.5 -71.5t102.5 -24.5q69 0 136.5 27.5t126.5 75.5v64
q-132 27 -258 27q-70 0 -106.5 -25zM490.5 1348.5q28.5 -14.5 28.5 -48.5v-164q0 -34 -26.5 -48.5t-96.5 -14.5t-98.5 14.5t-28.5 48.5v164q0 35 26 49t96 14q71 0 99.5 -14.5zM930.5 1348.5q28.5 -14.5 28.5 -48.5v-164q0 -34 -26.5 -48.5t-96.5 -14.5t-98.5 14.5
t-28.5 48.5v164q0 35 26 49t96 14q71 0 99.5 -14.5z" />
    <glyph glyph-name="aring" unicode="&#xe5;" 
d="M921 851q98 -95 98 -272v-289q0 -40 17 -62.5t49 -22.5h31q24 0 37 -8.5t19.5 -30.5t6.5 -64t-6.5 -64t-19.5 -30t-37 -8h-112q-62 0 -109.5 25.5t-72.5 80.5q-79 -61 -167 -94.5t-181 -33.5q-113 0 -195 38.5t-125.5 110t-43.5 168.5q0 140 99 217t277 77q133 0 283 -30
v29q0 67 -42 99t-148 32q-59 0 -131.5 -14.5t-143.5 -38.5q-17 -5 -29 -5q-25 0 -44.5 18.5t-35.5 62.5q-15 44 -15 72q0 51 46 68q89 32 189 48t188 16q220 0 318 -95zM404.5 358q-36.5 -25 -36.5 -73q0 -47 35.5 -71.5t102.5 -24.5q69 0 136.5 27.5t126.5 75.5v64
q-132 27 -258 27q-70 0 -106.5 -25zM755 1534q60 -34 94 -94t34 -134t-34 -134t-94 -94t-134 -34t-134 34t-94 94t-34 134t34 134t94 94t134 34t134 -34zM554 1373q-25 -25 -25 -67t25 -67t67 -25t67 25t25 67t-25 67t-67 25t-67 -25z" />
    <glyph glyph-name="ae" unicode="&#xe6;" 
d="M1061.5 882q73.5 -64 102.5 -176.5t29 -273.5q0 -34 -14.5 -48t-48.5 -14h-406q21 -165 134 -165q55 0 105 11.5t113 38.5q15 6 28 6q24 0 41 -21t31 -61t14 -65q0 -46 -45 -65q-164 -71 -302 -71q-157 0 -240 124q-94 -124 -268 -124q-90 0 -158.5 35.5t-106.5 102.5
t-38 159q0 163 109.5 237.5t277.5 74.5q40 0 90 -5v6q0 64 -36 97.5t-108 33.5q-43 0 -85 -13.5t-91 -38.5q-16 -8 -30 -8q-44 0 -81 79q-18 39 -18 68q0 42 36 62q65 38 141.5 58t155.5 20q160 0 241 -94q83 94 224 94q130 0 203.5 -64zM766.5 681.5
q-31.5 -37.5 -42.5 -116.5h244q-5 74 -32.5 114t-77.5 40q-60 0 -91.5 -37.5zM438 392q-88 0 -133 -23t-45 -84q0 -45 25 -70.5t73 -25.5q70 0 110.5 47.5t40.5 121.5v32q-50 2 -71 2z" />
    <glyph glyph-name="ccedilla" unicode="&#xe7;" 
d="M1078 157q0 -45 -43 -69q-79 -44 -166 -72t-175 -35v-64q107 0 161.5 -52.5t54.5 -137.5q0 -96 -71.5 -147.5t-207.5 -51.5q-147 0 -256 42q-24 10 -24 39q0 19 10 45q24 64 54 64q4 0 12 -2q82 -29 161 -29q49 0 72.5 12.5t23.5 38.5t-24 36.5t-67 10.5l-23 -1
q-8 -1 -24 -1q-37 0 -37 41v166q-117 24 -203 90t-132.5 164.5t-46.5 217.5q0 140 63 250.5t171.5 172t242.5 61.5q162 0 229 -117v54q0 34 29 48.5t93 14.5q62 0 85 -14t23 -49v-321q0 -34 -30.5 -48.5t-101.5 -14.5q-47 0 -72.5 6.5t-35.5 19.5t-10 37q0 42 -20.5 78
t-61 57.5t-97.5 21.5q-72 0 -126 -31.5t-83.5 -90t-29.5 -135.5t29.5 -135.5t83.5 -90t126 -31.5q77 0 157.5 25t156.5 69q18 10 33 10q45 0 79 -79q18 -43 18 -73z" />
    <glyph glyph-name="egrave" unicode="&#xe8;" 
d="M887 880.5q107 -65.5 161.5 -182t54.5 -266.5q0 -34 -14.5 -48t-48.5 -14h-642q19 -80 81.5 -122.5t158.5 -42.5q155 0 336 55q12 4 24 4q22 0 38 -20t29 -68q10 -37 10 -63t-11.5 -40.5t-37.5 -23.5q-100 -33 -204 -52t-204 -19q-152 0 -262 62t-167.5 171.5
t-57.5 250.5q0 140 60 250t173 172t264 62q152 0 259 -65.5zM402 565h440q-17 73 -72.5 113.5t-141.5 40.5q-183 0 -226 -154zM872 1135q0 -28 -22 -63q-32 -51 -68 -51q-12 0 -23 6l-407 205q-24 12 -24 44q0 39 40 93q57 75 103 75q17 0 33 -11l347 -255q21 -15 21 -43z
" />
    <glyph glyph-name="eacute" unicode="&#xe9;" 
d="M887 880.5q107 -65.5 161.5 -182t54.5 -266.5q0 -34 -14.5 -48t-48.5 -14h-642q19 -80 81.5 -122.5t158.5 -42.5q155 0 336 55q12 4 24 4q22 0 38 -20t29 -68q10 -37 10 -63t-11.5 -40.5t-37.5 -23.5q-100 -33 -204 -52t-204 -19q-152 0 -262 62t-167.5 171.5
t-57.5 250.5q0 140 60 250t173 172t264 62q152 0 259 -65.5zM402 565h440q-17 73 -72.5 113.5t-141.5 40.5q-183 0 -226 -154zM777 1444q46 0 103 -75q40 -54 40 -93q0 -32 -24 -44l-407 -205q-10 -6 -23 -6q-36 0 -68 51q-22 35 -22 63t21 43l347 255q16 11 33 11z" />
    <glyph glyph-name="ecircumflex" unicode="&#xea;" 
d="M887 880.5q107 -65.5 161.5 -182t54.5 -266.5q0 -34 -14.5 -48t-48.5 -14h-642q19 -80 81.5 -122.5t158.5 -42.5q155 0 336 55q12 4 24 4q22 0 38 -20t29 -68q10 -37 10 -63t-11.5 -40.5t-37.5 -23.5q-100 -33 -204 -52t-204 -19q-152 0 -262 62t-167.5 171.5
t-57.5 250.5q0 140 60 250t173 172t264 62q152 0 259 -65.5zM402 565h440q-17 73 -72.5 113.5t-141.5 40.5q-183 0 -226 -154zM665.5 1404.5q15.5 -5.5 29.5 -17.5l265 -225q22 -19 22 -42q0 -25 -25 -60q-30 -43 -60 -43q-16 0 -33 11l-240 138l-240 -138q-17 -11 -33 -11
q-30 0 -60 43q-25 35 -25 60q0 23 22 42l265 225q14 12 29.5 17.5t41.5 5.5t41.5 -5.5z" />
    <glyph glyph-name="edieresis" unicode="&#xeb;" 
d="M887 880.5q107 -65.5 161.5 -182t54.5 -266.5q0 -34 -14.5 -48t-48.5 -14h-642q19 -80 81.5 -122.5t158.5 -42.5q155 0 336 55q12 4 24 4q22 0 38 -20t29 -68q10 -37 10 -63t-11.5 -40.5t-37.5 -23.5q-100 -33 -204 -52t-204 -19q-152 0 -262 62t-167.5 171.5
t-57.5 250.5q0 140 60 250t173 172t264 62q152 0 259 -65.5zM402 565h440q-17 73 -72.5 113.5t-141.5 40.5q-183 0 -226 -154zM490.5 1348.5q28.5 -14.5 28.5 -48.5v-164q0 -34 -26.5 -48.5t-96.5 -14.5t-98.5 14.5t-28.5 48.5v164q0 35 26 49t96 14q71 0 99.5 -14.5z
M930.5 1348.5q28.5 -14.5 28.5 -48.5v-164q0 -34 -26.5 -48.5t-96.5 -14.5t-98.5 14.5t-28.5 48.5v164q0 35 26 49t96 14q71 0 99.5 -14.5z" />
    <glyph glyph-name="igrave" unicode="&#xec;" 
d="M738.5 909.5q14.5 -14.5 14.5 -48.5v-656h281q24 0 37 -8.5t19.5 -30.5t6.5 -64t-6.5 -64t-19.5 -30t-37 -8h-804q-24 0 -37 8t-19.5 30t-6.5 64t6.5 64t19.5 30.5t37 8.5h273v514h-213q-24 0 -37 8t-19.5 30t-6.5 64t6.5 64t19.5 30.5t37 8.5h400q34 0 48.5 -14.5z
M782 1135q0 -28 -22 -63q-32 -51 -68 -51q-12 0 -23 6l-407 205q-24 12 -24 44q0 39 40 93q57 75 103 75q17 0 33 -11l347 -255q21 -15 21 -43z" />
    <glyph glyph-name="iacute" unicode="&#xed;" 
d="M738.5 909.5q14.5 -14.5 14.5 -48.5v-656h281q24 0 37 -8.5t19.5 -30.5t6.5 -64t-6.5 -64t-19.5 -30t-37 -8h-804q-24 0 -37 8t-19.5 30t-6.5 64t6.5 64t19.5 30.5t37 8.5h273v514h-213q-24 0 -37 8t-19.5 30t-6.5 64t6.5 64t19.5 30.5t37 8.5h400q34 0 48.5 -14.5z
M747 1444q46 0 103 -75q40 -54 40 -93q0 -32 -24 -44l-407 -205q-10 -6 -23 -6q-36 0 -68 51q-22 35 -22 63t21 43l347 255q16 11 33 11z" />
    <glyph glyph-name="icircumflex" unicode="&#xee;" 
d="M738.5 909.5q14.5 -14.5 14.5 -48.5v-656h281q24 0 37 -8.5t19.5 -30.5t6.5 -64t-6.5 -64t-19.5 -30t-37 -8h-804q-24 0 -37 8t-19.5 30t-6.5 64t6.5 64t19.5 30.5t37 8.5h273v514h-213q-24 0 -37 8t-19.5 30t-6.5 64t6.5 64t19.5 30.5t37 8.5h400q34 0 48.5 -14.5z
M655.5 1404.5q15.5 -5.5 29.5 -17.5l265 -225q22 -19 22 -42q0 -25 -25 -60q-30 -43 -60 -43q-16 0 -33 11l-240 138l-240 -138q-17 -11 -33 -11q-30 0 -60 43q-25 35 -25 60q0 23 22 42l265 225q14 12 29.5 17.5t41.5 5.5t41.5 -5.5z" />
    <glyph glyph-name="idieresis" unicode="&#xef;" 
d="M738.5 909.5q14.5 -14.5 14.5 -48.5v-656h281q24 0 37 -8.5t19.5 -30.5t6.5 -64t-6.5 -64t-19.5 -30t-37 -8h-804q-24 0 -37 8t-19.5 30t-6.5 64t6.5 64t19.5 30.5t37 8.5h273v514h-213q-24 0 -37 8t-19.5 30t-6.5 64t6.5 64t19.5 30.5t37 8.5h400q34 0 48.5 -14.5z
M490.5 1348.5q28.5 -14.5 28.5 -48.5v-164q0 -34 -26.5 -48.5t-96.5 -14.5t-98.5 14.5t-28.5 48.5v164q0 35 26 49t96 14q71 0 99.5 -14.5zM930.5 1348.5q28.5 -14.5 28.5 -48.5v-164q0 -34 -26.5 -48.5t-96.5 -14.5t-98.5 14.5t-28.5 48.5v164q0 35 26 49t96 14
q71 0 99.5 -14.5z" />
    <glyph glyph-name="eth" unicode="&#xf0;" 
d="M1040 809q66 -162 66 -347q0 -148 -60.5 -257.5t-171.5 -168t-260 -58.5q-147 0 -258.5 56.5t-172.5 157.5t-61 230t57.5 230t162.5 157.5t242 56.5q107 0 190 -50q-59 90 -154 168l-153 -81q-20 -11 -34 -11q-17 0 -32 14.5t-33 48.5q-23 44 -23 66q0 15 8.5 26t26.5 20
l65 35l-67 35q-31 16 -31 46q0 34 38 94q25 39 46 56t43 17q16 0 36 -10q97 -49 181 -108l150 80q19 10 34 10q17 0 32 -14.5t33 -48.5q22 -43 22 -65q0 -15 -8.5 -26t-25.5 -20l-84 -45q130 -132 196 -294zM777 263q61 58 61 159t-61 159t-163 58t-163 -58t-61 -159
t61 -159t163 -58t163 58z" />
    <glyph glyph-name="ntilde" unicode="&#xf1;" 
d="M916.5 906q68.5 -40 105.5 -113.5t37 -172.5v-415h77q24 0 37 -8.5t19.5 -30.5t6.5 -64t-6.5 -64t-19.5 -30t-37 -8h-374q-24 0 -37 8t-19.5 30t-6.5 64t6.5 64t19.5 30.5t37 8.5h47v356q0 78 -27 118t-90 40q-58 0 -110 -48.5t-83.5 -129.5t-31.5 -173v-163h47
q24 0 37 -8.5t19.5 -30.5t6.5 -64t-6.5 -64t-19.5 -30t-37 -8h-374q-24 0 -37 8t-19.5 30t-6.5 64t6.5 64t19.5 30.5t37 8.5h77v514h-97q-24 0 -37 8t-19.5 30t-6.5 64t6.5 64t19.5 30.5t37 8.5h244q34 0 48.5 -14.5t14.5 -48.5v-145q132 230 330 230q91 0 159.5 -40z
M558 1359q33 -12 77 -34q36 -18 58.5 -26.5t46.5 -8.5q61 0 129 72q14 14 30 14q29 0 66 -40q36 -40 36 -76q0 -20 -10 -34q-51 -76 -115 -118.5t-133 -42.5q-40 0 -73 12t-77 34q-36 18 -58.5 26.5t-46.5 8.5q-61 0 -129 -72q-14 -14 -30 -14q-29 0 -66 40q-36 40 -36 76
q0 20 10 34q51 76 115 118.5t133 42.5q40 0 73 -12z" />
    <glyph glyph-name="ograve" unicode="&#xf2;" 
d="M880 884q114 -62 175.5 -172t61.5 -250t-61.5 -250t-175.5 -172t-266 -62t-266 62t-175.5 172t-61.5 250t61.5 250t175.5 172t266 62t266 -62zM489 687.5q-53 -31.5 -81.5 -89.5t-28.5 -136t28.5 -136t81.5 -89.5t125 -31.5t125 31.5t81.5 89.5t28.5 136t-28.5 136
t-81.5 89.5t-125 31.5t-125 -31.5zM842 1135q0 -28 -22 -63q-32 -51 -68 -51q-12 0 -23 6l-407 205q-24 12 -24 44q0 39 40 93q57 75 103 75q17 0 33 -11l347 -255q21 -15 21 -43z" />
    <glyph glyph-name="oacute" unicode="&#xf3;" 
d="M880 884q114 -62 175.5 -172t61.5 -250t-61.5 -250t-175.5 -172t-266 -62t-266 62t-175.5 172t-61.5 250t61.5 250t175.5 172t266 62t266 -62zM489 687.5q-53 -31.5 -81.5 -89.5t-28.5 -136t28.5 -136t81.5 -89.5t125 -31.5t125 31.5t81.5 89.5t28.5 136t-28.5 136
t-81.5 89.5t-125 31.5t-125 -31.5zM787 1444q46 0 103 -75q40 -54 40 -93q0 -32 -24 -44l-407 -205q-10 -6 -23 -6q-36 0 -68 51q-22 35 -22 63t21 43l347 255q16 11 33 11z" />
    <glyph glyph-name="ocircumflex" unicode="&#xf4;" 
d="M880 884q114 -62 175.5 -172t61.5 -250t-61.5 -250t-175.5 -172t-266 -62t-266 62t-175.5 172t-61.5 250t61.5 250t175.5 172t266 62t266 -62zM489 687.5q-53 -31.5 -81.5 -89.5t-28.5 -136t28.5 -136t81.5 -89.5t125 -31.5t125 31.5t81.5 89.5t28.5 136t-28.5 136
t-81.5 89.5t-125 31.5t-125 -31.5zM655.5 1404.5q15.5 -5.5 29.5 -17.5l265 -225q22 -19 22 -42q0 -25 -25 -60q-30 -43 -60 -43q-16 0 -33 11l-240 138l-240 -138q-17 -11 -33 -11q-30 0 -60 43q-25 35 -25 60q0 23 22 42l265 225q14 12 29.5 17.5t41.5 5.5t41.5 -5.5z" />
    <glyph glyph-name="otilde" unicode="&#xf5;" 
d="M880 884q114 -62 175.5 -172t61.5 -250t-61.5 -250t-175.5 -172t-266 -62t-266 62t-175.5 172t-61.5 250t61.5 250t175.5 172t266 62t266 -62zM489 687.5q-53 -31.5 -81.5 -89.5t-28.5 -136t28.5 -136t81.5 -89.5t125 -31.5t125 31.5t81.5 89.5t28.5 136t-28.5 136
t-81.5 89.5t-125 31.5t-125 -31.5zM558 1359q33 -12 77 -34q36 -18 58.5 -26.5t46.5 -8.5q61 0 129 72q14 14 30 14q29 0 66 -40q36 -40 36 -76q0 -20 -10 -34q-51 -76 -115 -118.5t-133 -42.5q-40 0 -73 12t-77 34q-36 18 -58.5 26.5t-46.5 8.5q-61 0 -129 -72
q-14 -14 -30 -14q-29 0 -66 40q-36 40 -36 76q0 20 10 34q51 76 115 118.5t133 42.5q40 0 73 -12z" />
    <glyph glyph-name="odieresis" unicode="&#xf6;" 
d="M880 884q114 -62 175.5 -172t61.5 -250t-61.5 -250t-175.5 -172t-266 -62t-266 62t-175.5 172t-61.5 250t61.5 250t175.5 172t266 62t266 -62zM489 687.5q-53 -31.5 -81.5 -89.5t-28.5 -136t28.5 -136t81.5 -89.5t125 -31.5t125 31.5t81.5 89.5t28.5 136t-28.5 136
t-81.5 89.5t-125 31.5t-125 -31.5zM490.5 1348.5q28.5 -14.5 28.5 -48.5v-164q0 -34 -26.5 -48.5t-96.5 -14.5t-98.5 14.5t-28.5 48.5v164q0 35 26 49t96 14q71 0 99.5 -14.5zM930.5 1348.5q28.5 -14.5 28.5 -48.5v-164q0 -34 -26.5 -48.5t-96.5 -14.5t-98.5 14.5
t-28.5 48.5v164q0 35 26 49t96 14q71 0 99.5 -14.5z" />
    <glyph glyph-name="divide" unicode="&#xf7;" 
d="M709.5 1080.5q29.5 -14.5 29.5 -48.5v-144q0 -34 -29.5 -48.5t-95.5 -14.5t-95.5 14.5t-29.5 48.5v144q0 34 29.5 48.5t95.5 14.5t95.5 -14.5zM1032 686q13 -9 19.5 -33t6.5 -71t-6.5 -71t-19.5 -32.5t-37 -8.5h-762q-24 0 -37 8.5t-19.5 32.5t-6.5 71t6.5 71t19.5 33
t37 9h762q24 0 37 -9zM709.5 325.5q29.5 -14.5 29.5 -48.5v-144q0 -34 -29.5 -48.5t-95.5 -14.5t-95.5 14.5t-29.5 48.5v144q0 34 29.5 48.5t95.5 14.5t95.5 -14.5z" />
    <glyph glyph-name="oslash" unicode="&#xf8;" 
d="M1145 895q0 -18 -21 -41l-96 -99q89 -123 89 -293q0 -140 -61.5 -250t-175.5 -172t-266 -62q-157 0 -275 67l-101 -104q-21 -23 -42 -23q-26 0 -69 42q-44 43 -44 69q0 18 21 41l96 99q-89 123 -89 293q0 140 61.5 250t175.5 172t266 62q157 0 275 -67l101 104
q21 23 42 23q26 0 69 -42q44 -43 44 -69zM392 367l323 333q-47 19 -101 19q-72 0 -125 -31.5t-81.5 -89.5t-28.5 -136q0 -55 13 -95zM836 557l-323 -333q48 -19 101 -19q72 0 125 31.5t81.5 89.5t28.5 136q0 55 -13 95z" />
    <glyph glyph-name="ugrave" unicode="&#xf9;" 
d="M1017.5 909.5q14.5 -14.5 14.5 -48.5v-656h77q24 0 37 -8t19.5 -30t6.5 -64t-6.5 -64t-19.5 -30.5t-37 -8.5h-224q-34 0 -48.5 14.5t-14.5 48.5v145q-132 -230 -330 -230q-91 0 -159.5 40t-105.5 113.5t-37 172.5v415h-77q-24 0 -37 8.5t-19.5 30.5t-6.5 64t6.5 64
t19.5 30t37 8h264q34 0 48.5 -14.5t14.5 -48.5v-498q0 -78 27 -118t90 -40q58 0 110 48.5t83.5 129.5t31.5 173v163h-107q-24 0 -37 8.5t-19.5 30.5t-6.5 64t6.5 64t19.5 30t37 8h294q34 0 48.5 -14.5zM832 1135q0 -28 -22 -63q-32 -51 -68 -51q-12 0 -23 6l-407 205
q-24 12 -24 44q0 39 40 93q57 75 103 75q17 0 33 -11l347 -255q21 -15 21 -43z" />
    <glyph glyph-name="uacute" unicode="&#xfa;" 
d="M1017.5 909.5q14.5 -14.5 14.5 -48.5v-656h77q24 0 37 -8t19.5 -30t6.5 -64t-6.5 -64t-19.5 -30.5t-37 -8.5h-224q-34 0 -48.5 14.5t-14.5 48.5v145q-132 -230 -330 -230q-91 0 -159.5 40t-105.5 113.5t-37 172.5v415h-77q-24 0 -37 8.5t-19.5 30.5t-6.5 64t6.5 64
t19.5 30t37 8h264q34 0 48.5 -14.5t14.5 -48.5v-498q0 -78 27 -118t90 -40q58 0 110 48.5t83.5 129.5t31.5 173v163h-107q-24 0 -37 8.5t-19.5 30.5t-6.5 64t6.5 64t19.5 30t37 8h294q34 0 48.5 -14.5zM807 1444q46 0 103 -75q40 -54 40 -93q0 -32 -24 -44l-407 -205
q-10 -6 -23 -6q-36 0 -68 51q-22 35 -22 63t21 43l347 255q16 11 33 11z" />
    <glyph glyph-name="ucircumflex" unicode="&#xfb;" 
d="M1017.5 909.5q14.5 -14.5 14.5 -48.5v-656h77q24 0 37 -8t19.5 -30t6.5 -64t-6.5 -64t-19.5 -30.5t-37 -8.5h-224q-34 0 -48.5 14.5t-14.5 48.5v145q-132 -230 -330 -230q-91 0 -159.5 40t-105.5 113.5t-37 172.5v415h-77q-24 0 -37 8.5t-19.5 30.5t-6.5 64t6.5 64
t19.5 30t37 8h264q34 0 48.5 -14.5t14.5 -48.5v-498q0 -78 27 -118t90 -40q58 0 110 48.5t83.5 129.5t31.5 173v163h-107q-24 0 -37 8.5t-19.5 30.5t-6.5 64t6.5 64t19.5 30t37 8h294q34 0 48.5 -14.5zM645.5 1404.5q15.5 -5.5 29.5 -17.5l265 -225q22 -19 22 -42
q0 -25 -25 -60q-30 -43 -60 -43q-16 0 -33 11l-240 138l-240 -138q-17 -11 -33 -11q-30 0 -60 43q-25 35 -25 60q0 23 22 42l265 225q14 12 29.5 17.5t41.5 5.5t41.5 -5.5z" />
    <glyph glyph-name="udieresis" unicode="&#xfc;" 
d="M1017.5 909.5q14.5 -14.5 14.5 -48.5v-656h77q24 0 37 -8t19.5 -30t6.5 -64t-6.5 -64t-19.5 -30.5t-37 -8.5h-224q-34 0 -48.5 14.5t-14.5 48.5v145q-132 -230 -330 -230q-91 0 -159.5 40t-105.5 113.5t-37 172.5v415h-77q-24 0 -37 8.5t-19.5 30.5t-6.5 64t6.5 64
t19.5 30t37 8h264q34 0 48.5 -14.5t14.5 -48.5v-498q0 -78 27 -118t90 -40q58 0 110 48.5t83.5 129.5t31.5 173v163h-107q-24 0 -37 8.5t-19.5 30.5t-6.5 64t6.5 64t19.5 30t37 8h294q34 0 48.5 -14.5zM470.5 1348.5q28.5 -14.5 28.5 -48.5v-164q0 -34 -26.5 -48.5
t-96.5 -14.5t-98.5 14.5t-28.5 48.5v164q0 35 26 49t96 14q71 0 99.5 -14.5zM910.5 1348.5q28.5 -14.5 28.5 -48.5v-164q0 -34 -26.5 -48.5t-96.5 -14.5t-98.5 14.5t-28.5 48.5v164q0 35 26 49t96 14q71 0 99.5 -14.5z" />
    <glyph glyph-name="yacute" unicode="&#xfd;" 
d="M1162 915.5q13 -8.5 19.5 -30.5t6.5 -64t-6.5 -64t-19.5 -30t-37 -8h-64l-383 -776q-70 -141 -133.5 -214.5t-145 -104t-210.5 -34.5q-36 -1 -54.5 27t-18.5 102q0 51 13.5 73t38.5 24q79 5 128.5 30t90 79.5t97.5 164.5l-306 629h-75q-24 0 -37 8t-19.5 30t-6.5 64
t6.5 64t19.5 30.5t37 8.5h404q24 0 37 -8.5t19.5 -30.5t6.5 -64t-6.5 -64t-19.5 -30t-37 -8h-60l174 -380l174 380h-54q-24 0 -37 8t-19.5 30t-6.5 64t6.5 64t19.5 30.5t37 8.5h384q24 0 37 -8.5zM809 1444q46 0 103 -75q40 -54 40 -93q0 -32 -24 -44l-407 -205
q-10 -6 -23 -6q-36 0 -68 51q-22 35 -22 63t21 43l347 255q16 11 33 11z" />
    <glyph glyph-name="thorn" unicode="&#xfe;" 
d="M422.5 1297.5q14.5 -14.5 14.5 -48.5v-421q51 57 118 87.5t145 30.5q131 0 229 -64t150 -174t52 -246t-52 -246t-150 -174t-229 -64q-78 0 -145 30.5t-118 87.5v-279h167q24 0 37 -8t19.5 -30t6.5 -64t-6.5 -64t-19.5 -30.5t-37 -8.5h-504q-24 0 -37 8t-19.5 30t-6.5 64
t6.5 64t19.5 30.5t37 8.5h87v1290h-87q-24 0 -37 8t-19.5 30t-6.5 64t6.5 64t19.5 30.5t37 8.5h274q34 0 48.5 -14.5zM544 689q-52 -30 -83 -88.5t-31 -138.5t31 -138.5t83 -88.5t116 -30q62 0 108 31.5t70.5 89.5t24.5 136t-24.5 136t-70.5 89.5t-108 31.5q-64 0 -116 -30z
" />
    <glyph glyph-name="ydieresis" unicode="&#xff;" 
d="M1162 915.5q13 -8.5 19.5 -30.5t6.5 -64t-6.5 -64t-19.5 -30t-37 -8h-64l-383 -776q-70 -141 -133.5 -214.5t-145 -104t-210.5 -34.5q-36 -1 -54.5 27t-18.5 102q0 51 13.5 73t38.5 24q79 5 128.5 30t90 79.5t97.5 164.5l-306 629h-75q-24 0 -37 8t-19.5 30t-6.5 64
t6.5 64t19.5 30.5t37 8.5h404q24 0 37 -8.5t19.5 -30.5t6.5 -64t-6.5 -64t-19.5 -30t-37 -8h-60l174 -380l174 380h-54q-24 0 -37 8t-19.5 30t-6.5 64t6.5 64t19.5 30.5t37 8.5h384q24 0 37 -8.5zM490.5 1348.5q28.5 -14.5 28.5 -48.5v-164q0 -34 -26.5 -48.5t-96.5 -14.5
t-98.5 14.5t-28.5 48.5v164q0 35 26 49t96 14q71 0 99.5 -14.5zM930.5 1348.5q28.5 -14.5 28.5 -48.5v-164q0 -34 -26.5 -48.5t-96.5 -14.5t-98.5 14.5t-28.5 48.5v164q0 35 26 49t96 14q71 0 99.5 -14.5z" />
    <glyph glyph-name="Amacron" unicode="&#x100;" 
d="M872 1536.5q13 -8.5 19.5 -30.5t6.5 -64t-6.5 -64t-19.5 -30t-37 -8h-542q-24 0 -37 8t-19.5 30t-6.5 64t6.5 64t19.5 30.5t37 8.5h542q24 0 37 -8.5zM762 1171.5q25 -15.5 36 -49.5l290 -917h87q24 0 37 -8t19.5 -30t6.5 -64t-6.5 -64t-19.5 -30.5t-37 -8.5h-424
q-24 0 -37 8.5t-19.5 30.5t-6.5 64t6.5 64t19.5 30t37 8h86l-45 145h-364l-45 -145h74q24 0 37 -8t19.5 -30t6.5 -64t-6.5 -64t-19.5 -30.5t-37 -8.5h-404q-24 0 -37 8.5t-19.5 30.5t-6.5 64t6.5 64t19.5 30t37 8h84l253 777h-167q-24 0 -37 8.5t-19.5 30.5t-6.5 64t6.5 64
t19.5 30t37 8h474q40 0 65 -15.5zM609 982l-123 -427h249l-120 427h-6z" />
    <glyph glyph-name="amacron" unicode="&#x101;" 
d="M921 851q98 -95 98 -272v-289q0 -40 17 -62.5t49 -22.5h31q24 0 37 -8.5t19.5 -30.5t6.5 -64t-6.5 -64t-19.5 -30t-37 -8h-112q-62 0 -109.5 25.5t-72.5 80.5q-79 -61 -167 -94.5t-181 -33.5q-113 0 -195 38.5t-125.5 110t-43.5 168.5q0 140 99 217t277 77q133 0 283 -30
v29q0 67 -42 99t-148 32q-59 0 -131.5 -14.5t-143.5 -38.5q-17 -5 -29 -5q-25 0 -44.5 18.5t-35.5 62.5q-15 44 -15 72q0 51 46 68q89 32 189 48t188 16q220 0 318 -95zM404.5 358q-36.5 -25 -36.5 -73q0 -47 35.5 -71.5t102.5 -24.5q69 0 136.5 27.5t126.5 75.5v64
q-132 27 -258 27q-70 0 -106.5 -25zM922 1266.5q13 -8.5 19.5 -30.5t6.5 -64t-6.5 -64t-19.5 -30t-37 -8h-542q-24 0 -37 8t-19.5 30t-6.5 64t6.5 64t19.5 30.5t37 8.5h542q24 0 37 -8.5z" />
    <glyph glyph-name="Abreve" unicode="&#x102;" 
d="M762 1171.5q25 -15.5 36 -49.5l290 -917h87q24 0 37 -8t19.5 -30t6.5 -64t-6.5 -64t-19.5 -30.5t-37 -8.5h-424q-24 0 -37 8.5t-19.5 30.5t-6.5 64t6.5 64t19.5 30t37 8h86l-45 145h-364l-45 -145h74q24 0 37 -8t19.5 -30t6.5 -64t-6.5 -64t-19.5 -30.5t-37 -8.5h-404
q-24 0 -37 8.5t-19.5 30.5t-6.5 64t6.5 64t19.5 30t37 8h84l253 777h-167q-24 0 -37 8.5t-19.5 30.5t-6.5 64t6.5 64t19.5 30t37 8h474q40 0 65 -15.5zM609 982l-123 -427h249l-120 427h-6zM931 1633.5q16 -14.5 16 -35.5q0 -9 -1 -13q-24 -127 -114 -200.5t-238 -73.5
t-238 73.5t-114 200.5q-1 4 -1 13q0 21 16 35.5t50 23.5q24 7 43 7q32 0 43 -27q23 -64 71.5 -93t129.5 -29t129.5 29t71.5 93q11 27 43 27q19 0 43 -7q34 -9 50 -23.5z" />
    <glyph glyph-name="abreve" unicode="&#x103;" 
d="M921 851q98 -95 98 -272v-289q0 -40 17 -62.5t49 -22.5h31q24 0 37 -8.5t19.5 -30.5t6.5 -64t-6.5 -64t-19.5 -30t-37 -8h-112q-62 0 -109.5 25.5t-72.5 80.5q-79 -61 -167 -94.5t-181 -33.5q-113 0 -195 38.5t-125.5 110t-43.5 168.5q0 140 99 217t277 77q133 0 283 -30
v29q0 67 -42 99t-148 32q-59 0 -131.5 -14.5t-143.5 -38.5q-17 -5 -29 -5q-25 0 -44.5 18.5t-35.5 62.5q-15 44 -15 72q0 51 46 68q89 32 189 48t188 16q220 0 318 -95zM404.5 358q-36.5 -25 -36.5 -73q0 -47 35.5 -71.5t102.5 -24.5q69 0 136.5 27.5t126.5 75.5v64
q-132 27 -258 27q-70 0 -106.5 -25zM954 1363.5q16 -14.5 16 -35.5q0 -9 -1 -13q-24 -127 -114 -200.5t-238 -73.5t-238 73.5t-114 200.5q-1 4 -1 13q0 21 16 35.5t50 23.5q24 7 43 7q32 0 43 -27q23 -64 71.5 -93t129.5 -29t129.5 29t71.5 93q11 27 43 27q19 0 43 -7
q34 -9 50 -23.5z" />
    <glyph glyph-name="Aogonek" unicode="&#x104;" 
d="M932 -211q0 -67 88 -67q46 0 120 13q51 8 51 -97q0 -33 -10 -51t-30 -25q-102 -34 -216 -34q-118 0 -182 52t-64 151q0 80 48.5 144.5t137.5 124.5h-124q-24 0 -37 8.5t-19.5 30.5t-6.5 64t6.5 64t19.5 30t37 8h86l-45 145h-364l-45 -145h74q24 0 37 -8t19.5 -30t6.5 -64
t-6.5 -64t-19.5 -30.5t-37 -8.5h-404q-24 0 -37 8.5t-19.5 30.5t-6.5 64t6.5 64t19.5 30t37 8h84l253 777h-167q-24 0 -37 8.5t-19.5 30.5t-6.5 64t6.5 64t19.5 30t37 8h474q40 0 65 -15.5t36 -49.5l290 -917h87q24 0 37 -8t19.5 -30t6.5 -64t-6.5 -64t-19.5 -30.5t-37 -8.5
h-87q-156 -124 -156 -211zM486 555h249l-120 427h-6z" />
    <glyph glyph-name="aogonek" unicode="&#x105;" 
d="M1171 -413q-10 -18 -30 -25q-102 -34 -216 -34q-118 0 -182 52t-64 151q0 88 57.5 156.5t163.5 135.5q-52 27 -78 83q-79 -61 -167 -94.5t-181 -33.5q-113 0 -195 38.5t-125.5 110t-43.5 168.5q0 140 99 217t277 77q133 0 283 -30v29q0 67 -42 99t-148 32
q-59 0 -131.5 -14.5t-143.5 -38.5q-17 -5 -29 -5q-25 0 -44.5 18.5t-35.5 62.5q-15 44 -15 72q0 51 46 68q89 32 189 48t188 16q220 0 318 -95t98 -272v-289q0 -40 17 -62.5t49 -22.5h31q24 0 37 -8.5t19.5 -30.5t6.5 -64t-6.5 -64t-19.5 -30t-37 -8h-38
q-156 -124 -156 -211q0 -67 88 -67q46 0 120 13q51 8 51 -97q0 -33 -10 -51zM769 356q-132 27 -258 27q-70 0 -106.5 -25t-36.5 -73q0 -47 35.5 -71.5t102.5 -24.5q69 0 136.5 27.5t126.5 75.5v64z" />
    <glyph glyph-name="Cacute" unicode="&#x106;" 
d="M827 1714q46 0 103 -75q40 -54 40 -93q0 -32 -24 -44l-407 -205q-10 -6 -23 -6q-36 0 -68 51q-22 35 -22 63t21 43l347 255q16 11 33 11zM1091 1195q23 -14 23 -49v-384q0 -34 -30.5 -48.5t-101.5 -14.5q-47 0 -72.5 6.5t-35.5 19.5t-10 37q0 100 -54.5 160t-155.5 60
q-139 0 -211 -100t-72 -288q0 -186 76.5 -287.5t216.5 -101.5q87 0 167 23.5t174 71.5q16 8 30 8q47 0 78 -83q14 -38 14 -68q0 -51 -46 -73q-214 -106 -427 -106q-164 0 -289 75t-193.5 214.5t-68.5 326.5q0 186 67 325.5t185.5 214.5t268.5 75q175 0 260 -126v63
q0 34 29 48.5t93 14.5q62 0 85 -14z" />
    <glyph glyph-name="cacute" unicode="&#x107;" 
d="M1040 932q23 -14 23 -49v-321q0 -34 -30.5 -48.5t-101.5 -14.5q-47 0 -72.5 6.5t-35.5 19.5t-10 37q0 42 -20.5 78t-61 57.5t-97.5 21.5q-72 0 -126 -31.5t-83.5 -90t-29.5 -135.5t29.5 -135.5t83.5 -90t126 -31.5q77 0 157.5 25t156.5 69q18 10 33 10q45 0 79 -79
q18 -43 18 -73q0 -45 -43 -69q-93 -52 -195.5 -81t-205.5 -29q-152 0 -267 62t-177.5 172t-62.5 250t63 250.5t171.5 172t242.5 61.5q162 0 229 -117v54q0 34 29 48.5t93 14.5q62 0 85 -14zM806 1444q46 0 103 -75q40 -54 40 -93q0 -32 -24 -44l-407 -205q-10 -6 -23 -6
q-36 0 -68 51q-22 35 -22 63t21 43l347 255q16 11 33 11z" />
    <glyph glyph-name="Ccircumflex" unicode="&#x108;" 
d="M695.5 1674.5q15.5 -5.5 29.5 -17.5l265 -225q22 -19 22 -42q0 -25 -25 -60q-30 -43 -60 -43q-16 0 -33 11l-240 138l-240 -138q-17 -11 -33 -11q-30 0 -60 43q-25 35 -25 60q0 23 22 42l265 225q14 12 29.5 17.5t41.5 5.5t41.5 -5.5zM1091 1195q23 -14 23 -49v-384
q0 -34 -30.5 -48.5t-101.5 -14.5q-47 0 -72.5 6.5t-35.5 19.5t-10 37q0 100 -54.5 160t-155.5 60q-139 0 -211 -100t-72 -288q0 -186 76.5 -287.5t216.5 -101.5q87 0 167 23.5t174 71.5q16 8 30 8q47 0 78 -83q14 -38 14 -68q0 -51 -46 -73q-214 -106 -427 -106
q-164 0 -289 75t-193.5 214.5t-68.5 326.5q0 186 67 325.5t185.5 214.5t268.5 75q175 0 260 -126v63q0 34 29 48.5t93 14.5q62 0 85 -14z" />
    <glyph glyph-name="ccircumflex" unicode="&#x109;" 
d="M665.5 1404.5q15.5 -5.5 29.5 -17.5l265 -225q22 -19 22 -42q0 -25 -25 -60q-30 -43 -60 -43q-16 0 -33 11l-240 138l-240 -138q-17 -11 -33 -11q-30 0 -60 43q-25 35 -25 60q0 23 22 42l265 225q14 12 29.5 17.5t41.5 5.5t41.5 -5.5zM1040 932q23 -14 23 -49v-321
q0 -34 -30.5 -48.5t-101.5 -14.5q-47 0 -72.5 6.5t-35.5 19.5t-10 37q0 42 -20.5 78t-61 57.5t-97.5 21.5q-72 0 -126 -31.5t-83.5 -90t-29.5 -135.5t29.5 -135.5t83.5 -90t126 -31.5q77 0 157.5 25t156.5 69q18 10 33 10q45 0 79 -79q18 -43 18 -73q0 -45 -43 -69
q-93 -52 -195.5 -81t-205.5 -29q-152 0 -267 62t-177.5 172t-62.5 250t63 250.5t171.5 172t242.5 61.5q162 0 229 -117v54q0 34 29 48.5t93 14.5q62 0 85 -14z" />
    <glyph glyph-name="Cdotaccent" unicode="&#x10a;" 
d="M750.5 1618.5q28.5 -14.5 28.5 -48.5v-164q0 -34 -26.5 -48.5t-96.5 -14.5t-98.5 14.5t-28.5 48.5v164q0 35 26 49t96 14q71 0 99.5 -14.5zM1091 1195q23 -14 23 -49v-384q0 -34 -30.5 -48.5t-101.5 -14.5q-47 0 -72.5 6.5t-35.5 19.5t-10 37q0 100 -54.5 160t-155.5 60
q-139 0 -211 -100t-72 -288q0 -186 76.5 -287.5t216.5 -101.5q87 0 167 23.5t174 71.5q16 8 30 8q47 0 78 -83q14 -38 14 -68q0 -51 -46 -73q-214 -106 -427 -106q-164 0 -289 75t-193.5 214.5t-68.5 326.5q0 186 67 325.5t185.5 214.5t268.5 75q175 0 260 -126v63
q0 34 29 48.5t93 14.5q62 0 85 -14z" />
    <glyph glyph-name="cdotaccent" unicode="&#x10b;" 
d="M1040 932q23 -14 23 -49v-321q0 -34 -30.5 -48.5t-101.5 -14.5q-47 0 -72.5 6.5t-35.5 19.5t-10 37q0 42 -20.5 78t-61 57.5t-97.5 21.5q-72 0 -126 -31.5t-83.5 -90t-29.5 -135.5t29.5 -135.5t83.5 -90t126 -31.5q77 0 157.5 25t156.5 69q18 10 33 10q45 0 79 -79
q18 -43 18 -73q0 -45 -43 -69q-93 -52 -195.5 -81t-205.5 -29q-152 0 -267 62t-177.5 172t-62.5 250t63 250.5t171.5 172t242.5 61.5q162 0 229 -117v54q0 34 29 48.5t93 14.5q62 0 85 -14zM720.5 1348.5q28.5 -14.5 28.5 -48.5v-164q0 -34 -26.5 -48.5t-96.5 -14.5
t-98.5 14.5t-28.5 48.5v164q0 35 26 49t96 14q71 0 99.5 -14.5z" />
    <glyph glyph-name="Ccaron" unicode="&#x10c;" 
d="M1091 1195q23 -14 23 -49v-384q0 -34 -30.5 -48.5t-101.5 -14.5q-47 0 -72.5 6.5t-35.5 19.5t-10 37q0 100 -54.5 160t-155.5 60q-139 0 -211 -100t-72 -288q0 -186 76.5 -287.5t216.5 -101.5q87 0 167 23.5t174 71.5q16 8 30 8q47 0 78 -83q14 -38 14 -68q0 -51 -46 -73
q-214 -106 -427 -106q-164 0 -289 75t-193.5 214.5t-68.5 326.5q0 186 67 325.5t185.5 214.5t268.5 75q175 0 260 -126v63q0 34 29 48.5t93 14.5q62 0 85 -14zM612.5 1302.5q-15.5 5.5 -29.5 17.5l-265 225q-22 19 -22 42q0 25 25 60q30 43 60 43q16 0 33 -11l240 -138
l240 138q17 11 33 11q30 0 60 -43q25 -35 25 -60q0 -23 -22 -42l-265 -225q-14 -12 -29.5 -17.5t-41.5 -5.5t-41.5 5.5z" />
    <glyph glyph-name="ccaron" unicode="&#x10d;" 
d="M1040 932q23 -14 23 -49v-321q0 -34 -30.5 -48.5t-101.5 -14.5q-47 0 -72.5 6.5t-35.5 19.5t-10 37q0 42 -20.5 78t-61 57.5t-97.5 21.5q-72 0 -126 -31.5t-83.5 -90t-29.5 -135.5t29.5 -135.5t83.5 -90t126 -31.5q77 0 157.5 25t156.5 69q18 10 33 10q45 0 79 -79
q18 -43 18 -73q0 -45 -43 -69q-93 -52 -195.5 -81t-205.5 -29q-152 0 -267 62t-177.5 172t-62.5 250t63 250.5t171.5 172t242.5 61.5q162 0 229 -117v54q0 34 29 48.5t93 14.5q62 0 85 -14zM582.5 1032.5q-15.5 5.5 -29.5 17.5l-265 225q-22 19 -22 42q0 25 25 60
q30 43 60 43q16 0 33 -11l240 -138l240 138q17 11 33 11q30 0 60 -43q25 -35 25 -60q0 -23 -22 -42l-265 -225q-14 -12 -29.5 -17.5t-41.5 -5.5t-41.5 5.5z" />
    <glyph glyph-name="Dcaron" unicode="&#x10e;" 
d="M895 1118q126 -69 193 -202.5t67 -321.5t-67 -321.5t-193 -203t-301 -69.5h-471q-24 0 -37 8t-19.5 30t-6.5 64t6.5 64t19.5 30.5t37 8.5h97v777h-97q-24 0 -37 8t-19.5 30t-6.5 64t6.5 64t19.5 30.5t37 8.5h471q175 0 301 -69zM470 215h104q155 0 234 96.5t79 282.5
t-79 282t-234 96h-104v-757zM552.5 1302.5q-15.5 5.5 -29.5 17.5l-265 225q-22 19 -22 42q0 25 25 60q30 43 60 43q16 0 33 -11l240 -138l240 138q17 11 33 11q30 0 60 -43q25 -35 25 -60q0 -23 -22 -42l-265 -225q-14 -12 -29.5 -17.5t-41.5 -5.5t-41.5 5.5z" />
    <glyph glyph-name="dcaron" unicode="&#x10f;" 
d="M906.5 1297.5q14.5 -14.5 14.5 -48.5v-1044h87q24 0 37 -8t19.5 -30t6.5 -64t-6.5 -64t-19.5 -30.5t-37 -8.5h-234q-34 0 -48.5 14.5t-14.5 48.5v74q-46 -79 -106.5 -119t-146.5 -40q-115 0 -201.5 62.5t-133 172.5t-46.5 249t46.5 249t133 172.5t201.5 62.5
q68 0 118 -29.5t95 -89.5v280h-147q-24 0 -37 8t-19.5 30t-6.5 64t6.5 64t19.5 30.5t37 8.5h334q34 0 48.5 -14.5zM1386 1284q0 -9 -5 -24l-151 -387q-12 -31 -40.5 -43.5t-78.5 -12.5q-43 0 -63.5 12t-20.5 39q0 13 2 20l85 391q8 33 43 33h201q28 0 28 -28zM386.5 651.5
q-41.5 -67.5 -41.5 -189.5t41.5 -189.5t111.5 -67.5q82 0 131 66t49 191q0 126 -49 191.5t-131 65.5q-70 0 -111.5 -67.5z" />
    <glyph glyph-name="Dcroat" unicode="&#x110;" 
d="M895 1118q126 -69 193 -202.5t67 -321.5t-67 -321.5t-193 -203t-301 -69.5h-471q-24 0 -37 8t-19.5 30t-6.5 64t6.5 64t19.5 30.5t37 8.5h97v302h-75q-24 0 -37 8t-19.5 30t-6.5 64t6.5 64t19.5 30.5t37 8.5h75v270h-97q-24 0 -37 8t-19.5 30t-6.5 64t6.5 64t19.5 30.5
t37 8.5h471q175 0 301 -69zM808 311.5q79 96.5 79 282.5t-79 282t-234 96h-104v-260h217q24 0 37 -8.5t19.5 -30.5t6.5 -64t-6.5 -64t-19.5 -30t-37 -8h-217v-292h104q155 0 234 96.5z" />
    <glyph glyph-name="dcroat" unicode="&#x111;" 
d="M1021 950v-745h87q24 0 37 -8t19.5 -30t6.5 -64t-6.5 -64t-19.5 -30.5t-37 -8.5h-234q-34 0 -48.5 14.5t-14.5 48.5v61q-47 -68 -121.5 -107t-161.5 -39q-125 0 -216.5 57.5t-140 156.5t-48.5 220q0 120 48.5 219t140 157t216.5 58q71 0 134.5 -27.5t108.5 -76.5v208
h-205q-24 0 -37 8t-19.5 30t-6.5 64t6.5 64t19.5 30.5t37 8.5h205v94q0 34 14.5 48.5t48.5 14.5h124q34 0 48.5 -14.5t14.5 -48.5v-94h107q24 0 37 -8.5t19.5 -30.5t6.5 -64t-6.5 -64t-19.5 -30t-37 -8h-107zM674 233.5q48 23.5 76 69.5t28 109q0 64 -28 110t-75.5 69
t-106.5 23q-85 0 -134 -54.5t-49 -147.5t49 -147.5t134 -54.5q58 0 106 23.5z" />
    <glyph glyph-name="Emacron" unicode="&#x112;" 
d="M943 1536.5q13 -8.5 19.5 -30.5t6.5 -64t-6.5 -64t-19.5 -30t-37 -8h-542q-24 0 -37 8t-19.5 30t-6.5 64t6.5 64t19.5 30.5t37 8.5h542q24 0 37 -8.5zM1085 1172q15 -15 15 -50v-302q0 -34 -29 -48.5t-93 -14.5q-62 0 -85 14t-23 49v152h-400v-253h244q35 0 49 -23
t14 -85t-14 -84.5t-49 -22.5h-244v-289h410v202q0 34 29.5 48.5t96.5 14.5q66 0 90 -14t24 -49v-352q0 -34 -15 -49.5t-50 -15.5h-932q-24 0 -37 8t-19.5 30t-6.5 64t6.5 64t19.5 30.5t37 8.5h97v777h-97q-24 0 -37 8t-19.5 30t-6.5 64t6.5 64t19.5 30.5t37 8.5h912
q35 0 50 -15z" />
    <glyph glyph-name="emacron" unicode="&#x113;" 
d="M932 1266.5q13 -8.5 19.5 -30.5t6.5 -64t-6.5 -64t-19.5 -30t-37 -8h-542q-24 0 -37 8t-19.5 30t-6.5 64t6.5 64t19.5 30.5t37 8.5h542q24 0 37 -8.5zM887 880.5q107 -65.5 161.5 -182t54.5 -266.5q0 -34 -14.5 -48t-48.5 -14h-642q19 -80 81.5 -122.5t158.5 -42.5
q155 0 336 55q12 4 24 4q22 0 38 -20t29 -68q10 -37 10 -63t-11.5 -40.5t-37.5 -23.5q-100 -33 -204 -52t-204 -19q-152 0 -262 62t-167.5 171.5t-57.5 250.5q0 140 60 250t173 172t264 62q152 0 259 -65.5zM402 565h440q-17 73 -72.5 113.5t-141.5 40.5q-183 0 -226 -154z
" />
    <glyph glyph-name="Ebreve" unicode="&#x114;" 
d="M1085 1172q15 -15 15 -50v-302q0 -34 -29 -48.5t-93 -14.5q-62 0 -85 14t-23 49v152h-400v-253h244q35 0 49 -23t14 -85t-14 -84.5t-49 -22.5h-244v-289h410v202q0 34 29.5 48.5t96.5 14.5q66 0 90 -14t24 -49v-352q0 -34 -15 -49.5t-50 -15.5h-932q-24 0 -37 8t-19.5 30
t-6.5 64t6.5 64t19.5 30.5t37 8.5h97v777h-97q-24 0 -37 8t-19.5 30t-6.5 64t6.5 64t19.5 30.5t37 8.5h912q35 0 50 -15zM951 1633.5q16 -14.5 16 -35.5q0 -9 -1 -13q-24 -127 -114 -200.5t-238 -73.5t-238 73.5t-114 200.5q-1 4 -1 13q0 21 16 35.5t50 23.5q24 7 43 7
q32 0 43 -27q23 -64 71.5 -93t129.5 -29t129.5 29t71.5 93q11 27 43 27q19 0 43 -7q34 -9 50 -23.5z" />
    <glyph glyph-name="ebreve" unicode="&#x115;" 
d="M887 880.5q107 -65.5 161.5 -182t54.5 -266.5q0 -34 -14.5 -48t-48.5 -14h-642q19 -80 81.5 -122.5t158.5 -42.5q155 0 336 55q12 4 24 4q22 0 38 -20t29 -68q10 -37 10 -63t-11.5 -40.5t-37.5 -23.5q-100 -33 -204 -52t-204 -19q-152 0 -262 62t-167.5 171.5
t-57.5 250.5q0 140 60 250t173 172t264 62q152 0 259 -65.5zM402 565h440q-17 73 -72.5 113.5t-141.5 40.5q-183 0 -226 -154zM961 1363.5q16 -14.5 16 -35.5q0 -9 -1 -13q-24 -127 -114 -200.5t-238 -73.5t-238 73.5t-114 200.5q-1 4 -1 13q0 21 16 35.5t50 23.5q24 7 43 7
q32 0 43 -27q23 -64 71.5 -93t129.5 -29t129.5 29t71.5 93q11 27 43 27q19 0 43 -7q34 -9 50 -23.5z" />
    <glyph glyph-name="Edotaccent" unicode="&#x116;" 
d="M710.5 1618.5q28.5 -14.5 28.5 -48.5v-164q0 -34 -26.5 -48.5t-96.5 -14.5t-98.5 14.5t-28.5 48.5v164q0 35 26 49t96 14q71 0 99.5 -14.5zM1085 1172q15 -15 15 -50v-302q0 -34 -29 -48.5t-93 -14.5q-62 0 -85 14t-23 49v152h-400v-253h244q35 0 49 -23t14 -85
t-14 -84.5t-49 -22.5h-244v-289h410v202q0 34 29.5 48.5t96.5 14.5q66 0 90 -14t24 -49v-352q0 -34 -15 -49.5t-50 -15.5h-932q-24 0 -37 8t-19.5 30t-6.5 64t6.5 64t19.5 30.5t37 8.5h97v777h-97q-24 0 -37 8t-19.5 30t-6.5 64t6.5 64t19.5 30.5t37 8.5h912q35 0 50 -15z
" />
    <glyph glyph-name="edotaccent" unicode="&#x117;" 
d="M720.5 1348.5q28.5 -14.5 28.5 -48.5v-164q0 -34 -26.5 -48.5t-96.5 -14.5t-98.5 14.5t-28.5 48.5v164q0 35 26 49t96 14q71 0 99.5 -14.5zM887 880.5q107 -65.5 161.5 -182t54.5 -266.5q0 -34 -14.5 -48t-48.5 -14h-642q19 -80 81.5 -122.5t158.5 -42.5q155 0 336 55
q12 4 24 4q22 0 38 -20t29 -68q10 -37 10 -63t-11.5 -40.5t-37.5 -23.5q-100 -33 -204 -52t-204 -19q-152 0 -262 62t-167.5 171.5t-57.5 250.5q0 140 60 250t173 172t264 62q152 0 259 -65.5zM402 565h440q-17 73 -72.5 113.5t-141.5 40.5q-183 0 -226 -154z" />
    <glyph glyph-name="Eogonek" unicode="&#x118;" 
d="M1121 -413q-10 -18 -30 -25q-102 -34 -216 -34q-118 0 -182 52t-64 151q0 80 48.5 144.5t137.5 124.5h-692q-24 0 -37 8t-19.5 30t-6.5 64t6.5 64t19.5 30.5t37 8.5h97v777h-97q-24 0 -37 8t-19.5 30t-6.5 64t6.5 64t19.5 30.5t37 8.5h912q35 0 50 -15t15 -50v-302
q0 -34 -29 -48.5t-93 -14.5q-62 0 -85 14t-23 49v152h-400v-253h244q35 0 49 -23t14 -85t-14 -84.5t-49 -22.5h-244v-289h410v202q0 34 29.5 48.5t96.5 14.5q66 0 90 -14t24 -49v-352q0 -34 -15 -49.5t-50 -15.5h-27q-156 -124 -156 -211q0 -67 88 -67q46 0 120 13
q51 8 51 -97q0 -33 -10 -51z" />
    <glyph glyph-name="eogonek" unicode="&#x119;" 
d="M887 880.5q107 -65.5 161.5 -182t54.5 -266.5q0 -34 -14.5 -48t-48.5 -14h-642q19 -80 81.5 -122.5t158.5 -42.5q155 0 336 55q12 4 24 4q22 0 38 -20t29 -68q11 -41 11 -63q0 -24 -10 -38t-31 -23q-15 -6 -33 -20t-54 -47q-142 -127 -142 -216q0 -67 88 -67q40 0 120 13
q22 3 35.5 -19.5t13.5 -64.5q0 -57 -38 -69q-108 -34 -216 -34q-118 0 -182 52t-64 151q0 75 43 136.5t121 117.5q-50 -7 -109 -7q-152 0 -262 62t-167.5 171.5t-57.5 250.5q0 140 60 250t173 172t264 62q152 0 259 -65.5zM402 565h440q-17 73 -72.5 113.5t-141.5 40.5
q-183 0 -226 -154z" />
    <glyph glyph-name="Ecaron" unicode="&#x11a;" 
d="M1085 1172q15 -15 15 -50v-302q0 -34 -29 -48.5t-93 -14.5q-62 0 -85 14t-23 49v152h-400v-253h244q35 0 49 -23t14 -85t-14 -84.5t-49 -22.5h-244v-289h410v202q0 34 29.5 48.5t96.5 14.5q66 0 90 -14t24 -49v-352q0 -34 -15 -49.5t-50 -15.5h-932q-24 0 -37 8t-19.5 30
t-6.5 64t6.5 64t19.5 30.5t37 8.5h97v777h-97q-24 0 -37 8t-19.5 30t-6.5 64t6.5 64t19.5 30.5t37 8.5h912q35 0 50 -15zM572.5 1302.5q-15.5 5.5 -29.5 17.5l-265 225q-22 19 -22 42q0 25 25 60q30 43 60 43q16 0 33 -11l240 -138l240 138q17 11 33 11q30 0 60 -43
q25 -35 25 -60q0 -23 -22 -42l-265 -225q-14 -12 -29.5 -17.5t-41.5 -5.5t-41.5 5.5z" />
    <glyph glyph-name="ecaron" unicode="&#x11b;" 
d="M887 880.5q107 -65.5 161.5 -182t54.5 -266.5q0 -34 -14.5 -48t-48.5 -14h-642q19 -80 81.5 -122.5t158.5 -42.5q155 0 336 55q12 4 24 4q22 0 38 -20t29 -68q10 -37 10 -63t-11.5 -40.5t-37.5 -23.5q-100 -33 -204 -52t-204 -19q-152 0 -262 62t-167.5 171.5
t-57.5 250.5q0 140 60 250t173 172t264 62q152 0 259 -65.5zM402 565h440q-17 73 -72.5 113.5t-141.5 40.5q-183 0 -226 -154zM582.5 1032.5q-15.5 5.5 -29.5 17.5l-265 225q-22 19 -22 42q0 25 25 60q30 43 60 43q16 0 33 -11l240 -138l240 138q17 11 33 11q30 0 60 -43
q25 -35 25 -60q0 -23 -22 -42l-265 -225q-14 -12 -29.5 -17.5t-41.5 -5.5t-41.5 5.5z" />
    <glyph glyph-name="Gcircumflex" unicode="&#x11c;" 
d="M685.5 1674.5q15.5 -5.5 29.5 -17.5l265 -225q22 -19 22 -42q0 -25 -25 -60q-30 -43 -60 -43q-16 0 -33 11l-240 138l-240 -138q-17 -11 -33 -11q-30 0 -60 43q-25 35 -25 60q0 23 22 42l265 225q14 12 29.5 17.5t41.5 5.5t41.5 -5.5zM1061 1195q23 -14 23 -49v-344
q0 -34 -30.5 -48.5t-101.5 -14.5q-47 0 -72.5 6.5t-35.5 19.5t-10 37q0 86 -52 133t-158 47q-139 0 -211 -100t-72 -288q0 -186 76.5 -287.5t216.5 -101.5q111 0 210 30v167h-193q-24 0 -37 8t-19.5 30t-6.5 64t6.5 64t19.5 30.5t37 8.5h474q24 0 37 -8.5t19.5 -30.5
t6.5 -64t-6.5 -64t-19.5 -30t-37 -8h-31v-259q0 -24 -9.5 -42t-26.5 -27q-93 -48 -204 -72t-230 -24q-164 0 -289 75t-193.5 214.5t-68.5 326.5q0 186 67 325.5t185.5 214.5t268.5 75q176 0 260 -118v55q0 34 29 48.5t93 14.5q62 0 85 -14z" />
    <glyph glyph-name="gcircumflex" unicode="&#x11d;" 
d="M701 906q78 -40 130 -115v70q0 34 14.5 48.5t48.5 14.5h234q24 0 37 -8.5t19.5 -30.5t6.5 -64t-6.5 -64t-19.5 -30t-37 -8h-87v-718q0 -196 -117.5 -303.5t-351.5 -107.5q-86 0 -188 16.5t-195 45.5q-48 15 -48 69q0 24 13 70q15 47 33.5 68t43.5 21q13 0 24 -4
q191 -59 307 -59q121 0 175 50.5t54 153.5v102q-51 -55 -118 -85t-145 -30q-129 0 -227 60.5t-151 167t-53 241.5t53 241.5t151 167t227 60.5q95 0 173 -40zM420 655.5q-55 -63.5 -55 -178.5t55 -178.5t148 -63.5q64 0 116.5 27.5t83 82t30.5 132.5t-30.5 132.5t-83 82
t-116.5 27.5q-93 0 -148 -63.5zM655.5 1404.5q15.5 -5.5 29.5 -17.5l265 -225q22 -19 22 -42q0 -25 -25 -60q-30 -43 -60 -43q-16 0 -33 11l-240 138l-240 -138q-17 -11 -33 -11q-30 0 -60 43q-25 35 -25 60q0 23 22 42l265 225q14 12 29.5 17.5t41.5 5.5t41.5 -5.5z" />
    <glyph glyph-name="Gbreve" unicode="&#x11e;" 
d="M1061 1195q23 -14 23 -49v-344q0 -34 -30.5 -48.5t-101.5 -14.5q-47 0 -72.5 6.5t-35.5 19.5t-10 37q0 86 -52 133t-158 47q-139 0 -211 -100t-72 -288q0 -186 76.5 -287.5t216.5 -101.5q111 0 210 30v167h-193q-24 0 -37 8t-19.5 30t-6.5 64t6.5 64t19.5 30.5t37 8.5
h474q24 0 37 -8.5t19.5 -30.5t6.5 -64t-6.5 -64t-19.5 -30t-37 -8h-31v-259q0 -24 -9.5 -42t-26.5 -27q-93 -48 -204 -72t-230 -24q-164 0 -289 75t-193.5 214.5t-68.5 326.5q0 186 67 325.5t185.5 214.5t268.5 75q176 0 260 -118v55q0 34 29 48.5t93 14.5q62 0 85 -14z
M961 1633.5q16 -14.5 16 -35.5q0 -9 -1 -13q-24 -127 -114 -200.5t-238 -73.5t-238 73.5t-114 200.5q-1 4 -1 13q0 21 16 35.5t50 23.5q24 7 43 7q32 0 43 -27q23 -64 71.5 -93t129.5 -29t129.5 29t71.5 93q11 27 43 27q19 0 43 -7q34 -9 50 -23.5z" />
    <glyph glyph-name="gbreve" unicode="&#x11f;" 
d="M701 906q78 -40 130 -115v70q0 34 14.5 48.5t48.5 14.5h234q24 0 37 -8.5t19.5 -30.5t6.5 -64t-6.5 -64t-19.5 -30t-37 -8h-87v-718q0 -196 -117.5 -303.5t-351.5 -107.5q-86 0 -188 16.5t-195 45.5q-48 15 -48 69q0 24 13 70q15 47 33.5 68t43.5 21q13 0 24 -4
q191 -59 307 -59q121 0 175 50.5t54 153.5v102q-51 -55 -118 -85t-145 -30q-129 0 -227 60.5t-151 167t-53 241.5t53 241.5t151 167t227 60.5q95 0 173 -40zM420 655.5q-55 -63.5 -55 -178.5t55 -178.5t148 -63.5q64 0 116.5 27.5t83 82t30.5 132.5t-30.5 132.5t-83 82
t-116.5 27.5q-93 0 -148 -63.5zM951 1363.5q16 -14.5 16 -35.5q0 -9 -1 -13q-24 -127 -114 -200.5t-238 -73.5t-238 73.5t-114 200.5q-1 4 -1 13q0 21 16 35.5t50 23.5q24 7 43 7q32 0 43 -27q23 -64 71.5 -93t129.5 -29t129.5 29t71.5 93q11 27 43 27q19 0 43 -7
q34 -9 50 -23.5z" />
    <glyph glyph-name="Gdotaccent" unicode="&#x120;" 
d="M720.5 1618.5q28.5 -14.5 28.5 -48.5v-164q0 -34 -26.5 -48.5t-96.5 -14.5t-98.5 14.5t-28.5 48.5v164q0 35 26 49t96 14q71 0 99.5 -14.5zM1061 1195q23 -14 23 -49v-344q0 -34 -30.5 -48.5t-101.5 -14.5q-47 0 -72.5 6.5t-35.5 19.5t-10 37q0 86 -52 133t-158 47
q-139 0 -211 -100t-72 -288q0 -186 76.5 -287.5t216.5 -101.5q111 0 210 30v167h-193q-24 0 -37 8t-19.5 30t-6.5 64t6.5 64t19.5 30.5t37 8.5h474q24 0 37 -8.5t19.5 -30.5t6.5 -64t-6.5 -64t-19.5 -30t-37 -8h-31v-259q0 -24 -9.5 -42t-26.5 -27q-93 -48 -204 -72
t-230 -24q-164 0 -289 75t-193.5 214.5t-68.5 326.5q0 186 67 325.5t185.5 214.5t268.5 75q176 0 260 -118v55q0 34 29 48.5t93 14.5q62 0 85 -14z" />
    <glyph glyph-name="gdotaccent" unicode="&#x121;" 
d="M701 906q78 -40 130 -115v70q0 34 14.5 48.5t48.5 14.5h234q24 0 37 -8.5t19.5 -30.5t6.5 -64t-6.5 -64t-19.5 -30t-37 -8h-87v-718q0 -196 -117.5 -303.5t-351.5 -107.5q-86 0 -188 16.5t-195 45.5q-48 15 -48 69q0 24 13 70q15 47 33.5 68t43.5 21q13 0 24 -4
q191 -59 307 -59q121 0 175 50.5t54 153.5v102q-51 -55 -118 -85t-145 -30q-129 0 -227 60.5t-151 167t-53 241.5t53 241.5t151 167t227 60.5q95 0 173 -40zM420 655.5q-55 -63.5 -55 -178.5t55 -178.5t148 -63.5q64 0 116.5 27.5t83 82t30.5 132.5t-30.5 132.5t-83 82
t-116.5 27.5q-93 0 -148 -63.5zM710.5 1348.5q28.5 -14.5 28.5 -48.5v-164q0 -34 -26.5 -48.5t-96.5 -14.5t-98.5 14.5t-28.5 48.5v164q0 35 26 49t96 14q71 0 99.5 -14.5z" />
    <glyph glyph-name="uni0122" unicode="&#x122;" 
d="M1061 1195q23 -14 23 -49v-344q0 -34 -30.5 -48.5t-101.5 -14.5q-47 0 -72.5 6.5t-35.5 19.5t-10 37q0 86 -52 133t-158 47q-139 0 -211 -100t-72 -288q0 -186 76.5 -287.5t216.5 -101.5q111 0 210 30v167h-193q-24 0 -37 8t-19.5 30t-6.5 64t6.5 64t19.5 30.5t37 8.5
h474q24 0 37 -8.5t19.5 -30.5t6.5 -64t-6.5 -64t-19.5 -30t-37 -8h-31v-259q0 -24 -9.5 -42t-26.5 -27q-93 -48 -204 -72t-230 -24q-164 0 -289 75t-193.5 214.5t-68.5 326.5q0 186 67 325.5t185.5 214.5t268.5 75q176 0 260 -118v55q0 34 29 48.5t93 14.5q62 0 85 -14z
M458.5 -531.5q-23.5 12.5 -23.5 38.5q0 9 1 14l59 306q2 13 12 20t24 7h206q24 0 24 -23q0 -11 -4 -20l-124 -306q-10 -25 -33.5 -37t-67.5 -12q-50 0 -73.5 12.5z" />
    <glyph glyph-name="uni0123" unicode="&#x123;" 
d="M770.5 1449.5q23.5 -12.5 23.5 -38.5q0 -9 -1 -14l-59 -306q-2 -13 -12 -20t-24 -7h-206q-24 0 -24 23q0 11 4 20l124 306q10 25 33.5 37t67.5 12q50 0 73.5 -12.5zM701 906q78 -40 130 -115v70q0 34 14.5 48.5t48.5 14.5h234q24 0 37 -8.5t19.5 -30.5t6.5 -64t-6.5 -64
t-19.5 -30t-37 -8h-87v-718q0 -196 -117.5 -303.5t-351.5 -107.5q-86 0 -188 16.5t-195 45.5q-48 15 -48 69q0 24 13 70q15 47 33.5 68t43.5 21q13 0 24 -4q191 -59 307 -59q121 0 175 50.5t54 153.5v102q-51 -55 -118 -85t-145 -30q-129 0 -227 60.5t-151 167t-53 241.5
t53 241.5t151 167t227 60.5q95 0 173 -40zM420 655.5q-55 -63.5 -55 -178.5t55 -178.5t148 -63.5q64 0 116.5 27.5t83 82t30.5 132.5t-30.5 132.5t-83 82t-116.5 27.5q-93 0 -148 -63.5z" />
    <glyph glyph-name="Hcircumflex" unicode="&#x124;" 
d="M1152 1178.5q13 -8.5 19.5 -30.5t6.5 -64t-6.5 -64t-19.5 -30t-37 -8h-57v-777h57q24 0 37 -8.5t19.5 -30.5t6.5 -64t-6.5 -64t-19.5 -30t-37 -8h-374q-24 0 -37 8t-19.5 30t-6.5 64t6.5 64t19.5 30.5t37 8.5h67v299h-388v-299h67q24 0 37 -8.5t19.5 -30.5t6.5 -64
t-6.5 -64t-19.5 -30t-37 -8h-374q-24 0 -37 8t-19.5 30t-6.5 64t6.5 64t19.5 30.5t37 8.5h57v777h-57q-24 0 -37 8t-19.5 30t-6.5 64t6.5 64t19.5 30.5t37 8.5h374q24 0 37 -8.5t19.5 -30.5t6.5 -64t-6.5 -64t-19.5 -30t-37 -8h-67v-263h388v263h-67q-24 0 -37 8t-19.5 30
t-6.5 64t6.5 64t19.5 30.5t37 8.5h374q24 0 37 -8.5zM655.5 1674.5q15.5 -5.5 29.5 -17.5l265 -225q22 -19 22 -42q0 -25 -25 -60q-30 -43 -60 -43q-16 0 -33 11l-240 138l-240 -138q-17 -11 -33 -11q-30 0 -60 43q-25 35 -25 60q0 23 22 42l265 225q14 12 29.5 17.5
t41.5 5.5t41.5 -5.5z" />
    <glyph glyph-name="hcircumflex" unicode="&#x125;" 
d="M645.5 1774.5q15.5 -5.5 29.5 -17.5l265 -225q22 -19 22 -42q0 -25 -25 -60q-30 -43 -60 -43q-16 0 -33 11l-240 138l-240 -138q-17 -11 -33 -11q-30 0 -60 43q-25 35 -25 60q0 23 22 42l265 225q14 12 29.5 17.5t41.5 5.5t41.5 -5.5zM432.5 1297.5
q14.5 -14.5 14.5 -48.5v-486q120 183 290 183q91 0 159.5 -40t105.5 -113.5t37 -172.5v-415h77q24 0 37 -8.5t19.5 -30.5t6.5 -64t-6.5 -64t-19.5 -30t-37 -8h-374q-24 0 -37 8t-19.5 30t-6.5 64t6.5 64t19.5 30.5t37 8.5h47v356q0 78 -27 118t-90 40q-58 0 -110 -48.5
t-83.5 -129.5t-31.5 -173v-163h47q24 0 37 -8.5t19.5 -30.5t6.5 -64t-6.5 -64t-19.5 -30t-37 -8h-374q-24 0 -37 8t-19.5 30t-6.5 64t6.5 64t19.5 30.5t37 8.5h77v902h-97q-24 0 -37 8t-19.5 30t-6.5 64t6.5 64t19.5 30.5t37 8.5h284q34 0 48.5 -14.5z" />
    <glyph glyph-name="Hbar" unicode="&#x126;" 
d="M1152 1178.5q13 -8.5 19.5 -30.5t6.5 -64t-6.5 -64t-19.5 -30t-37 -8h-57v-78h77q34 0 48.5 -15.5t14.5 -52.5t-14.5 -52.5t-48.5 -15.5h-77v-563h57q24 0 37 -8.5t19.5 -30.5t6.5 -64t-6.5 -64t-19.5 -30t-37 -8h-374q-24 0 -37 8t-19.5 30t-6.5 64t6.5 64t19.5 30.5
t37 8.5h67v259h-388v-259h67q24 0 37 -8.5t19.5 -30.5t6.5 -64t-6.5 -64t-19.5 -30t-37 -8h-374q-24 0 -37 8t-19.5 30t-6.5 64t6.5 64t19.5 30.5t37 8.5h57v563h-77q-34 0 -48.5 15.5t-14.5 52.5t14.5 52.5t48.5 15.5h77v78h-57q-24 0 -37 8t-19.5 30t-6.5 64t6.5 64
t19.5 30.5t37 8.5h374q24 0 37 -8.5t19.5 -30.5t6.5 -64t-6.5 -64t-19.5 -30t-37 -8h-67v-78h388v78h-67q-24 0 -37 8t-19.5 30t-6.5 64t6.5 64t19.5 30.5t37 8.5h374q24 0 37 -8.5zM420 768v-89h388v89h-388z" />
    <glyph glyph-name="hbar" unicode="&#x127;" 
d="M1163 196.5q13 -8.5 19.5 -30.5t6.5 -64t-6.5 -64t-19.5 -30t-37 -8h-374q-24 0 -37 8t-19.5 30t-6.5 64t6.5 64t19.5 30.5t37 8.5h47v276q0 68 -27 103t-90 35q-59 0 -110.5 -42.5t-83 -114.5t-31.5 -154v-103h47q24 0 37 -8.5t19.5 -30.5t6.5 -64t-6.5 -64t-19.5 -30
t-37 -8h-374q-24 0 -37 8t-19.5 30t-6.5 64t6.5 64t19.5 30.5t37 8.5h77v745h-114q-24 0 -37 8t-19.5 30t-6.5 64t6.5 64t19.5 30.5t37 8.5h114v94q0 34 14.5 48.5t48.5 14.5h124q34 0 48.5 -14.5t14.5 -48.5v-94h198q24 0 37 -8.5t19.5 -30.5t6.5 -64t-6.5 -64t-19.5 -30
t-37 -8h-198v-267q59 82 132.5 122.5t157.5 40.5q91 0 159.5 -40t105.5 -113.5t37 -172.5v-315h77q24 0 37 -8.5z" />
    <glyph glyph-name="Itilde" unicode="&#x128;" 
d="M558 1629q33 -12 77 -34q36 -18 58.5 -26.5t46.5 -8.5q61 0 129 72q14 14 30 14q29 0 66 -40q36 -40 36 -76q0 -20 -10 -34q-51 -76 -115 -118.5t-133 -42.5q-40 0 -73 12t-77 34q-36 18 -58.5 26.5t-46.5 8.5q-61 0 -129 -72q-14 -14 -30 -14q-29 0 -66 40
q-36 40 -36 76q0 20 10 34q51 76 115 118.5t133 42.5q40 0 73 -12zM1012 1178.5q13 -8.5 19.5 -30.5t6.5 -64t-6.5 -64t-19.5 -30t-37 -8h-236v-777h256q24 0 37 -8.5t19.5 -30.5t6.5 -64t-6.5 -64t-19.5 -30t-37 -8h-762q-24 0 -37 8t-19.5 30t-6.5 64t6.5 64t19.5 30.5
t37 8.5h256v777h-236q-24 0 -37 8t-19.5 30t-6.5 64t6.5 64t19.5 30.5t37 8.5h722q24 0 37 -8.5z" />
    <glyph glyph-name="itilde" unicode="&#x129;" 
d="M738.5 909.5q14.5 -14.5 14.5 -48.5v-656h281q24 0 37 -8.5t19.5 -30.5t6.5 -64t-6.5 -64t-19.5 -30t-37 -8h-804q-24 0 -37 8t-19.5 30t-6.5 64t6.5 64t19.5 30.5t37 8.5h273v514h-213q-24 0 -37 8t-19.5 30t-6.5 64t6.5 64t19.5 30.5t37 8.5h400q34 0 48.5 -14.5z
M528 1359q33 -12 77 -34q36 -18 58.5 -26.5t46.5 -8.5q61 0 129 72q14 14 30 14q29 0 66 -40q36 -40 36 -76q0 -20 -10 -34q-51 -76 -115 -118.5t-133 -42.5q-40 0 -73 12t-77 34q-36 18 -58.5 26.5t-46.5 8.5q-61 0 -129 -72q-14 -14 -30 -14q-29 0 -66 40q-36 40 -36 76
q0 20 10 34q51 76 115 118.5t133 42.5q40 0 73 -12z" />
    <glyph glyph-name="Imacron" unicode="&#x12a;" 
d="M1012 1178.5q13 -8.5 19.5 -30.5t6.5 -64t-6.5 -64t-19.5 -30t-37 -8h-236v-777h256q24 0 37 -8.5t19.5 -30.5t6.5 -64t-6.5 -64t-19.5 -30t-37 -8h-762q-24 0 -37 8t-19.5 30t-6.5 64t6.5 64t19.5 30.5t37 8.5h256v777h-236q-24 0 -37 8t-19.5 30t-6.5 64t6.5 64
t19.5 30.5t37 8.5h722q24 0 37 -8.5zM922 1536.5q13 -8.5 19.5 -30.5t6.5 -64t-6.5 -64t-19.5 -30t-37 -8h-542q-24 0 -37 8t-19.5 30t-6.5 64t6.5 64t19.5 30.5t37 8.5h542q24 0 37 -8.5z" />
    <glyph glyph-name="imacron" unicode="&#x12b;" 
d="M738.5 909.5q14.5 -14.5 14.5 -48.5v-656h281q24 0 37 -8.5t19.5 -30.5t6.5 -64t-6.5 -64t-19.5 -30t-37 -8h-804q-24 0 -37 8t-19.5 30t-6.5 64t6.5 64t19.5 30.5t37 8.5h273v514h-213q-24 0 -37 8t-19.5 30t-6.5 64t6.5 64t19.5 30.5t37 8.5h400q34 0 48.5 -14.5z
M902 1266.5q13 -8.5 19.5 -30.5t6.5 -64t-6.5 -64t-19.5 -30t-37 -8h-542q-24 0 -37 8t-19.5 30t-6.5 64t6.5 64t19.5 30.5t37 8.5h542q24 0 37 -8.5z" />
    <glyph glyph-name="Ibreve" unicode="&#x12c;" 
d="M1012 1178.5q13 -8.5 19.5 -30.5t6.5 -64t-6.5 -64t-19.5 -30t-37 -8h-236v-777h256q24 0 37 -8.5t19.5 -30.5t6.5 -64t-6.5 -64t-19.5 -30t-37 -8h-762q-24 0 -37 8t-19.5 30t-6.5 64t6.5 64t19.5 30.5t37 8.5h256v777h-236q-24 0 -37 8t-19.5 30t-6.5 64t6.5 64
t19.5 30.5t37 8.5h722q24 0 37 -8.5zM951 1633.5q16 -14.5 16 -35.5q0 -9 -1 -13q-24 -127 -114 -200.5t-238 -73.5t-238 73.5t-114 200.5q-1 4 -1 13q0 21 16 35.5t50 23.5q24 7 43 7q32 0 43 -27q23 -64 71.5 -93t129.5 -29t129.5 29t71.5 93q11 27 43 27q19 0 43 -7
q34 -9 50 -23.5z" />
    <glyph glyph-name="ibreve" unicode="&#x12d;" 
d="M738.5 909.5q14.5 -14.5 14.5 -48.5v-656h281q24 0 37 -8.5t19.5 -30.5t6.5 -64t-6.5 -64t-19.5 -30t-37 -8h-804q-24 0 -37 8t-19.5 30t-6.5 64t6.5 64t19.5 30.5t37 8.5h273v514h-213q-24 0 -37 8t-19.5 30t-6.5 64t6.5 64t19.5 30.5t37 8.5h400q34 0 48.5 -14.5z
M941 1363.5q16 -14.5 16 -35.5q0 -9 -1 -13q-24 -127 -114 -200.5t-238 -73.5t-238 73.5t-114 200.5q-1 4 -1 13q0 21 16 35.5t50 23.5q24 7 43 7q32 0 43 -27q23 -64 71.5 -93t129.5 -29t129.5 29t71.5 93q11 27 43 27q19 0 43 -7q34 -9 50 -23.5z" />
    <glyph glyph-name="Iogonek" unicode="&#x12e;" 
d="M1032 196.5q13 -8.5 19.5 -30.5t6.5 -64t-6.5 -64t-19.5 -30t-37 -8h-277q-156 -124 -156 -211q0 -67 88 -67q46 0 120 13q51 8 51 -97q0 -33 -10 -51t-30 -25q-102 -34 -216 -34q-118 0 -182 52t-64 151q0 80 48.5 144.5t137.5 124.5h-272q-24 0 -37 8t-19.5 30t-6.5 64
t6.5 64t19.5 30.5t37 8.5h256v777h-236q-24 0 -37 8t-19.5 30t-6.5 64t6.5 64t19.5 30.5t37 8.5h722q24 0 37 -8.5t19.5 -30.5t6.5 -64t-6.5 -64t-19.5 -30t-37 -8h-236v-777h256q24 0 37 -8.5z" />
    <glyph glyph-name="iogonek" unicode="&#x12f;" 
d="M531.5 1087.5q-28.5 14.5 -28.5 48.5v164q0 35 26 49t96 14q71 0 99.5 -14.5t28.5 -48.5v-164q0 -34 -26.5 -48.5t-96.5 -14.5t-98.5 14.5zM1071 196.5q13 -8.5 19.5 -30.5t6.5 -64t-6.5 -64t-19.5 -30t-37 -8h-296q-156 -124 -156 -211q0 -67 88 -67q46 0 120 13
q51 8 51 -97q0 -33 -10 -51t-30 -25q-102 -34 -216 -34q-118 0 -182 52t-64 151q0 80 48.5 144.5t137.5 124.5h-295q-24 0 -37 8t-19.5 30t-6.5 64t6.5 64t19.5 30.5t37 8.5h273v514h-213q-24 0 -37 8t-19.5 30t-6.5 64t6.5 64t19.5 30.5t37 8.5h400q34 0 48.5 -14.5
t14.5 -48.5v-656h281q24 0 37 -8.5z" />
    <glyph glyph-name="Idotaccent" unicode="&#x130;" 
d="M1012 1178.5q13 -8.5 19.5 -30.5t6.5 -64t-6.5 -64t-19.5 -30t-37 -8h-236v-777h256q24 0 37 -8.5t19.5 -30.5t6.5 -64t-6.5 -64t-19.5 -30t-37 -8h-762q-24 0 -37 8t-19.5 30t-6.5 64t6.5 64t19.5 30.5t37 8.5h256v777h-236q-24 0 -37 8t-19.5 30t-6.5 64t6.5 64
t19.5 30.5t37 8.5h722q24 0 37 -8.5zM710.5 1618.5q28.5 -14.5 28.5 -48.5v-164q0 -34 -26.5 -48.5t-96.5 -14.5t-98.5 14.5t-28.5 48.5v164q0 35 26 49t96 14q71 0 99.5 -14.5z" />
    <glyph glyph-name="dotlessi" unicode="&#x131;" 
d="M738.5 909.5q14.5 -14.5 14.5 -48.5v-656h281q24 0 37 -8.5t19.5 -30.5t6.5 -64t-6.5 -64t-19.5 -30t-37 -8h-804q-24 0 -37 8t-19.5 30t-6.5 64t6.5 64t19.5 30.5t37 8.5h273v514h-213q-24 0 -37 8t-19.5 30t-6.5 64t6.5 64t19.5 30.5t37 8.5h400q34 0 48.5 -14.5z" />
    <glyph glyph-name="IJ" unicode="&#x132;" 
d="M422 1178.5q13 -8.5 19.5 -30.5t6.5 -64t-6.5 -64t-19.5 -30t-37 -8h-46v-777h56q24 0 37 -8.5t19.5 -30.5t6.5 -64t-6.5 -64t-19.5 -30t-37 -8h-362q-24 0 -37 8t-19.5 30t-6.5 64t6.5 64t19.5 30.5t37 8.5h56v777h-46q-24 0 -37 8t-19.5 30t-6.5 64t6.5 64t19.5 30.5
t37 8.5h342q24 0 37 -8.5zM1222 1178.5q13 -8.5 19.5 -30.5t6.5 -64t-6.5 -64t-19.5 -30t-37 -8h-46v-689q0 -158 -79.5 -236.5t-241.5 -78.5q-76 0 -157 22t-143 59q-19 12 -19 49v327q0 34 29.5 48.5t96.5 14.5q66 0 90 -14t24 -49v-213q37 -17 76 -17q40 0 57 26t17 82
v669h-156q-24 0 -37 8t-19.5 30t-6.5 64t6.5 64t19.5 30.5t37 8.5h452q24 0 37 -8.5z" />
    <glyph glyph-name="ij" unicode="&#x133;" 
d="M454.5 1348.5q28.5 -14.5 28.5 -48.5v-164q0 -34 -26.5 -48.5t-96.5 -14.5t-98.5 14.5t-28.5 48.5v164q0 35 26 49t96 14q71 0 99.5 -14.5zM1094.5 1348.5q28.5 -14.5 28.5 -48.5v-164q0 -34 -26.5 -48.5t-96.5 -14.5t-98.5 14.5t-28.5 48.5v164q0 35 26 49t96 14
q71 0 99.5 -14.5zM468.5 909.5q14.5 -14.5 14.5 -48.5v-656h141q24 0 37 -8.5t19.5 -30.5t6.5 -64t-6.5 -64t-19.5 -30t-37 -8h-524q-24 0 -37 8t-19.5 30t-6.5 64t6.5 64t19.5 30.5t37 8.5h133v514h-123q-24 0 -37 8t-19.5 30t-6.5 64t6.5 64t19.5 30.5t37 8.5h310
q34 0 48.5 -14.5zM1108.5 909.5q14.5 -14.5 14.5 -48.5v-891q0 -186 -91.5 -283t-265.5 -97q-135 0 -267 46q-27 10 -40 27t-13 44q0 21 10 58q14 47 32 69t44 22q11 0 28 -5q105 -34 184 -34q129 0 129 166v736h-183q-24 0 -37 8t-19.5 30t-6.5 64t6.5 64t19.5 30.5t37 8.5
h370q34 0 48.5 -14.5z" />
    <glyph glyph-name="Jcircumflex" unicode="&#x134;" 
d="M815.5 1674.5q15.5 -5.5 29.5 -17.5l265 -225q22 -19 22 -42q0 -25 -25 -60q-30 -43 -60 -43q-16 0 -33 11l-240 138l-240 -138q-17 -11 -33 -11q-30 0 -60 43q-25 35 -25 60q0 23 22 42l265 225q14 12 29.5 17.5t41.5 5.5t41.5 -5.5zM1152 1178.5q13 -8.5 19.5 -30.5
t6.5 -64t-6.5 -64t-19.5 -30t-37 -8h-186v-619q0 -192 -108 -288.5t-317 -96.5q-234 0 -389 147q-16 16 -16 50v324q0 34 30.5 48.5t101.5 14.5q47 0 72.5 -6.5t35.5 -19.5t10 -37v-260q69 -34 166 -34q82 0 123 43.5t41 134.5v599h-306q-24 0 -37 8t-19.5 30t-6.5 64
t6.5 64t19.5 30.5t37 8.5h742q24 0 37 -8.5z" />
    <glyph glyph-name="jcircumflex" unicode="&#x135;" 
d="M765.5 1404.5q15.5 -5.5 29.5 -17.5l265 -225q22 -19 22 -42q0 -25 -25 -60q-30 -43 -60 -43q-16 0 -33 11l-240 138l-240 -138q-17 -11 -33 -11q-30 0 -60 43q-25 35 -25 60q0 23 22 42l265 225q14 12 29.5 17.5t41.5 5.5t41.5 -5.5zM908.5 909.5q14.5 -14.5 14.5 -48.5
v-891q0 -186 -91.5 -283t-265.5 -97q-86 0 -178.5 24.5t-183.5 70.5q-45 22 -45 67q0 28 18 70t37 61.5t44 19.5q14 0 35 -8q82 -37 143.5 -57.5t107.5 -20.5q129 0 129 166v736h-383q-24 0 -37 8t-19.5 30t-6.5 64t6.5 64t19.5 30.5t37 8.5h570q34 0 48.5 -14.5z" />
    <glyph glyph-name="uni0136" unicode="&#x136;" 
d="M1167 1178.5q13 -8.5 19.5 -30.5t6.5 -64t-6.5 -64t-19.5 -30t-37 -8h-43l-350 -341q56 -3 102 -30.5t80 -75.5q23 -33 42 -68.5t43 -86.5q36 -74 50 -98q22 -37 46 -57t55 -20h10q24 0 37 -8.5t19.5 -30.5t6.5 -64t-6.5 -64t-19.5 -30t-37 -8h-139q-61 0 -103.5 37.5
t-78.5 104.5q-23 43 -48 100q-18 38 -37 76t-35 63q-26 39 -58 61.5t-66 22.5q-44 0 -79 -34l-51 -50v-176h115q24 0 37 -8.5t19.5 -30.5t6.5 -64t-6.5 -64t-19.5 -30t-37 -8h-472q-24 0 -37 8t-19.5 30t-6.5 64t6.5 64t19.5 30.5t37 8.5h107v777h-107q-24 0 -37 8t-19.5 30
t-6.5 64t6.5 64t19.5 30.5t37 8.5h404q24 0 37 -8.5t19.5 -30.5t6.5 -64t-6.5 -64t-19.5 -30t-37 -8h-47v-320l324 320h-53q-24 0 -37 8t-19.5 30t-6.5 64t6.5 64t19.5 30.5t37 8.5h389q24 0 37 -8.5zM478.5 -531.5q-23.5 12.5 -23.5 38.5q0 9 1 14l59 306q2 13 12 20t24 7
h206q24 0 24 -23q0 -11 -4 -20l-124 -306q-10 -25 -33.5 -37t-67.5 -12q-50 0 -73.5 12.5z" />
    <glyph glyph-name="uni0137" unicode="&#x137;" 
d="M1155 184q14 -21 14 -82q0 -42 -6.5 -64t-19.5 -30t-37 -8h-171q-50 0 -78 40l-252 350l-138 -105v-80h87q24 0 37 -8.5t19.5 -30.5t6.5 -64t-6.5 -64t-19.5 -30t-37 -8h-414q-24 0 -37 8t-19.5 30t-6.5 64t6.5 64t19.5 30.5t37 8.5h77v902h-97q-24 0 -37 8t-19.5 30
t-6.5 64t6.5 64t19.5 30.5t37 8.5h284q34 0 48.5 -14.5t14.5 -48.5v-722l260 212h-50q-35 0 -49 19t-14 73q0 55 14 74t49 19h414q35 0 49 -19t14 -74q0 -54 -14 -73t-49 -19h-40l-249 -201l243 -333h61q35 0 49 -21zM458.5 -531.5q-23.5 12.5 -23.5 38.5q0 9 1 14l59 306
q2 13 12 20t24 7h206q24 0 24 -23q0 -11 -4 -20l-124 -306q-10 -25 -33.5 -37t-67.5 -12q-50 0 -73.5 12.5z" />
    <glyph glyph-name="Lacute" unicode="&#x139;" 
d="M607 1714q46 0 103 -75q40 -54 40 -93q0 -32 -24 -44l-407 -205q-10 -6 -23 -6q-36 0 -68 51q-22 35 -22 63t21 43l347 255q16 11 33 11zM774 1178.5q13 -8.5 19.5 -30.5t6.5 -64t-6.5 -64t-19.5 -30t-37 -8h-218v-767h351v312q0 34 30.5 48.5t101.5 14.5q47 0 72.5 -6.5
t35.5 -19.5t10 -37v-462q0 -34 -15 -49.5t-50 -15.5h-932q-24 0 -37 8t-19.5 30t-6.5 64t6.5 64t19.5 30.5t37 8.5h146v777h-146q-24 0 -37 8t-19.5 30t-6.5 64t6.5 64t19.5 30.5t37 8.5h614q24 0 37 -8.5z" />
    <glyph glyph-name="lacute" unicode="&#x13a;" 
d="M777 1814q46 0 103 -75q40 -54 40 -93q0 -32 -24 -44l-407 -205q-10 -6 -23 -6q-36 0 -68 51q-22 35 -22 63t21 43l347 255q16 11 33 11zM728.5 1297.5q14.5 -14.5 14.5 -48.5v-1044h281q24 0 37 -8.5t19.5 -30.5t6.5 -64t-6.5 -64t-19.5 -30t-37 -8h-804q-24 0 -37 8
t-19.5 30t-6.5 64t6.5 64t19.5 30.5t37 8.5h273v902h-233q-24 0 -37 8t-19.5 30t-6.5 64t6.5 64t19.5 30.5t37 8.5h420q34 0 48.5 -14.5z" />
    <glyph glyph-name="uni013B" unicode="&#x13b;" 
d="M774 1178.5q13 -8.5 19.5 -30.5t6.5 -64t-6.5 -64t-19.5 -30t-37 -8h-218v-767h351v312q0 34 30.5 48.5t101.5 14.5q47 0 72.5 -6.5t35.5 -19.5t10 -37v-462q0 -34 -15 -49.5t-50 -15.5h-932q-24 0 -37 8t-19.5 30t-6.5 64t6.5 64t19.5 30.5t37 8.5h146v777h-146
q-24 0 -37 8t-19.5 30t-6.5 64t6.5 64t19.5 30.5t37 8.5h614q24 0 37 -8.5zM458.5 -531.5q-23.5 12.5 -23.5 38.5q0 9 1 14l59 306q2 13 12 20t24 7h206q24 0 24 -23q0 -11 -4 -20l-124 -306q-10 -25 -33.5 -37t-67.5 -12q-50 0 -73.5 12.5z" />
    <glyph glyph-name="uni013C" unicode="&#x13c;" 
d="M728.5 1297.5q14.5 -14.5 14.5 -48.5v-1044h281q24 0 37 -8.5t19.5 -30.5t6.5 -64t-6.5 -64t-19.5 -30t-37 -8h-804q-24 0 -37 8t-19.5 30t-6.5 64t6.5 64t19.5 30.5t37 8.5h273v902h-233q-24 0 -37 8t-19.5 30t-6.5 64t6.5 64t19.5 30.5t37 8.5h420q34 0 48.5 -14.5z
M448.5 -531.5q-23.5 12.5 -23.5 38.5q0 9 1 14l59 306q2 13 12 20t24 7h206q24 0 24 -23q0 -11 -4 -20l-124 -306q-10 -25 -33.5 -37t-67.5 -12q-50 0 -73.5 12.5z" />
    <glyph glyph-name="Lcaron" unicode="&#x13d;" 
d="M774 1178.5q13 -8.5 19.5 -30.5t6.5 -64t-6.5 -64t-19.5 -30t-37 -8h-218v-767h351v312q0 34 30.5 48.5t101.5 14.5q47 0 72.5 -6.5t35.5 -19.5t10 -37v-462q0 -34 -15 -49.5t-50 -15.5h-932q-24 0 -37 8t-19.5 30t-6.5 64t6.5 64t19.5 30.5t37 8.5h146v777h-146
q-24 0 -37 8t-19.5 30t-6.5 64t6.5 64t19.5 30.5t37 8.5h614q24 0 37 -8.5zM1216 1159q0 -9 -5 -24l-151 -387q-12 -31 -40.5 -43.5t-78.5 -12.5q-43 0 -63.5 12t-20.5 39q0 13 2 20l85 391q8 33 43 33h201q28 0 28 -28z" />
    <glyph glyph-name="lcaron" unicode="&#x13e;" 
d="M688.5 1297.5q14.5 -14.5 14.5 -48.5v-1044h281q24 0 37 -8.5t19.5 -30.5t6.5 -64t-6.5 -64t-19.5 -30t-37 -8h-804q-24 0 -37 8t-19.5 30t-6.5 64t6.5 64t19.5 30.5t37 8.5h273v902h-233q-24 0 -37 8t-19.5 30t-6.5 64t6.5 64t19.5 30.5t37 8.5h420q34 0 48.5 -14.5z
M1216 1284q0 -9 -5 -24l-151 -387q-12 -31 -40.5 -43.5t-78.5 -12.5q-43 0 -63.5 12t-20.5 39q0 13 2 20l85 391q8 33 43 33h201q28 0 28 -28z" />
    <glyph glyph-name="Ldot" unicode="&#x13f;" 
d="M774 1178.5q13 -8.5 19.5 -30.5t6.5 -64t-6.5 -64t-19.5 -30t-37 -8h-218v-767h351v182q0 34 30.5 48.5t101.5 14.5q47 0 72.5 -6.5t35.5 -19.5t10 -37v-332q0 -34 -15 -49.5t-50 -15.5h-932q-24 0 -37 8t-19.5 30t-6.5 64t6.5 64t19.5 30.5t37 8.5h146v777h-146
q-24 0 -37 8t-19.5 30t-6.5 64t6.5 64t19.5 30.5t37 8.5h614q24 0 37 -8.5zM904 871.5q41 -24.5 65.5 -65.5t24.5 -90t-24.5 -90t-65.5 -65.5t-90 -24.5t-90 24.5t-65.5 65.5t-24.5 90t24.5 90t65.5 65.5t90 24.5t90 -24.5z" />
    <glyph glyph-name="ldot" unicode="&#x140;" 
d="M688.5 1297.5q14.5 -14.5 14.5 -48.5v-1044h281q24 0 37 -8.5t19.5 -30.5t6.5 -64t-6.5 -64t-19.5 -30t-37 -8h-804q-24 0 -37 8t-19.5 30t-6.5 64t6.5 64t19.5 30.5t37 8.5h273v902h-233q-24 0 -37 8t-19.5 30t-6.5 64t6.5 64t19.5 30.5t37 8.5h420q34 0 48.5 -14.5z
M1120.5 848.5q28.5 -14.5 28.5 -48.5v-164q0 -34 -26.5 -48.5t-96.5 -14.5t-98.5 14.5t-28.5 48.5v164q0 35 26 49t96 14q71 0 99.5 -14.5z" />
    <glyph glyph-name="Lslash" unicode="&#x141;" 
d="M774 1178.5q13 -8.5 19.5 -30.5t6.5 -64t-6.5 -64t-19.5 -30t-37 -8h-218v-208l171 102q20 12 35 12q16 0 32.5 -15.5t39.5 -52.5q29 -49 29 -76q0 -25 -31 -44l-276 -164v-321h351v312q0 34 30.5 48.5t101.5 14.5q47 0 72.5 -6.5t35.5 -19.5t10 -37v-462
q0 -34 -15 -49.5t-50 -15.5h-932q-24 0 -37 8t-19.5 30t-6.5 64t6.5 64t19.5 30.5t37 8.5h146v183l-130 -77q-19 -12 -34 -12q-17 0 -34 15.5t-38 51.5q-30 53 -30 77q0 25 32 44l234 139v356h-146q-24 0 -37 8t-19.5 30t-6.5 64t6.5 64t19.5 30.5t37 8.5h614q24 0 37 -8.5z
" />
    <glyph glyph-name="lslash" unicode="&#x142;" 
d="M728.5 1297.5q14.5 -14.5 14.5 -48.5v-370l147 88q20 12 35 12q16 0 32.5 -15.5t39.5 -52.5q29 -49 29 -76q0 -25 -31 -44l-252 -150v-436h281q24 0 37 -8.5t19.5 -30.5t6.5 -64t-6.5 -64t-19.5 -30t-37 -8h-804q-24 0 -37 8t-19.5 30t-6.5 64t6.5 64t19.5 30.5t37 8.5
h273v288l-154 -91q-19 -12 -34 -12q-17 0 -34 15.5t-38 51.5q-30 53 -30 77q0 25 32 44l258 153v376h-233q-24 0 -37 8t-19.5 30t-6.5 64t6.5 64t19.5 30.5t37 8.5h420q34 0 48.5 -14.5z" />
    <glyph glyph-name="Nacute" unicode="&#x143;" 
d="M807 1714q46 0 103 -75q40 -54 40 -93q0 -32 -24 -44l-407 -205q-10 -6 -23 -6q-36 0 -68 51q-22 35 -22 63t21 43l347 255q16 11 33 11zM1172 1178.5q13 -8.5 19.5 -30.5t6.5 -64t-6.5 -64t-19.5 -30t-37 -8h-57v-938q0 -33 -25 -49.5t-85 -16.5q-46 0 -68.5 12.5
t-39.5 40.5l-450 745h-4v-571h111q24 0 37 -8.5t19.5 -30.5t6.5 -64t-6.5 -64t-19.5 -30t-37 -8h-404q-24 0 -37 8t-19.5 30t-6.5 64t6.5 64t19.5 30.5t37 8.5h67v777h-67q-24 0 -37 8t-19.5 30t-6.5 64t6.5 64t19.5 30.5t37 8.5h264q40 0 56 -27l415 -687h4v509h-92
q-24 0 -37 8t-19.5 30t-6.5 64t6.5 64t19.5 30.5t37 8.5h375q24 0 37 -8.5z" />
    <glyph glyph-name="nacute" unicode="&#x144;" 
d="M916.5 906q68.5 -40 105.5 -113.5t37 -172.5v-415h77q24 0 37 -8.5t19.5 -30.5t6.5 -64t-6.5 -64t-19.5 -30t-37 -8h-374q-24 0 -37 8t-19.5 30t-6.5 64t6.5 64t19.5 30.5t37 8.5h47v356q0 78 -27 118t-90 40q-58 0 -110 -48.5t-83.5 -129.5t-31.5 -173v-163h47
q24 0 37 -8.5t19.5 -30.5t6.5 -64t-6.5 -64t-19.5 -30t-37 -8h-374q-24 0 -37 8t-19.5 30t-6.5 64t6.5 64t19.5 30.5t37 8.5h77v514h-97q-24 0 -37 8t-19.5 30t-6.5 64t6.5 64t19.5 30.5t37 8.5h244q34 0 48.5 -14.5t14.5 -48.5v-145q132 230 330 230q91 0 159.5 -40z
M807 1444q46 0 103 -75q40 -54 40 -93q0 -32 -24 -44l-407 -205q-10 -6 -23 -6q-36 0 -68 51q-22 35 -22 63t21 43l347 255q16 11 33 11z" />
    <glyph glyph-name="uni0145" unicode="&#x145;" 
d="M1172 1178.5q13 -8.5 19.5 -30.5t6.5 -64t-6.5 -64t-19.5 -30t-37 -8h-57v-938q0 -33 -25 -49.5t-85 -16.5q-46 0 -68.5 12.5t-39.5 40.5l-450 745h-4v-571h111q24 0 37 -8.5t19.5 -30.5t6.5 -64t-6.5 -64t-19.5 -30t-37 -8h-404q-24 0 -37 8t-19.5 30t-6.5 64t6.5 64
t19.5 30.5t37 8.5h67v777h-67q-24 0 -37 8t-19.5 30t-6.5 64t6.5 64t19.5 30.5t37 8.5h264q40 0 56 -27l415 -687h4v509h-92q-24 0 -37 8t-19.5 30t-6.5 64t6.5 64t19.5 30.5t37 8.5h375q24 0 37 -8.5zM458.5 -531.5q-23.5 12.5 -23.5 38.5q0 9 1 14l59 306q2 13 12 20t24 7
h206q24 0 24 -23q0 -11 -4 -20l-124 -306q-10 -25 -33.5 -37t-67.5 -12q-50 0 -73.5 12.5z" />
    <glyph glyph-name="uni0146" unicode="&#x146;" 
d="M916.5 906q68.5 -40 105.5 -113.5t37 -172.5v-415h77q24 0 37 -8.5t19.5 -30.5t6.5 -64t-6.5 -64t-19.5 -30t-37 -8h-374q-24 0 -37 8t-19.5 30t-6.5 64t6.5 64t19.5 30.5t37 8.5h47v356q0 78 -27 118t-90 40q-58 0 -110 -48.5t-83.5 -129.5t-31.5 -173v-163h47
q24 0 37 -8.5t19.5 -30.5t6.5 -64t-6.5 -64t-19.5 -30t-37 -8h-374q-24 0 -37 8t-19.5 30t-6.5 64t6.5 64t19.5 30.5t37 8.5h77v514h-97q-24 0 -37 8t-19.5 30t-6.5 64t6.5 64t19.5 30.5t37 8.5h244q34 0 48.5 -14.5t14.5 -48.5v-145q132 230 330 230q91 0 159.5 -40z
M458.5 -531.5q-23.5 12.5 -23.5 38.5q0 9 1 14l59 306q2 13 12 20t24 7h206q24 0 24 -23q0 -11 -4 -20l-124 -306q-10 -25 -33.5 -37t-67.5 -12q-50 0 -73.5 12.5z" />
    <glyph glyph-name="Ncaron" unicode="&#x147;" 
d="M1172 1178.5q13 -8.5 19.5 -30.5t6.5 -64t-6.5 -64t-19.5 -30t-37 -8h-57v-938q0 -33 -25 -49.5t-85 -16.5q-46 0 -68.5 12.5t-39.5 40.5l-450 745h-4v-571h111q24 0 37 -8.5t19.5 -30.5t6.5 -64t-6.5 -64t-19.5 -30t-37 -8h-404q-24 0 -37 8t-19.5 30t-6.5 64t6.5 64
t19.5 30.5t37 8.5h67v777h-67q-24 0 -37 8t-19.5 30t-6.5 64t6.5 64t19.5 30.5t37 8.5h264q40 0 56 -27l415 -687h4v509h-92q-24 0 -37 8t-19.5 30t-6.5 64t6.5 64t19.5 30.5t37 8.5h375q24 0 37 -8.5zM572.5 1302.5q-15.5 5.5 -29.5 17.5l-265 225q-22 19 -22 42
q0 25 25 60q30 43 60 43q16 0 33 -11l240 -138l240 138q17 11 33 11q30 0 60 -43q25 -35 25 -60q0 -23 -22 -42l-265 -225q-14 -12 -29.5 -17.5t-41.5 -5.5t-41.5 5.5z" />
    <glyph glyph-name="ncaron" unicode="&#x148;" 
d="M916.5 906q68.5 -40 105.5 -113.5t37 -172.5v-415h77q24 0 37 -8.5t19.5 -30.5t6.5 -64t-6.5 -64t-19.5 -30t-37 -8h-374q-24 0 -37 8t-19.5 30t-6.5 64t6.5 64t19.5 30.5t37 8.5h47v356q0 78 -27 118t-90 40q-58 0 -110 -48.5t-83.5 -129.5t-31.5 -173v-163h47
q24 0 37 -8.5t19.5 -30.5t6.5 -64t-6.5 -64t-19.5 -30t-37 -8h-374q-24 0 -37 8t-19.5 30t-6.5 64t6.5 64t19.5 30.5t37 8.5h77v514h-97q-24 0 -37 8t-19.5 30t-6.5 64t6.5 64t19.5 30.5t37 8.5h244q34 0 48.5 -14.5t14.5 -48.5v-145q132 230 330 230q91 0 159.5 -40z
M572.5 1032.5q-15.5 5.5 -29.5 17.5l-265 225q-22 19 -22 42q0 25 25 60q30 43 60 43q16 0 33 -11l240 -138l240 138q17 11 33 11q30 0 60 -43q25 -35 25 -60q0 -23 -22 -42l-265 -225q-14 -12 -29.5 -17.5t-41.5 -5.5t-41.5 5.5z" />
    <glyph glyph-name="Eng" unicode="&#x14a;" 
d="M1172 1178.5q13 -8.5 19.5 -30.5t6.5 -64t-6.5 -64t-19.5 -30t-37 -8h-57v-1037q0 -177 -91 -266t-271 -89q-49 0 -104 10.5t-105 29.5q-22 8 -33 24t-11 42q0 25 11 69q12 49 30 70.5t42 21.5q6 0 22 -4q37 -12 75.5 -19t65.5 -7q65 0 97 31.5t32 102.5v106l-428 709h-4
v-571h111q24 0 37 -8.5t19.5 -30.5t6.5 -64t-6.5 -64t-19.5 -30t-37 -8h-404q-24 0 -37 8t-19.5 30t-6.5 64t6.5 64t19.5 30.5t37 8.5h67v777h-67q-24 0 -37 8t-19.5 30t-6.5 64t6.5 64t19.5 30.5t37 8.5h264q40 0 56 -27l415 -687h4v509h-92q-24 0 -37 8t-19.5 30t-6.5 64
t6.5 64t19.5 30.5t37 8.5h375q24 0 37 -8.5z" />
    <glyph glyph-name="eng" unicode="&#x14b;" 
d="M946.5 906q68.5 -40 105.5 -113.5t37 -172.5v-675q0 -177 -91 -266t-271 -89q-49 0 -104 10.5t-105 29.5q-22 8 -33 24t-11 42q0 25 11 69q12 49 30 70.5t42 21.5q6 0 22 -4q37 -12 75.5 -19t65.5 -7q62 0 90.5 31.5t28.5 102.5v600q0 78 -27 118t-90 40
q-58 0 -110 -48.5t-83.5 -129.5t-31.5 -173v-163h47q24 0 37 -8.5t19.5 -30.5t6.5 -64t-6.5 -64t-19.5 -30t-37 -8h-374q-24 0 -37 8t-19.5 30t-6.5 64t6.5 64t19.5 30.5t37 8.5h77v514h-97q-24 0 -37 8t-19.5 30t-6.5 64t6.5 64t19.5 30.5t37 8.5h244q34 0 48.5 -14.5
t14.5 -48.5v-145q132 230 330 230q91 0 159.5 -40z" />
    <glyph glyph-name="Omacron" unicode="&#x14c;" 
d="M903 1134.5q125 -74.5 193.5 -214t68.5 -326.5t-68.5 -326.5t-193.5 -214.5t-289 -75t-289 75t-193.5 214.5t-68.5 326.5t68.5 326.5t193.5 214t289 74.5t289 -74.5zM403 882q-72 -100 -72 -288t72 -288.5t211 -100.5t211 100.5t72 288.5t-72 288t-211 100t-211 -100z
M922 1536.5q13 -8.5 19.5 -30.5t6.5 -64t-6.5 -64t-19.5 -30t-37 -8h-542q-24 0 -37 8t-19.5 30t-6.5 64t6.5 64t19.5 30.5t37 8.5h542q24 0 37 -8.5z" />
    <glyph glyph-name="omacron" unicode="&#x14d;" 
d="M922 1266.5q13 -8.5 19.5 -30.5t6.5 -64t-6.5 -64t-19.5 -30t-37 -8h-542q-24 0 -37 8t-19.5 30t-6.5 64t6.5 64t19.5 30.5t37 8.5h542q24 0 37 -8.5zM880 884q114 -62 175.5 -172t61.5 -250t-61.5 -250t-175.5 -172t-266 -62t-266 62t-175.5 172t-61.5 250t61.5 250
t175.5 172t266 62t266 -62zM489 687.5q-53 -31.5 -81.5 -89.5t-28.5 -136t28.5 -136t81.5 -89.5t125 -31.5t125 31.5t81.5 89.5t28.5 136t-28.5 136t-81.5 89.5t-125 31.5t-125 -31.5z" />
    <glyph glyph-name="Obreve" unicode="&#x14e;" 
d="M903 1134.5q125 -74.5 193.5 -214t68.5 -326.5t-68.5 -326.5t-193.5 -214.5t-289 -75t-289 75t-193.5 214.5t-68.5 326.5t68.5 326.5t193.5 214t289 74.5t289 -74.5zM403 882q-72 -100 -72 -288t72 -288.5t211 -100.5t211 100.5t72 288.5t-72 288t-211 100t-211 -100z
M951 1633.5q16 -14.5 16 -35.5q0 -9 -1 -13q-24 -127 -114 -200.5t-238 -73.5t-238 73.5t-114 200.5q-1 4 -1 13q0 21 16 35.5t50 23.5q24 7 43 7q32 0 43 -27q23 -64 71.5 -93t129.5 -29t129.5 29t71.5 93q11 27 43 27q19 0 43 -7q34 -9 50 -23.5z" />
    <glyph glyph-name="obreve" unicode="&#x14f;" 
d="M880 884q114 -62 175.5 -172t61.5 -250t-61.5 -250t-175.5 -172t-266 -62t-266 62t-175.5 172t-61.5 250t61.5 250t175.5 172t266 62t266 -62zM489 687.5q-53 -31.5 -81.5 -89.5t-28.5 -136t28.5 -136t81.5 -89.5t125 -31.5t125 31.5t81.5 89.5t28.5 136t-28.5 136
t-81.5 89.5t-125 31.5t-125 -31.5zM951 1363.5q16 -14.5 16 -35.5q0 -9 -1 -13q-24 -127 -114 -200.5t-238 -73.5t-238 73.5t-114 200.5q-1 4 -1 13q0 21 16 35.5t50 23.5q24 7 43 7q32 0 43 -27q23 -64 71.5 -93t129.5 -29t129.5 29t71.5 93q11 27 43 27q19 0 43 -7
q34 -9 50 -23.5z" />
    <glyph glyph-name="Ohungarumlaut" unicode="&#x150;" 
d="M903 1134.5q125 -74.5 193.5 -214t68.5 -326.5t-68.5 -326.5t-193.5 -214.5t-289 -75t-289 75t-193.5 214.5t-68.5 326.5t68.5 326.5t193.5 214t289 74.5t289 -74.5zM403 882q-72 -100 -72 -288t72 -288.5t211 -100.5t211 100.5t72 288.5t-72 288t-211 100t-211 -100z
M727 1591q0 -15 -14 -27l-265 -240q-18 -16 -47 -16q-28 0 -67 15q-26 10 -39.5 22.5t-13.5 26.5q0 10 8 20l221 266q19 22 56 22q36 0 90 -24q71 -32 71 -65zM1157 1591q0 -15 -14 -27l-265 -240q-18 -16 -47 -16q-28 0 -67 15q-26 10 -39.5 22.5t-13.5 26.5q0 10 8 20
l221 266q19 22 56 22q36 0 90 -24q71 -32 71 -65z" />
    <glyph glyph-name="ohungarumlaut" unicode="&#x151;" 
d="M727 1321q0 -15 -14 -27l-265 -240q-18 -16 -47 -16q-28 0 -67 15q-26 10 -39.5 22.5t-13.5 26.5q0 10 8 20l221 266q19 22 56 22q36 0 90 -24q71 -32 71 -65zM1157 1321q0 -15 -14 -27l-265 -240q-18 -16 -47 -16q-28 0 -67 15q-26 10 -39.5 22.5t-13.5 26.5q0 10 8 20
l221 266q19 22 56 22q36 0 90 -24q71 -32 71 -65zM880 884q114 -62 175.5 -172t61.5 -250t-61.5 -250t-175.5 -172t-266 -62t-266 62t-175.5 172t-61.5 250t61.5 250t175.5 172t266 62t266 -62zM489 687.5q-53 -31.5 -81.5 -89.5t-28.5 -136t28.5 -136t81.5 -89.5t125 -31.5
t125 31.5t81.5 89.5t28.5 136t-28.5 136t-81.5 89.5t-125 31.5t-125 -31.5z" />
    <glyph glyph-name="OE" unicode="&#x152;" 
d="M1135 1172q15 -15 15 -50v-272q0 -34 -26 -48.5t-86 -14.5q-58 0 -78 14t-20 49v132h-170v-253h114q35 0 49 -23t14 -85t-14 -84.5t-49 -22.5h-114v-309h180v182q0 34 26.5 48.5t89.5 14.5q42 0 64.5 -6.5t31 -19.5t8.5 -37v-322q0 -34 -15 -49.5t-50 -15.5h-511
q-165 0 -284.5 69.5t-183 203t-63.5 321.5t63.5 321.5t183 202.5t284.5 69h491q35 0 50 -15zM367.5 867.5q-64.5 -95.5 -64.5 -273.5q0 -120 30 -203t83.5 -126.5t123.5 -49.5v757q-108 -9 -172.5 -104.5z" />
    <glyph glyph-name="oe" unicode="&#x153;" 
d="M1116.5 810.5q76.5 -135.5 76.5 -378.5q0 -34 -14.5 -48t-48.5 -14h-406q24 -165 154 -165q49 0 95.5 12.5t102.5 37.5q15 6 27 6q24 0 41.5 -21t31.5 -61q13 -36 13 -64q0 -24 -10.5 -39.5t-33.5 -26.5q-155 -71 -282 -71q-80 0 -143 28t-104 78q-40 -50 -99 -78
t-133 -28q-185 0 -271 130t-86 354t86 354t271 130q75 0 135.5 -28.5t100.5 -81.5q45 52 106 81t132 29q182 0 258.5 -135.5zM292.5 657.5q-27.5 -61.5 -27.5 -195.5t27.5 -195.5t91.5 -61.5t91.5 61.5t27.5 195.5t-27.5 195.5t-91.5 61.5t-91.5 -61.5zM724 565h244
q-2 73 -30 113.5t-80 40.5q-112 0 -134 -154z" />
    <glyph glyph-name="Racute" unicode="&#x154;" 
d="M787 1714q46 0 103 -75q40 -54 40 -93q0 -32 -24 -44l-407 -205q-10 -6 -23 -6q-36 0 -68 51q-22 35 -22 63t21 43l347 255q16 11 33 11zM974 1094q113 -93 113 -270q0 -231 -248 -291q54 -21 86 -62q21 -27 38.5 -56.5t40.5 -74.5q24 -48 37 -69q20 -33 40 -49.5
t45 -16.5h19q24 0 37 -8.5t19.5 -30.5t6.5 -64t-6.5 -64t-19.5 -30t-37 -8h-97q-79 0 -128 32t-90 107q-20 35 -48 96q-20 46 -38 79.5t-40 65.5q-31 43 -69 62t-91 19h-64v-256h97q24 0 37 -8.5t19.5 -30.5t6.5 -64t-6.5 -64t-19.5 -30t-37 -8h-454q-24 0 -37 8t-19.5 30
t-6.5 64t6.5 64t19.5 30.5t37 8.5h107v777h-107q-24 0 -37 8t-19.5 30t-6.5 64t6.5 64t19.5 30.5t37 8.5h527q211 0 324 -93zM480 676h149q102 0 151 36.5t49 111.5t-49 111.5t-151 36.5h-149v-296z" />
    <glyph glyph-name="racute" unicode="&#x155;" 
d="M859 1444q46 0 103 -75q40 -54 40 -93q0 -32 -24 -44l-407 -205q-10 -6 -23 -6q-36 0 -68 51q-22 35 -22 63t21 43l347 255q16 11 33 11zM1087 890q44 -32 44 -84q0 -33 -18 -78t-40.5 -68t-47.5 -23q-14 0 -30 8q-56 31 -116 31q-77 0 -144 -49t-107.5 -135t-40.5 -192
v-95h287q24 0 37 -8.5t19.5 -30.5t6.5 -64t-6.5 -64t-19.5 -30t-37 -8h-684q-24 0 -37 8t-19.5 30t-6.5 64t6.5 64t19.5 30.5t37 8.5h147v514h-117q-24 0 -37 8t-19.5 30t-6.5 64t6.5 64t19.5 30.5t37 8.5h274q34 0 48.5 -14.5t14.5 -48.5v-217q75 145 172.5 223.5
t197.5 78.5q85 0 160 -56z" />
    <glyph glyph-name="uni0156" unicode="&#x156;" 
d="M974 1094q113 -93 113 -270q0 -231 -248 -291q54 -21 86 -62q21 -27 38.5 -56.5t40.5 -74.5q24 -48 37 -69q20 -33 40 -49.5t45 -16.5h19q24 0 37 -8.5t19.5 -30.5t6.5 -64t-6.5 -64t-19.5 -30t-37 -8h-97q-79 0 -128 32t-90 107q-20 35 -48 96q-20 46 -38 79.5t-40 65.5
q-31 43 -69 62t-91 19h-64v-256h97q24 0 37 -8.5t19.5 -30.5t6.5 -64t-6.5 -64t-19.5 -30t-37 -8h-454q-24 0 -37 8t-19.5 30t-6.5 64t6.5 64t19.5 30.5t37 8.5h107v777h-107q-24 0 -37 8t-19.5 30t-6.5 64t6.5 64t19.5 30.5t37 8.5h527q211 0 324 -93zM480 676h149
q102 0 151 36.5t49 111.5t-49 111.5t-151 36.5h-149v-296zM458.5 -531.5q-23.5 12.5 -23.5 38.5q0 9 1 14l59 306q2 13 12 20t24 7h206q24 0 24 -23q0 -11 -4 -20l-124 -306q-10 -25 -33.5 -37t-67.5 -12q-50 0 -73.5 12.5z" />
    <glyph glyph-name="uni0157" unicode="&#x157;" 
d="M1087 890q44 -32 44 -84q0 -33 -18 -78t-40.5 -68t-47.5 -23q-14 0 -30 8q-56 31 -116 31q-77 0 -144 -49t-107.5 -135t-40.5 -192v-95h287q24 0 37 -8.5t19.5 -30.5t6.5 -64t-6.5 -64t-19.5 -30t-37 -8h-684q-24 0 -37 8t-19.5 30t-6.5 64t6.5 64t19.5 30.5t37 8.5h147
v514h-117q-24 0 -37 8t-19.5 30t-6.5 64t6.5 64t19.5 30.5t37 8.5h274q34 0 48.5 -14.5t14.5 -48.5v-217q75 145 172.5 223.5t197.5 78.5q85 0 160 -56zM358.5 -531.5q-23.5 12.5 -23.5 38.5q0 9 1 14l59 306q2 13 12 20t24 7h206q24 0 24 -23q0 -11 -4 -20l-124 -306
q-10 -25 -33.5 -37t-67.5 -12q-50 0 -73.5 12.5z" />
    <glyph glyph-name="Rcaron" unicode="&#x158;" 
d="M974 1094q113 -93 113 -270q0 -231 -248 -291q54 -21 86 -62q21 -27 38.5 -56.5t40.5 -74.5q24 -48 37 -69q20 -33 40 -49.5t45 -16.5h19q24 0 37 -8.5t19.5 -30.5t6.5 -64t-6.5 -64t-19.5 -30t-37 -8h-97q-79 0 -128 32t-90 107q-20 35 -48 96q-20 46 -38 79.5t-40 65.5
q-31 43 -69 62t-91 19h-64v-256h97q24 0 37 -8.5t19.5 -30.5t6.5 -64t-6.5 -64t-19.5 -30t-37 -8h-454q-24 0 -37 8t-19.5 30t-6.5 64t6.5 64t19.5 30.5t37 8.5h107v777h-107q-24 0 -37 8t-19.5 30t-6.5 64t6.5 64t19.5 30.5t37 8.5h527q211 0 324 -93zM480 676h149
q102 0 151 36.5t49 111.5t-49 111.5t-151 36.5h-149v-296zM552.5 1302.5q-15.5 5.5 -29.5 17.5l-265 225q-22 19 -22 42q0 25 25 60q30 43 60 43q16 0 33 -11l240 -138l240 138q17 11 33 11q30 0 60 -43q25 -35 25 -60q0 -23 -22 -42l-265 -225q-14 -12 -29.5 -17.5
t-41.5 -5.5t-41.5 5.5z" />
    <glyph glyph-name="rcaron" unicode="&#x159;" 
d="M1087 890q44 -32 44 -84q0 -33 -18 -78t-40.5 -68t-47.5 -23q-14 0 -30 8q-56 31 -116 31q-77 0 -144 -49t-107.5 -135t-40.5 -192v-95h287q24 0 37 -8.5t19.5 -30.5t6.5 -64t-6.5 -64t-19.5 -30t-37 -8h-684q-24 0 -37 8t-19.5 30t-6.5 64t6.5 64t19.5 30.5t37 8.5h147
v514h-117q-24 0 -37 8t-19.5 30t-6.5 64t6.5 64t19.5 30.5t37 8.5h274q34 0 48.5 -14.5t14.5 -48.5v-217q75 145 172.5 223.5t197.5 78.5q85 0 160 -56zM602.5 1032.5q-15.5 5.5 -29.5 17.5l-265 225q-22 19 -22 42q0 25 25 60q30 43 60 43q16 0 33 -11l240 -138l240 138
q17 11 33 11q30 0 60 -43q25 -35 25 -60q0 -23 -22 -42l-265 -225q-14 -12 -29.5 -17.5t-41.5 -5.5t-41.5 5.5z" />
    <glyph glyph-name="Sacute" unicode="&#x15a;" 
d="M1007 1194.5q27 -14.5 27 -48.5v-274q0 -34 -21.5 -48.5t-70.5 -14.5q-33 0 -52 8t-30 24q-47 74 -121 114.5t-171 40.5q-73 0 -114.5 -37t-41.5 -96q0 -29 18 -47.5t52 -32.5q44 -17 151 -35q104 -20 170 -37.5t124 -53.5q160 -97 160 -313q0 -110 -46.5 -192
t-139.5 -128t-229 -46q-167 0 -283 101v-38q0 -34 -24.5 -48.5t-87.5 -14.5q-64 0 -91 14.5t-27 48.5v334q0 34 21.5 48.5t70.5 14.5q35 0 55.5 -9t31.5 -31q54 -103 129 -155t175 -52q88 0 134 36t46 100q0 40 -20.5 67.5t-59.5 46.5q-32 16 -70.5 26t-113.5 26
q-86 18 -142 33t-105 41q-76 40 -119 106.5t-43 172.5t49 188.5t137.5 128.5t202.5 46q80 0 148 -26t118 -74v37q0 34 24.5 48.5t87.5 14.5q64 0 91 -14.5zM787 1714q46 0 103 -75q40 -54 40 -93q0 -32 -24 -44l-407 -205q-10 -6 -23 -6q-36 0 -68 51q-22 35 -22 63t21 43
l347 255q16 11 33 11z" />
    <glyph glyph-name="sacute" unicode="&#x15b;" 
d="M997 931.5q27 -14.5 27 -48.5v-211q0 -34 -21.5 -48.5t-70.5 -14.5q-53 0 -73 21q-59 63 -135 89.5t-176 26.5q-59 0 -92.5 -21t-33.5 -56q0 -42 74 -60q39 -10 133 -19q93 -11 154.5 -22t116.5 -33q80 -33 125 -92t45 -156q0 -95 -46.5 -164.5t-136 -107t-215.5 -37.5
q-139 0 -258 71v-8q0 -34 -29 -48.5t-93 -14.5t-91 14.5t-27 48.5v223q0 33 23.5 48t72.5 15q61 0 83 -28q50 -63 128 -92t171 -29q160 0 160 83q0 25 -22.5 40t-66.5 25q-25 5 -116 18q-101 12 -173.5 27.5t-131.5 48.5q-138 76 -138 240q0 87 47 152t129.5 99.5
t185.5 34.5q151 0 268 -73v10q0 34 24.5 48.5t87.5 14.5q64 0 91 -14.5zM787 1444q46 0 103 -75q40 -54 40 -93q0 -32 -24 -44l-407 -205q-10 -6 -23 -6q-36 0 -68 51q-22 35 -22 63t21 43l347 255q16 11 33 11z" />
    <glyph glyph-name="Scircumflex" unicode="&#x15c;" 
d="M651.5 1674.5q15.5 -5.5 29.5 -17.5l265 -225q22 -19 22 -42q0 -25 -25 -60q-30 -43 -60 -43q-16 0 -33 11l-240 138l-240 -138q-17 -11 -33 -11q-30 0 -60 43q-25 35 -25 60q0 23 22 42l265 225q14 12 29.5 17.5t41.5 5.5t41.5 -5.5zM1007 1194.5q27 -14.5 27 -48.5
v-274q0 -34 -21.5 -48.5t-70.5 -14.5q-33 0 -52 8t-30 24q-47 74 -121 114.5t-171 40.5q-73 0 -114.5 -37t-41.5 -96q0 -29 18 -47.5t52 -32.5q44 -17 151 -35q104 -20 170 -37.5t124 -53.5q160 -97 160 -313q0 -110 -46.5 -192t-139.5 -128t-229 -46q-167 0 -283 101v-38
q0 -34 -24.5 -48.5t-87.5 -14.5q-64 0 -91 14.5t-27 48.5v334q0 34 21.5 48.5t70.5 14.5q35 0 55.5 -9t31.5 -31q54 -103 129 -155t175 -52q88 0 134 36t46 100q0 40 -20.5 67.5t-59.5 46.5q-32 16 -70.5 26t-113.5 26q-86 18 -142 33t-105 41q-76 40 -119 106.5t-43 172.5
t49 188.5t137.5 128.5t202.5 46q80 0 148 -26t118 -74v37q0 34 24.5 48.5t87.5 14.5q64 0 91 -14.5z" />
    <glyph glyph-name="scircumflex" unicode="&#x15d;" 
d="M645.5 1404.5q15.5 -5.5 29.5 -17.5l265 -225q22 -19 22 -42q0 -25 -25 -60q-30 -43 -60 -43q-16 0 -33 11l-240 138l-240 -138q-17 -11 -33 -11q-30 0 -60 43q-25 35 -25 60q0 23 22 42l265 225q14 12 29.5 17.5t41.5 5.5t41.5 -5.5zM997 931.5q27 -14.5 27 -48.5v-211
q0 -34 -21.5 -48.5t-70.5 -14.5q-53 0 -73 21q-59 63 -135 89.5t-176 26.5q-59 0 -92.5 -21t-33.5 -56q0 -42 74 -60q39 -10 133 -19q93 -11 154.5 -22t116.5 -33q80 -33 125 -92t45 -156q0 -95 -46.5 -164.5t-136 -107t-215.5 -37.5q-139 0 -258 71v-8q0 -34 -29 -48.5
t-93 -14.5t-91 14.5t-27 48.5v223q0 33 23.5 48t72.5 15q61 0 83 -28q50 -63 128 -92t171 -29q160 0 160 83q0 25 -22.5 40t-66.5 25q-25 5 -116 18q-101 12 -173.5 27.5t-131.5 48.5q-138 76 -138 240q0 87 47 152t129.5 99.5t185.5 34.5q151 0 268 -73v10q0 34 24.5 48.5
t87.5 14.5q64 0 91 -14.5z" />
    <glyph glyph-name="Scedilla" unicode="&#x15e;" 
d="M992 87.5q-95 -97.5 -278 -108.5v-62q107 0 161.5 -52.5t54.5 -137.5q0 -96 -71.5 -147.5t-207.5 -51.5q-147 0 -256 42q-24 10 -24 39q0 19 10 45q24 64 54 64q4 0 12 -2q82 -29 161 -29q49 0 72.5 12.5t23.5 38.5t-24 36.5t-67 10.5l-23 -1q-8 -1 -24 -1q-37 0 -37 41
v176q-80 26 -140 79v-38q0 -34 -24.5 -48.5t-87.5 -14.5q-64 0 -91 14.5t-27 48.5v334q0 34 21.5 48.5t70.5 14.5q35 0 55.5 -9t31.5 -31q54 -103 129 -155t175 -52q88 0 134 36t46 100q0 40 -20.5 67.5t-59.5 46.5q-32 16 -70.5 26t-113.5 26q-86 18 -142 33t-105 41
q-76 40 -119 106.5t-43 172.5t49 188.5t137.5 128.5t202.5 46q80 0 148 -26t118 -74v37q0 34 24.5 48.5t87.5 14.5q64 0 91 -14.5t27 -48.5v-274q0 -34 -21.5 -48.5t-70.5 -14.5q-33 0 -52 8t-30 24q-47 74 -121 114.5t-171 40.5q-73 0 -114.5 -37t-41.5 -96q0 -29 18 -47.5
t52 -32.5q44 -17 151 -35q104 -20 170 -37.5t124 -53.5q160 -97 160 -313q0 -159 -95 -256.5z" />
    <glyph glyph-name="scedilla" unicode="&#x15f;" 
d="M980 72.5q-90 -81.5 -256 -92.5v-63q107 0 161.5 -52.5t54.5 -137.5q0 -96 -71.5 -147.5t-207.5 -51.5q-147 0 -256 42q-24 10 -24 39q0 19 10 45q24 64 54 64q4 0 12 -2q82 -29 161 -29q49 0 72.5 12.5t23.5 38.5t-24 36.5t-67 10.5l-23 -1q-8 -1 -24 -1q-37 0 -37 41
v171q-67 19 -125 54v-8q0 -34 -29 -48.5t-93 -14.5t-91 14.5t-27 48.5v223q0 33 23.5 48t72.5 15q61 0 83 -28q50 -63 128 -92t171 -29q160 0 160 83q0 25 -22.5 40t-66.5 25q-25 5 -116 18q-101 12 -173.5 27.5t-131.5 48.5q-138 76 -138 240q0 87 47 152t129.5 99.5
t185.5 34.5q151 0 268 -73v10q0 34 24.5 48.5t87.5 14.5q64 0 91 -14.5t27 -48.5v-211q0 -34 -21.5 -48.5t-70.5 -14.5q-53 0 -73 21q-59 63 -135 89.5t-176 26.5q-59 0 -92.5 -21t-33.5 -56q0 -42 74 -60q39 -10 133 -19q93 -11 154.5 -22t116.5 -33q80 -33 125 -92
t45 -156q0 -133 -90 -214.5z" />
    <glyph glyph-name="Scaron" unicode="&#x160;" 
d="M1007 1194.5q27 -14.5 27 -48.5v-274q0 -34 -21.5 -48.5t-70.5 -14.5q-33 0 -52 8t-30 24q-47 74 -121 114.5t-171 40.5q-73 0 -114.5 -37t-41.5 -96q0 -29 18 -47.5t52 -32.5q44 -17 151 -35q104 -20 170 -37.5t124 -53.5q160 -97 160 -313q0 -110 -46.5 -192
t-139.5 -128t-229 -46q-167 0 -283 101v-38q0 -34 -24.5 -48.5t-87.5 -14.5q-64 0 -91 14.5t-27 48.5v334q0 34 21.5 48.5t70.5 14.5q35 0 55.5 -9t31.5 -31q54 -103 129 -155t175 -52q88 0 134 36t46 100q0 40 -20.5 67.5t-59.5 46.5q-32 16 -70.5 26t-113.5 26
q-86 18 -142 33t-105 41q-76 40 -119 106.5t-43 172.5t49 188.5t137.5 128.5t202.5 46q80 0 148 -26t118 -74v37q0 34 24.5 48.5t87.5 14.5q64 0 91 -14.5zM567.5 1302.5q-15.5 5.5 -29.5 17.5l-265 225q-22 19 -22 42q0 25 25 60q30 43 60 43q16 0 33 -11l240 -138l240 138
q17 11 33 11q30 0 60 -43q25 -35 25 -60q0 -23 -22 -42l-265 -225q-14 -12 -29.5 -17.5t-41.5 -5.5t-41.5 5.5z" />
    <glyph glyph-name="scaron" unicode="&#x161;" 
d="M997 931.5q27 -14.5 27 -48.5v-211q0 -34 -21.5 -48.5t-70.5 -14.5q-53 0 -73 21q-59 63 -135 89.5t-176 26.5q-59 0 -92.5 -21t-33.5 -56q0 -42 74 -60q39 -10 133 -19q93 -11 154.5 -22t116.5 -33q80 -33 125 -92t45 -156q0 -95 -46.5 -164.5t-136 -107t-215.5 -37.5
q-139 0 -258 71v-8q0 -34 -29 -48.5t-93 -14.5t-91 14.5t-27 48.5v223q0 33 23.5 48t72.5 15q61 0 83 -28q50 -63 128 -92t171 -29q160 0 160 83q0 25 -22.5 40t-66.5 25q-25 5 -116 18q-101 12 -173.5 27.5t-131.5 48.5q-138 76 -138 240q0 87 47 152t129.5 99.5
t185.5 34.5q151 0 268 -73v10q0 34 24.5 48.5t87.5 14.5q64 0 91 -14.5zM565.5 1032.5q-15.5 5.5 -29.5 17.5l-265 225q-22 19 -22 42q0 25 25 60q30 43 60 43q16 0 33 -11l240 -138l240 138q17 11 33 11q30 0 60 -43q25 -35 25 -60q0 -23 -22 -42l-265 -225
q-14 -12 -29.5 -17.5t-41.5 -5.5t-41.5 5.5z" />
    <glyph glyph-name="uni0162" unicode="&#x162;" 
d="M1115 1172q15 -15 15 -50v-422q0 -33 -27.5 -48t-84.5 -15q-55 0 -76.5 14.5t-21.5 48.5v272h-181v-767h216q24 0 37 -8.5t19.5 -30.5t6.5 -64t-6.5 -64t-19.5 -30t-37 -8h-247v-83q107 0 161.5 -52.5t54.5 -137.5q0 -96 -71.5 -147.5t-207.5 -51.5q-147 0 -256 42
q-24 10 -24 39q0 19 10 45q24 64 54 64q4 0 12 -2q82 -29 161 -29q49 0 72.5 12.5t23.5 38.5t-24 36.5t-67 10.5l-23 -1q-8 -1 -24 -1q-37 0 -37 41v176h-250q-24 0 -37 8t-19.5 30t-6.5 64t6.5 64t19.5 30.5t37 8.5h216v767h-181v-272q0 -33 -27.5 -48t-84.5 -15
q-55 0 -76.5 14.5t-21.5 48.5v422q0 35 15.5 50t49.5 15h902q35 0 50 -15z" />
    <glyph glyph-name="uni0163" unicode="&#x163;" 
d="M1109 144q0 -22 -10.5 -36.5t-31.5 -25.5q-191 -96 -333 -103v-62q107 0 161.5 -52.5t54.5 -137.5q0 -96 -71.5 -147.5t-207.5 -51.5q-147 0 -256 42q-24 10 -24 39q0 19 10 45q24 64 54 64q4 0 12 -2q82 -29 161 -29q49 0 72.5 12.5t23.5 38.5t-24 36.5t-67 10.5l-23 -1
q-8 -1 -24 -1q-37 0 -37 41v181q-96 38 -146 127t-50 226v291h-193q-35 0 -49 22.5t-14 84.5t14 85t49 23h193v282q0 34 30.5 48.5t101.5 14.5q47 0 72.5 -6.5t35.5 -19.5t10 -37v-282h371q35 0 49 -23t14 -85t-14 -84.5t-49 -22.5h-371v-278q0 -166 129 -166
q46 0 107.5 20.5t143.5 57.5q22 9 35 9q21 0 39 -17.5t34 -57.5q18 -45 18 -73z" />
    <glyph glyph-name="Tcaron" unicode="&#x164;" 
d="M1115 1172q15 -15 15 -50v-422q0 -33 -27.5 -48t-84.5 -15q-55 0 -76.5 14.5t-21.5 48.5v272h-181v-767h216q24 0 37 -8.5t19.5 -30.5t6.5 -64t-6.5 -64t-19.5 -30t-37 -8h-682q-24 0 -37 8t-19.5 30t-6.5 64t6.5 64t19.5 30.5t37 8.5h216v767h-181v-272q0 -33 -27.5 -48
t-84.5 -15q-55 0 -76.5 14.5t-21.5 48.5v422q0 35 15.5 50t49.5 15h902q35 0 50 -15zM572.5 1302.5q-15.5 5.5 -29.5 17.5l-265 225q-22 19 -22 42q0 25 25 60q30 43 60 43q16 0 33 -11l240 -138l240 138q17 11 33 11q30 0 60 -43q25 -35 25 -60q0 -23 -22 -42l-265 -225
q-14 -12 -29.5 -17.5t-41.5 -5.5t-41.5 5.5z" />
    <glyph glyph-name="tcaron" unicode="&#x165;" 
d="M557.5 1202.5q25.5 -6.5 35.5 -19.5t10 -37v-282h371q35 0 49 -23t14 -85t-14 -84.5t-49 -22.5h-371v-278q0 -166 129 -166q46 0 107.5 20.5t143.5 57.5q22 9 35 9q21 0 39 -17.5t34 -57.5q18 -45 18 -73q0 -22 -10.5 -36.5t-31.5 -25.5q-206 -104 -357 -104
q-174 0 -265.5 97t-91.5 283v291h-193q-35 0 -49 22.5t-14 84.5t14 85t49 23h193v282q0 34 30.5 48.5t101.5 14.5q47 0 72.5 -6.5zM768.5 1014.5q-23.5 12.5 -23.5 38.5q0 9 1 14l59 306q2 13 12 20t24 7h206q24 0 24 -23q0 -11 -4 -20l-124 -306q-10 -25 -33.5 -37
t-67.5 -12q-50 0 -73.5 12.5z" />
    <glyph glyph-name="Tbar" unicode="&#x166;" 
d="M1115 1172q15 -15 15 -50v-422q0 -33 -27.5 -48t-84.5 -15q-55 0 -76.5 14.5t-21.5 48.5v272h-181v-407h156q24 0 37 -8.5t19.5 -30.5t6.5 -64t-6.5 -64t-19.5 -30t-37 -8h-156v-155h216q24 0 37 -8.5t19.5 -30.5t6.5 -64t-6.5 -64t-19.5 -30t-37 -8h-682q-24 0 -37 8
t-19.5 30t-6.5 64t6.5 64t19.5 30.5t37 8.5h216v155h-156q-24 0 -37 8t-19.5 30t-6.5 64t6.5 64t19.5 30.5t37 8.5h156v407h-181v-272q0 -33 -27.5 -48t-84.5 -15q-55 0 -76.5 14.5t-21.5 48.5v422q0 35 15.5 50t49.5 15h902q35 0 50 -15z" />
    <glyph glyph-name="tbar" unicode="&#x167;" 
d="M1109 144q0 -22 -10.5 -36.5t-31.5 -25.5q-206 -104 -357 -104q-170 0 -261.5 92.5t-95.5 269.5h-110q-24 0 -37 8t-19.5 30t-6.5 64t6.5 64t19.5 30.5t37 8.5h110v104h-193q-35 0 -49 22.5t-14 84.5t14 85t49 23h193v282q0 34 30.5 48.5t101.5 14.5q47 0 72.5 -6.5
t35.5 -19.5t10 -37v-282h371q35 0 49 -23t14 -85t-14 -84.5t-49 -22.5h-371v-104h202q24 0 37 -8.5t19.5 -30.5t6.5 -64t-6.5 -64t-19.5 -30t-37 -8h-201q12 -135 128 -135q46 0 107.5 20.5t143.5 57.5q22 9 35 9q21 0 39 -17.5t34 -57.5q18 -45 18 -73z" />
    <glyph glyph-name="Utilde" unicode="&#x168;" 
d="M558 1629q33 -12 77 -34q36 -18 58.5 -26.5t46.5 -8.5q61 0 129 72q14 14 30 14q29 0 66 -40q36 -40 36 -76q0 -20 -10 -34q-51 -76 -115 -118.5t-133 -42.5q-40 0 -73 12t-77 34q-36 18 -58.5 26.5t-46.5 8.5q-61 0 -129 -72q-14 -14 -30 -14q-29 0 -66 40
q-36 40 -36 76q0 20 10 34q51 76 115 118.5t133 42.5q40 0 73 -12zM1152 1178.5q13 -8.5 19.5 -30.5t6.5 -64t-6.5 -64t-19.5 -30t-37 -8h-47v-569q0 -138 -55 -236t-157 -148.5t-242 -50.5t-242 50.5t-157 148.5t-55 236v569h-47q-24 0 -37 8t-19.5 30t-6.5 64t6.5 64
t19.5 30.5t37 8.5h374q24 0 37 -8.5t19.5 -30.5t6.5 -64t-6.5 -64t-19.5 -30t-37 -8h-77v-549q0 -115 55 -171.5t149 -56.5t149 56.5t55 171.5v549h-77q-24 0 -37 8t-19.5 30t-6.5 64t6.5 64t19.5 30.5t37 8.5h374q24 0 37 -8.5z" />
    <glyph glyph-name="utilde" unicode="&#x169;" 
d="M1017.5 909.5q14.5 -14.5 14.5 -48.5v-656h77q24 0 37 -8t19.5 -30t6.5 -64t-6.5 -64t-19.5 -30.5t-37 -8.5h-224q-34 0 -48.5 14.5t-14.5 48.5v145q-132 -230 -330 -230q-91 0 -159.5 40t-105.5 113.5t-37 172.5v415h-77q-24 0 -37 8.5t-19.5 30.5t-6.5 64t6.5 64
t19.5 30t37 8h264q34 0 48.5 -14.5t14.5 -48.5v-498q0 -78 27 -118t90 -40q58 0 110 48.5t83.5 129.5t31.5 173v163h-107q-24 0 -37 8.5t-19.5 30.5t-6.5 64t6.5 64t19.5 30t37 8h294q34 0 48.5 -14.5zM530 1359q33 -12 77 -34q36 -18 58.5 -26.5t46.5 -8.5q61 0 129 72
q14 14 30 14q29 0 66 -40q36 -40 36 -76q0 -20 -10 -34q-51 -76 -115 -118.5t-133 -42.5q-40 0 -73 12t-77 34q-36 18 -58.5 26.5t-46.5 8.5q-61 0 -129 -72q-14 -14 -30 -14q-29 0 -66 40q-36 40 -36 76q0 20 10 34q51 76 115 118.5t133 42.5q40 0 73 -12z" />
    <glyph glyph-name="Umacron" unicode="&#x16a;" 
d="M922 1536.5q13 -8.5 19.5 -30.5t6.5 -64t-6.5 -64t-19.5 -30t-37 -8h-542q-24 0 -37 8t-19.5 30t-6.5 64t6.5 64t19.5 30.5t37 8.5h542q24 0 37 -8.5zM1152 1178.5q13 -8.5 19.5 -30.5t6.5 -64t-6.5 -64t-19.5 -30t-37 -8h-47v-569q0 -138 -55 -236t-157 -148.5
t-242 -50.5t-242 50.5t-157 148.5t-55 236v569h-47q-24 0 -37 8t-19.5 30t-6.5 64t6.5 64t19.5 30.5t37 8.5h374q24 0 37 -8.5t19.5 -30.5t6.5 -64t-6.5 -64t-19.5 -30t-37 -8h-77v-549q0 -115 55 -171.5t149 -56.5t149 56.5t55 171.5v549h-77q-24 0 -37 8t-19.5 30t-6.5 64
t6.5 64t19.5 30.5t37 8.5h374q24 0 37 -8.5z" />
    <glyph glyph-name="umacron" unicode="&#x16b;" 
d="M922 1266.5q13 -8.5 19.5 -30.5t6.5 -64t-6.5 -64t-19.5 -30t-37 -8h-542q-24 0 -37 8t-19.5 30t-6.5 64t6.5 64t19.5 30.5t37 8.5h542q24 0 37 -8.5zM1017.5 909.5q14.5 -14.5 14.5 -48.5v-656h77q24 0 37 -8t19.5 -30t6.5 -64t-6.5 -64t-19.5 -30.5t-37 -8.5h-224
q-34 0 -48.5 14.5t-14.5 48.5v145q-132 -230 -330 -230q-91 0 -159.5 40t-105.5 113.5t-37 172.5v415h-77q-24 0 -37 8.5t-19.5 30.5t-6.5 64t6.5 64t19.5 30t37 8h264q34 0 48.5 -14.5t14.5 -48.5v-498q0 -78 27 -118t90 -40q58 0 110 48.5t83.5 129.5t31.5 173v163h-107
q-24 0 -37 8.5t-19.5 30.5t-6.5 64t6.5 64t19.5 30t37 8h294q34 0 48.5 -14.5z" />
    <glyph glyph-name="Ubreve" unicode="&#x16c;" 
d="M1152 1178.5q13 -8.5 19.5 -30.5t6.5 -64t-6.5 -64t-19.5 -30t-37 -8h-47v-569q0 -138 -55 -236t-157 -148.5t-242 -50.5t-242 50.5t-157 148.5t-55 236v569h-47q-24 0 -37 8t-19.5 30t-6.5 64t6.5 64t19.5 30.5t37 8.5h374q24 0 37 -8.5t19.5 -30.5t6.5 -64t-6.5 -64
t-19.5 -30t-37 -8h-77v-549q0 -115 55 -171.5t149 -56.5t149 56.5t55 171.5v549h-77q-24 0 -37 8t-19.5 30t-6.5 64t6.5 64t19.5 30.5t37 8.5h374q24 0 37 -8.5zM951 1633.5q16 -14.5 16 -35.5q0 -9 -1 -13q-24 -127 -114 -200.5t-238 -73.5t-238 73.5t-114 200.5
q-1 4 -1 13q0 21 16 35.5t50 23.5q24 7 43 7q32 0 43 -27q23 -64 71.5 -93t129.5 -29t129.5 29t71.5 93q11 27 43 27q19 0 43 -7q34 -9 50 -23.5z" />
    <glyph glyph-name="ubreve" unicode="&#x16d;" 
d="M1017.5 909.5q14.5 -14.5 14.5 -48.5v-656h77q24 0 37 -8t19.5 -30t6.5 -64t-6.5 -64t-19.5 -30.5t-37 -8.5h-224q-34 0 -48.5 14.5t-14.5 48.5v145q-132 -230 -330 -230q-91 0 -159.5 40t-105.5 113.5t-37 172.5v415h-77q-24 0 -37 8.5t-19.5 30.5t-6.5 64t6.5 64
t19.5 30t37 8h264q34 0 48.5 -14.5t14.5 -48.5v-498q0 -78 27 -118t90 -40q58 0 110 48.5t83.5 129.5t31.5 173v163h-107q-24 0 -37 8.5t-19.5 30.5t-6.5 64t6.5 64t19.5 30t37 8h294q34 0 48.5 -14.5zM931 1363.5q16 -14.5 16 -35.5q0 -9 -1 -13q-24 -127 -114 -200.5
t-238 -73.5t-238 73.5t-114 200.5q-1 4 -1 13q0 21 16 35.5t50 23.5q24 7 43 7q32 0 43 -27q23 -64 71.5 -93t129.5 -29t129.5 29t71.5 93q11 27 43 27q19 0 43 -7q34 -9 50 -23.5z" />
    <glyph glyph-name="Uring" unicode="&#x16e;" 
d="M1152 1178.5q13 -8.5 19.5 -30.5t6.5 -64t-6.5 -64t-19.5 -30t-37 -8h-47v-569q0 -138 -55 -236t-157 -148.5t-242 -50.5t-242 50.5t-157 148.5t-55 236v569h-47q-24 0 -37 8t-19.5 30t-6.5 64t6.5 64t19.5 30.5t37 8.5h374q24 0 37 -8.5t19.5 -30.5t6.5 -64t-6.5 -64
t-19.5 -30t-37 -8h-77v-549q0 -115 55 -171.5t149 -56.5t149 56.5t55 171.5v549h-77q-24 0 -37 8t-19.5 30t-6.5 64t6.5 64t19.5 30.5t37 8.5h374q24 0 37 -8.5zM748 1793q60 -34 94 -94t34 -134t-34 -134t-94 -94t-134 -34t-134 34t-94 94t-34 134t34 134t94 94t134 34
t134 -34zM547 1632q-25 -25 -25 -67t25 -67t67 -25t67 25t25 67t-25 67t-67 25t-67 -25z" />
    <glyph glyph-name="uring" unicode="&#x16f;" 
d="M1017.5 909.5q14.5 -14.5 14.5 -48.5v-656h77q24 0 37 -8t19.5 -30t6.5 -64t-6.5 -64t-19.5 -30.5t-37 -8.5h-224q-34 0 -48.5 14.5t-14.5 48.5v145q-132 -230 -330 -230q-91 0 -159.5 40t-105.5 113.5t-37 172.5v415h-77q-24 0 -37 8.5t-19.5 30.5t-6.5 64t6.5 64
t19.5 30t37 8h264q34 0 48.5 -14.5t14.5 -48.5v-498q0 -78 27 -118t90 -40q58 0 110 48.5t83.5 129.5t31.5 173v163h-107q-24 0 -37 8.5t-19.5 30.5t-6.5 64t6.5 64t19.5 30t37 8h294q34 0 48.5 -14.5zM718 1523q60 -34 94 -94t34 -134t-34 -134t-94 -94t-134 -34t-134 34
t-94 94t-34 134t34 134t94 94t134 34t134 -34zM517 1362q-25 -25 -25 -67t25 -67t67 -25t67 25t25 67t-25 67t-67 25t-67 -25z" />
    <glyph glyph-name="Uhungarumlaut" unicode="&#x170;" 
d="M1152 1178.5q13 -8.5 19.5 -30.5t6.5 -64t-6.5 -64t-19.5 -30t-37 -8h-47v-569q0 -138 -55 -236t-157 -148.5t-242 -50.5t-242 50.5t-157 148.5t-55 236v569h-47q-24 0 -37 8t-19.5 30t-6.5 64t6.5 64t19.5 30.5t37 8.5h374q24 0 37 -8.5t19.5 -30.5t6.5 -64t-6.5 -64
t-19.5 -30t-37 -8h-77v-549q0 -115 55 -171.5t149 -56.5t149 56.5t55 171.5v549h-77q-24 0 -37 8t-19.5 30t-6.5 64t6.5 64t19.5 30.5t37 8.5h374q24 0 37 -8.5zM727 1591q0 -15 -14 -27l-265 -240q-18 -16 -47 -16q-28 0 -67 15q-26 10 -39.5 22.5t-13.5 26.5q0 10 8 20
l221 266q19 22 56 22q36 0 90 -24q71 -32 71 -65zM1157 1591q0 -15 -14 -27l-265 -240q-18 -16 -47 -16q-28 0 -67 15q-26 10 -39.5 22.5t-13.5 26.5q0 10 8 20l221 266q19 22 56 22q36 0 90 -24q71 -32 71 -65z" />
    <glyph glyph-name="uhungarumlaut" unicode="&#x171;" 
d="M1017.5 909.5q14.5 -14.5 14.5 -48.5v-656h77q24 0 37 -8t19.5 -30t6.5 -64t-6.5 -64t-19.5 -30.5t-37 -8.5h-224q-34 0 -48.5 14.5t-14.5 48.5v145q-132 -230 -330 -230q-91 0 -159.5 40t-105.5 113.5t-37 172.5v415h-77q-24 0 -37 8.5t-19.5 30.5t-6.5 64t6.5 64
t19.5 30t37 8h264q34 0 48.5 -14.5t14.5 -48.5v-498q0 -78 27 -118t90 -40q58 0 110 48.5t83.5 129.5t31.5 173v163h-107q-24 0 -37 8.5t-19.5 30.5t-6.5 64t6.5 64t19.5 30t37 8h294q34 0 48.5 -14.5zM687 1321q0 -15 -14 -27l-265 -240q-18 -16 -47 -16q-28 0 -67 15
q-26 10 -39.5 22.5t-13.5 26.5q0 10 8 20l221 266q19 22 56 22q36 0 90 -24q71 -32 71 -65zM1117 1321q0 -15 -14 -27l-265 -240q-18 -16 -47 -16q-28 0 -67 15q-26 10 -39.5 22.5t-13.5 26.5q0 10 8 20l221 266q19 22 56 22q36 0 90 -24q71 -32 71 -65z" />
    <glyph glyph-name="Uogonek" unicode="&#x172;" 
d="M1152 1178.5q13 -8.5 19.5 -30.5t6.5 -64t-6.5 -64t-19.5 -30t-37 -8h-47v-569q0 -139 -55 -237t-158 -148q-193 -143 -193 -239q0 -67 88 -67q46 0 120 13q51 8 51 -97q0 -33 -10 -51t-30 -25q-102 -34 -216 -34q-118 0 -182 52t-64 151q0 73 40.5 133t115.5 115
q-129 7 -222 59.5t-143 147.5t-50 227v569h-47q-24 0 -37 8t-19.5 30t-6.5 64t6.5 64t19.5 30.5t37 8.5h374q24 0 37 -8.5t19.5 -30.5t6.5 -64t-6.5 -64t-19.5 -30t-37 -8h-77v-549q0 -115 55 -171.5t149 -56.5t149 56.5t55 171.5v549h-77q-24 0 -37 8t-19.5 30t-6.5 64
t6.5 64t19.5 30.5t37 8.5h374q24 0 37 -8.5z" />
    <glyph glyph-name="uogonek" unicode="&#x173;" 
d="M1175 -413q-10 -18 -30 -25q-102 -34 -216 -34q-118 0 -182 52t-64 151q0 81 49 145.5t138 124.5q-26 3 -37 17.5t-11 44.5v145q-132 -230 -330 -230q-91 0 -159.5 40t-105.5 113.5t-37 172.5v415h-77q-24 0 -37 8.5t-19.5 30.5t-6.5 64t6.5 64t19.5 30t37 8h264
q34 0 48.5 -14.5t14.5 -48.5v-498q0 -78 27 -118t90 -40q58 0 110 48.5t83.5 129.5t31.5 173v163h-107q-24 0 -37 8.5t-19.5 30.5t-6.5 64t6.5 64t19.5 30t37 8h294q34 0 48.5 -14.5t14.5 -48.5v-656h77q24 0 37 -8t19.5 -30t6.5 -64t-6.5 -64t-19.5 -30.5t-37 -8.5h-27
q-156 -124 -156 -211q0 -67 88 -67q46 0 120 13q51 8 51 -97q0 -33 -10 -51z" />
    <glyph glyph-name="Wcircumflex" unicode="&#x174;" 
d="M1222 1178.5q13 -8.5 19.5 -30.5t6.5 -64t-6.5 -64t-19.5 -30t-37 -8h-56l-101 -939q-3 -25 -14 -39t-36 -20t-71 -6q-66 0 -95.5 15t-41.5 50l-160 471l-162 -471q-12 -35 -42 -50t-97 -15q-46 0 -70.5 6t-35 20t-13.5 39l-97 939h-50q-24 0 -37 8t-19.5 30t-6.5 64
t6.5 64t19.5 30.5t37 8.5h394q24 0 37 -8.5t19.5 -30.5t6.5 -64t-6.5 -64t-19.5 -30t-37 -8h-117l53 -584l146 428q7 23 27 35t67 12q50 0 72 -9.5t28 -30.5l147 -435l54 584h-103q-24 0 -37 8t-19.5 30t-6.5 64t6.5 64t19.5 30.5t37 8.5h374q24 0 37 -8.5zM665.5 1674.5
q15.5 -5.5 29.5 -17.5l265 -225q22 -19 22 -42q0 -25 -25 -60q-30 -43 -60 -43q-16 0 -33 11l-240 138l-240 -138q-17 -11 -33 -11q-30 0 -60 43q-25 35 -25 60q0 23 22 42l265 225q14 12 29.5 17.5t41.5 5.5t41.5 -5.5z" />
    <glyph glyph-name="wcircumflex" unicode="&#x175;" 
d="M1222 915.5q13 -8.5 19.5 -30.5t6.5 -64t-6.5 -64t-19.5 -30t-37 -8h-41l-146 -676q-8 -36 -34.5 -50.5t-86.5 -14.5q-58 0 -86 15t-41 50l-140 355l-142 -355q-14 -35 -42 -50t-87 -15q-60 0 -85.5 14.5t-33.5 50.5l-143 676h-34q-24 0 -37 8t-19.5 30t-6.5 64t6.5 64
t19.5 30.5t37 8.5h344q24 0 37 -8.5t19.5 -30.5t6.5 -64t-6.5 -64t-19.5 -30t-37 -8h-85l75 -388l138 339q11 28 33 42.5t63 14.5q43 0 64.5 -12t32.5 -38l137 -346l78 388h-72q-24 0 -37 8t-19.5 30t-6.5 64t6.5 64t19.5 30.5t37 8.5h334q24 0 37 -8.5zM655.5 1404.5
q15.5 -5.5 29.5 -17.5l265 -225q22 -19 22 -42q0 -25 -25 -60q-30 -43 -60 -43q-16 0 -33 11l-240 138l-240 -138q-17 -11 -33 -11q-30 0 -60 43q-25 35 -25 60q0 23 22 42l265 225q14 12 29.5 17.5t41.5 5.5t41.5 -5.5z" />
    <glyph glyph-name="Ycircumflex" unicode="&#x176;" 
d="M1162 1178.5q13 -8.5 19.5 -30.5t6.5 -64t-6.5 -64t-19.5 -30t-37 -8h-44l-342 -523v-254h196q24 0 37 -8.5t19.5 -30.5t6.5 -64t-6.5 -64t-19.5 -30t-37 -8h-642q-24 0 -37 8t-19.5 30t-6.5 64t6.5 64t19.5 30.5t37 8.5h196v255l-340 522h-46q-24 0 -37 8t-19.5 30
t-6.5 64t6.5 64t19.5 30.5t37 8.5h394q24 0 37 -8.5t19.5 -30.5t6.5 -64t-6.5 -64t-19.5 -30t-37 -8h-67l186 -292l188 292h-53q-24 0 -37 8t-19.5 30t-6.5 64t6.5 64t19.5 30.5t37 8.5h374q24 0 37 -8.5zM665.5 1674.5q15.5 -5.5 29.5 -17.5l265 -225q22 -19 22 -42
q0 -25 -25 -60q-30 -43 -60 -43q-16 0 -33 11l-240 138l-240 -138q-17 -11 -33 -11q-30 0 -60 43q-25 35 -25 60q0 23 22 42l265 225q14 12 29.5 17.5t41.5 5.5t41.5 -5.5z" />
    <glyph glyph-name="ycircumflex" unicode="&#x177;" 
d="M1162 915.5q13 -8.5 19.5 -30.5t6.5 -64t-6.5 -64t-19.5 -30t-37 -8h-64l-383 -776q-70 -141 -133.5 -214.5t-145 -104t-210.5 -34.5q-36 -1 -54.5 27t-18.5 102q0 51 13.5 73t38.5 24q79 5 128.5 30t90 79.5t97.5 164.5l-306 629h-75q-24 0 -37 8t-19.5 30t-6.5 64
t6.5 64t19.5 30.5t37 8.5h404q24 0 37 -8.5t19.5 -30.5t6.5 -64t-6.5 -64t-19.5 -30t-37 -8h-60l174 -380l174 380h-54q-24 0 -37 8t-19.5 30t-6.5 64t6.5 64t19.5 30.5t37 8.5h384q24 0 37 -8.5zM671.5 1404.5q15.5 -5.5 29.5 -17.5l265 -225q22 -19 22 -42q0 -25 -25 -60
q-30 -43 -60 -43q-16 0 -33 11l-240 138l-240 -138q-17 -11 -33 -11q-30 0 -60 43q-25 35 -25 60q0 23 22 42l265 225q14 12 29.5 17.5t41.5 5.5t41.5 -5.5z" />
    <glyph glyph-name="Ydieresis" unicode="&#x178;" 
d="M1162 1178.5q13 -8.5 19.5 -30.5t6.5 -64t-6.5 -64t-19.5 -30t-37 -8h-44l-342 -523v-254h196q24 0 37 -8.5t19.5 -30.5t6.5 -64t-6.5 -64t-19.5 -30t-37 -8h-642q-24 0 -37 8t-19.5 30t-6.5 64t6.5 64t19.5 30.5t37 8.5h196v255l-340 522h-46q-24 0 -37 8t-19.5 30
t-6.5 64t6.5 64t19.5 30.5t37 8.5h394q24 0 37 -8.5t19.5 -30.5t6.5 -64t-6.5 -64t-19.5 -30t-37 -8h-67l186 -292l188 292h-53q-24 0 -37 8t-19.5 30t-6.5 64t6.5 64t19.5 30.5t37 8.5h374q24 0 37 -8.5zM490.5 1618.5q28.5 -14.5 28.5 -48.5v-164q0 -34 -26.5 -48.5
t-96.5 -14.5t-98.5 14.5t-28.5 48.5v164q0 35 26 49t96 14q71 0 99.5 -14.5zM930.5 1618.5q28.5 -14.5 28.5 -48.5v-164q0 -34 -26.5 -48.5t-96.5 -14.5t-98.5 14.5t-28.5 48.5v164q0 35 26 49t96 14q71 0 99.5 -14.5z" />
    <glyph glyph-name="Zacute" unicode="&#x179;" 
d="M1054 1178.5q13 -8.5 19.5 -30.5t6.5 -64q0 -61 -23 -92l-574 -777h367v222q0 34 29 48.5t93 14.5q62 0 85 -14t23 -49v-372q0 -34 -15 -49.5t-50 -15.5h-814q-24 0 -37 8t-19.5 30t-6.5 64q0 66 20 93l574 777h-334v-202q0 -34 -29 -48.5t-93 -14.5q-62 0 -85 14t-23 49
v352q0 35 15.5 50t49.5 15h784q24 0 37 -8.5zM807 1714q46 0 103 -75q40 -54 40 -93q0 -32 -24 -44l-407 -205q-10 -6 -23 -6q-36 0 -68 51q-22 35 -22 63t21 43l347 255q16 11 33 11z" />
    <glyph glyph-name="zacute" unicode="&#x17a;" 
d="M1054 916q13 -8 19.5 -30t6.5 -64q0 -27 -7 -45t-25 -37l-523 -535h325v124q0 35 26 49t96 14q47 0 70 -6t30.5 -19t7.5 -38v-264q0 -34 -15 -49.5t-50 -15.5h-814q-24 0 -37 8t-19.5 30t-6.5 64q0 27 7 45t25 37l523 535h-305v-114q0 -35 -26 -49t-96 -14q-47 0 -70 6
t-30.5 19t-7.5 38v254q0 35 15.5 50t49.5 15h794q24 0 37 -8zM797 1444q46 0 103 -75q40 -54 40 -93q0 -32 -24 -44l-407 -205q-10 -6 -23 -6q-36 0 -68 51q-22 35 -22 63t21 43l347 255q16 11 33 11z" />
    <glyph glyph-name="Zdotaccent" unicode="&#x17b;" 
d="M720.5 1618.5q28.5 -14.5 28.5 -48.5v-164q0 -34 -26.5 -48.5t-96.5 -14.5t-98.5 14.5t-28.5 48.5v164q0 35 26 49t96 14q71 0 99.5 -14.5zM1054 1178.5q13 -8.5 19.5 -30.5t6.5 -64q0 -61 -23 -92l-574 -777h367v222q0 34 29 48.5t93 14.5q62 0 85 -14t23 -49v-372
q0 -34 -15 -49.5t-50 -15.5h-814q-24 0 -37 8t-19.5 30t-6.5 64q0 66 20 93l574 777h-334v-202q0 -34 -29 -48.5t-93 -14.5q-62 0 -85 14t-23 49v352q0 35 15.5 50t49.5 15h784q24 0 37 -8.5z" />
    <glyph glyph-name="zdotaccent" unicode="&#x17c;" 
d="M1054 916q13 -8 19.5 -30t6.5 -64q0 -27 -7 -45t-25 -37l-523 -535h325v124q0 35 26 49t96 14q47 0 70 -6t30.5 -19t7.5 -38v-264q0 -34 -15 -49.5t-50 -15.5h-814q-24 0 -37 8t-19.5 30t-6.5 64q0 27 7 45t25 37l523 535h-305v-114q0 -35 -26 -49t-96 -14q-47 0 -70 6
t-30.5 19t-7.5 38v254q0 35 15.5 50t49.5 15h794q24 0 37 -8zM720.5 1348.5q28.5 -14.5 28.5 -48.5v-164q0 -34 -26.5 -48.5t-96.5 -14.5t-98.5 14.5t-28.5 48.5v164q0 35 26 49t96 14q71 0 99.5 -14.5z" />
    <glyph glyph-name="Zcaron" unicode="&#x17d;" 
d="M1054 1178.5q13 -8.5 19.5 -30.5t6.5 -64q0 -61 -23 -92l-574 -777h367v222q0 34 29 48.5t93 14.5q62 0 85 -14t23 -49v-372q0 -34 -15 -49.5t-50 -15.5h-814q-24 0 -37 8t-19.5 30t-6.5 64q0 66 20 93l574 777h-334v-202q0 -34 -29 -48.5t-93 -14.5q-62 0 -85 14t-23 49
v352q0 35 15.5 50t49.5 15h784q24 0 37 -8.5zM580.5 1302.5q-15.5 5.5 -29.5 17.5l-265 225q-22 19 -22 42q0 25 25 60q30 43 60 43q16 0 33 -11l240 -138l240 138q17 11 33 11q30 0 60 -43q25 -35 25 -60q0 -23 -22 -42l-265 -225q-14 -12 -29.5 -17.5t-41.5 -5.5
t-41.5 5.5z" />
    <glyph glyph-name="zcaron" unicode="&#x17e;" 
d="M1054 916q13 -8 19.5 -30t6.5 -64q0 -27 -7 -45t-25 -37l-523 -535h325v124q0 35 26 49t96 14q47 0 70 -6t30.5 -19t7.5 -38v-264q0 -34 -15 -49.5t-50 -15.5h-814q-24 0 -37 8t-19.5 30t-6.5 64q0 27 7 45t25 37l523 535h-305v-114q0 -35 -26 -49t-96 -14q-47 0 -70 6
t-30.5 19t-7.5 38v254q0 35 15.5 50t49.5 15h794q24 0 37 -8zM579.5 1032.5q-15.5 5.5 -29.5 17.5l-265 225q-22 19 -22 42q0 25 25 60q30 43 60 43q16 0 33 -11l240 -138l240 138q17 11 33 11q30 0 60 -43q25 -35 25 -60q0 -23 -22 -42l-265 -225q-14 -12 -29.5 -17.5
t-41.5 -5.5t-41.5 5.5z" />
    <glyph glyph-name="florin" unicode="&#x192;" 
d="M1109 1284q26 -8 39 -24.5t13 -48.5q0 -22 -8 -60q-11 -48 -29.5 -68t-45.5 -20q-7 0 -25 4q-86 23 -166 23q-130 0 -144 -166l-6 -60h237q35 0 49 -23t14 -85t-14 -84.5t-49 -22.5h-256l-48 -548q-16 -186 -116.5 -283t-274.5 -97q-115 0 -224 33q-26 8 -39 24.5
t-13 48.5q0 22 8 60q11 48 29.5 68t45.5 20q7 0 25 -4q86 -23 166 -23q130 0 144 166l47 535h-198q-35 0 -49 22.5t-14 84.5t14 85t49 23h217l7 73q16 186 116.5 283t274.5 97q115 0 224 -33z" />
    <glyph glyph-name="uni0218" unicode="&#x218;" 
d="M1007 1194.5q27 -14.5 27 -48.5v-274q0 -34 -21.5 -48.5t-70.5 -14.5q-33 0 -52 8t-30 24q-47 74 -121 114.5t-171 40.5q-73 0 -114.5 -37t-41.5 -96q0 -29 18 -47.5t52 -32.5q44 -17 151 -35q104 -20 170 -37.5t124 -53.5q160 -97 160 -313q0 -110 -46.5 -192
t-139.5 -128t-229 -46q-167 0 -283 101v-38q0 -34 -24.5 -48.5t-87.5 -14.5q-64 0 -91 14.5t-27 48.5v334q0 34 21.5 48.5t70.5 14.5q35 0 55.5 -9t31.5 -31q54 -103 129 -155t175 -52q88 0 134 36t46 100q0 40 -20.5 67.5t-59.5 46.5q-32 16 -70.5 26t-113.5 26
q-86 18 -142 33t-105 41q-76 40 -119 106.5t-43 172.5t49 188.5t137.5 128.5t202.5 46q80 0 148 -26t118 -74v37q0 34 24.5 48.5t87.5 14.5q64 0 91 -14.5zM458.5 -531.5q-23.5 12.5 -23.5 38.5q0 9 1 14l59 306q2 13 12 20t24 7h206q24 0 24 -23q0 -11 -4 -20l-124 -306
q-10 -25 -33.5 -37t-67.5 -12q-50 0 -73.5 12.5z" />
    <glyph glyph-name="uni0219" unicode="&#x219;" 
d="M997 931.5q27 -14.5 27 -48.5v-211q0 -34 -21.5 -48.5t-70.5 -14.5q-53 0 -73 21q-59 63 -135 89.5t-176 26.5q-59 0 -92.5 -21t-33.5 -56q0 -42 74 -60q39 -10 133 -19q93 -11 154.5 -22t116.5 -33q80 -33 125 -92t45 -156q0 -95 -46.5 -164.5t-136 -107t-215.5 -37.5
q-139 0 -258 71v-8q0 -34 -29 -48.5t-93 -14.5t-91 14.5t-27 48.5v223q0 33 23.5 48t72.5 15q61 0 83 -28q50 -63 128 -92t171 -29q160 0 160 83q0 25 -22.5 40t-66.5 25q-25 5 -116 18q-101 12 -173.5 27.5t-131.5 48.5q-138 76 -138 240q0 87 47 152t129.5 99.5
t185.5 34.5q151 0 268 -73v10q0 34 24.5 48.5t87.5 14.5q64 0 91 -14.5zM458.5 -531.5q-23.5 12.5 -23.5 38.5q0 9 1 14l59 306q2 13 12 20t24 7h206q24 0 24 -23q0 -11 -4 -20l-124 -306q-10 -25 -33.5 -37t-67.5 -12q-50 0 -73.5 12.5z" />
    <glyph glyph-name="uni021A" unicode="&#x21a;" 
d="M1115 1172q15 -15 15 -50v-422q0 -33 -27.5 -48t-84.5 -15q-55 0 -76.5 14.5t-21.5 48.5v272h-181v-767h216q24 0 37 -8.5t19.5 -30.5t6.5 -64t-6.5 -64t-19.5 -30t-37 -8h-682q-24 0 -37 8t-19.5 30t-6.5 64t6.5 64t19.5 30.5t37 8.5h216v767h-181v-272q0 -33 -27.5 -48
t-84.5 -15q-55 0 -76.5 14.5t-21.5 48.5v422q0 35 15.5 50t49.5 15h902q35 0 50 -15zM438.5 -531.5q-23.5 12.5 -23.5 38.5q0 9 1 14l59 306q2 13 12 20t24 7h206q24 0 24 -23q0 -11 -4 -20l-124 -306q-10 -25 -33.5 -37t-67.5 -12q-50 0 -73.5 12.5z" />
    <glyph glyph-name="uni021B" unicode="&#x21b;" 
d="M557.5 1202.5q25.5 -6.5 35.5 -19.5t10 -37v-282h371q35 0 49 -23t14 -85t-14 -84.5t-49 -22.5h-371v-278q0 -166 129 -166q46 0 107.5 20.5t143.5 57.5q22 9 35 9q21 0 39 -17.5t34 -57.5q18 -45 18 -73q0 -22 -10.5 -36.5t-31.5 -25.5q-206 -104 -357 -104
q-174 0 -265.5 97t-91.5 283v291h-193q-35 0 -49 22.5t-14 84.5t14 85t49 23h193v282q0 34 30.5 48.5t101.5 14.5q47 0 72.5 -6.5zM498.5 -531.5q-23.5 12.5 -23.5 38.5q0 9 1 14l59 306q2 13 12 20t24 7h206q24 0 24 -23q0 -11 -4 -20l-124 -306q-10 -25 -33.5 -37
t-67.5 -12q-50 0 -73.5 12.5z" />
    <glyph glyph-name="uni0237" unicode="&#x237;" 
d="M908.5 909.5q14.5 -14.5 14.5 -48.5v-891q0 -186 -91.5 -283t-265.5 -97q-86 0 -178.5 24.5t-183.5 70.5q-45 22 -45 67q0 28 18 70t37 61.5t44 19.5q14 0 35 -8q82 -37 143.5 -57.5t107.5 -20.5q129 0 129 166v736h-383q-24 0 -37 8t-19.5 30t-6.5 64t6.5 64t19.5 30.5
t37 8.5h570q34 0 48.5 -14.5z" />
    <glyph glyph-name="circumflex" unicode="&#x2c6;" 
d="M655.5 1404.5q15.5 -5.5 29.5 -17.5l265 -225q22 -19 22 -42q0 -25 -25 -60q-30 -43 -60 -43q-16 0 -33 11l-240 138l-240 -138q-17 -11 -33 -11q-30 0 -60 43q-25 35 -25 60q0 23 22 42l265 225q14 12 29.5 17.5t41.5 5.5t41.5 -5.5z" />
    <glyph glyph-name="caron" unicode="&#x2c7;" 
d="M572.5 1032.5q-15.5 5.5 -29.5 17.5l-265 225q-22 19 -22 42q0 25 25 60q30 43 60 43q16 0 33 -11l240 -138l240 138q17 11 33 11q30 0 60 -43q25 -35 25 -60q0 -23 -22 -42l-265 -225q-14 -12 -29.5 -17.5t-41.5 -5.5t-41.5 5.5z" />
    <glyph glyph-name="breve" unicode="&#x2d8;" 
d="M951 1363.5q16 -14.5 16 -35.5q0 -9 -1 -13q-24 -127 -114 -200.5t-238 -73.5t-238 73.5t-114 200.5q-1 4 -1 13q0 21 16 35.5t50 23.5q24 7 43 7q32 0 43 -27q23 -64 71.5 -93t129.5 -29t129.5 29t71.5 93q11 27 43 27q19 0 43 -7q34 -9 50 -23.5z" />
    <glyph glyph-name="dotaccent" unicode="&#x2d9;" 
d="M710.5 1348.5q28.5 -14.5 28.5 -48.5v-164q0 -34 -26.5 -48.5t-96.5 -14.5t-98.5 14.5t-28.5 48.5v164q0 35 26 49t96 14q71 0 99.5 -14.5z" />
    <glyph glyph-name="ring" unicode="&#x2da;" 
d="M748 1523q60 -34 94 -94t34 -134t-34 -134t-94 -94t-134 -34t-134 34t-94 94t-34 134t34 134t94 94t134 34t134 -34zM547 1362q-25 -25 -25 -67t25 -67t67 -25t67 25t25 67t-25 67t-67 25t-67 -25z" />
    <glyph glyph-name="ogonek" unicode="&#x2db;" 
d="M592 -211q0 -67 88 -67q46 0 120 13q51 8 51 -97q0 -33 -10 -51t-30 -25q-102 -34 -216 -34q-118 0 -182 52t-64 151q0 90 60 159.5t169 137.5h207q-193 -143 -193 -239z" />
    <glyph glyph-name="tilde" unicode="&#x2dc;" 
d="M558 1359q33 -12 77 -34q36 -18 58.5 -26.5t46.5 -8.5q61 0 129 72q14 14 30 14q29 0 66 -40q36 -40 36 -76q0 -20 -10 -34q-51 -76 -115 -118.5t-133 -42.5q-40 0 -73 12t-77 34q-36 18 -58.5 26.5t-46.5 8.5q-61 0 -129 -72q-14 -14 -30 -14q-29 0 -66 40
q-36 40 -36 76q0 20 10 34q51 76 115 118.5t133 42.5q40 0 73 -12z" />
    <glyph glyph-name="hungarumlaut" unicode="&#x2dd;" 
d="M727 1321q0 -15 -14 -27l-265 -240q-18 -16 -47 -16q-28 0 -67 15q-26 10 -39.5 22.5t-13.5 26.5q0 10 8 20l221 266q19 22 56 22q36 0 90 -24q71 -32 71 -65zM1157 1321q0 -15 -14 -27l-265 -240q-18 -16 -47 -16q-28 0 -67 15q-26 10 -39.5 22.5t-13.5 26.5q0 10 8 20
l221 266q19 22 56 22q36 0 90 -24q71 -32 71 -65z" />
    <glyph glyph-name="uni0326" unicode="&#x326;" horiz-adv-x="0" 
d="M-769.5 -531.5q-23.5 12.5 -23.5 38.5q0 9 1 14l59 306q2 13 12 20t24 7h206q24 0 24 -23q0 -11 -4 -20l-124 -306q-10 -25 -33.5 -37t-67.5 -12q-50 0 -73.5 12.5z" />
    <glyph glyph-name="uni0394" unicode="&#x394;" 
d="M721 1194q35 -15 46 -50l309 -975q7 -21 7 -67q0 -42 -6.5 -64t-19.5 -30t-37 -8h-812q-24 0 -37 8t-19.5 30t-6.5 64q0 46 7 67l313 975q11 36 46 50.5t106 14.5q69 0 104 -15zM614 852l-186 -627h372l-182 627h-4z" />
    <glyph glyph-name="uni03A9" unicode="&#x3a9;" 
d="M903 1140.5q125 -68.5 193.5 -196t68.5 -300.5q0 -125 -51 -228t-146 -181h153q24 0 37 -10t19.5 -35.5t6.5 -72.5t-6.5 -72.5t-19.5 -35t-37 -9.5h-370q-24 0 -37 12.5t-19.5 45.5t-6.5 95q0 52 5.5 76t22.5 35q95 63 138 156t43 224q0 164 -72 251t-211 87t-211 -87
t-72 -251q0 -131 43 -224t138 -156q17 -11 22.5 -35t5.5 -76q0 -62 -6.5 -95t-19.5 -45.5t-37 -12.5h-370q-24 0 -37 9.5t-19.5 35t-6.5 72.5t6.5 72.5t19.5 35.5t37 10h153q-95 78 -146 181t-51 228q0 173 68.5 300.5t193.5 196t289 68.5t289 -68.5z" />
    <glyph glyph-name="uni03BC" unicode="&#x3bc;" 
d="M1041.5 909.5q14.5 -14.5 14.5 -48.5v-798q0 -34 -14.5 -48.5t-48.5 -14.5h-84q-34 0 -48.5 14.5t-14.5 48.5v115q-66 -94 -153 -147t-187 -53q-34 0 -72 10v-313q0 -34 -14.5 -48.5t-48.5 -14.5h-124q-34 0 -48.5 14.5t-14.5 48.5v1186q0 34 14.5 48.5t48.5 14.5h124
q34 0 48.5 -14.5t14.5 -48.5v-488q0 -158 137 -158q57 0 111.5 40t89 107.5t34.5 143.5v355q0 34 14.5 48.5t48.5 14.5h124q34 0 48.5 -14.5z" />
    <glyph glyph-name="pi" unicode="&#x3c0;" 
d="M1144 900.5q14 -23.5 14 -89.5t-14 -89t-49 -23h-83v-636q0 -34 -14.5 -48.5t-48.5 -14.5h-124q-34 0 -48.5 14.5t-14.5 48.5v636h-296v-636q0 -34 -14.5 -48.5t-48.5 -14.5h-124q-34 0 -48.5 14.5t-14.5 48.5v636h-83q-35 0 -49 23t-14 89t14 89.5t49 23.5h962
q35 0 49 -23.5z" />
    <glyph glyph-name="Wgrave" unicode="&#x1e80;" 
d="M1222 1178.5q13 -8.5 19.5 -30.5t6.5 -64t-6.5 -64t-19.5 -30t-37 -8h-56l-101 -939q-3 -25 -14 -39t-36 -20t-71 -6q-66 0 -95.5 15t-41.5 50l-160 471l-162 -471q-12 -35 -42 -50t-97 -15q-46 0 -70.5 6t-35 20t-13.5 39l-97 939h-50q-24 0 -37 8t-19.5 30t-6.5 64
t6.5 64t19.5 30.5t37 8.5h394q24 0 37 -8.5t19.5 -30.5t6.5 -64t-6.5 -64t-19.5 -30t-37 -8h-117l53 -584l146 428q7 23 27 35t67 12q50 0 72 -9.5t28 -30.5l147 -435l54 584h-103q-24 0 -37 8t-19.5 30t-6.5 64t6.5 64t19.5 30.5t37 8.5h374q24 0 37 -8.5zM810 1405
q0 -28 -22 -63q-32 -51 -68 -51q-12 0 -23 6l-407 205q-24 12 -24 44q0 39 40 93q57 75 103 75q17 0 33 -11l347 -255q21 -15 21 -43z" />
    <glyph glyph-name="wgrave" unicode="&#x1e81;" 
d="M1222 915.5q13 -8.5 19.5 -30.5t6.5 -64t-6.5 -64t-19.5 -30t-37 -8h-41l-146 -676q-8 -36 -34.5 -50.5t-86.5 -14.5q-58 0 -86 15t-41 50l-140 355l-142 -355q-14 -35 -42 -50t-87 -15q-60 0 -85.5 14.5t-33.5 50.5l-143 676h-34q-24 0 -37 8t-19.5 30t-6.5 64t6.5 64
t19.5 30.5t37 8.5h344q24 0 37 -8.5t19.5 -30.5t6.5 -64t-6.5 -64t-19.5 -30t-37 -8h-85l75 -388l138 339q11 28 33 42.5t63 14.5q43 0 64.5 -12t32.5 -38l137 -346l78 388h-72q-24 0 -37 8t-19.5 30t-6.5 64t6.5 64t19.5 30.5t37 8.5h334q24 0 37 -8.5zM810 1135
q0 -28 -22 -63q-32 -51 -68 -51q-12 0 -23 6l-407 205q-24 12 -24 44q0 39 40 93q57 75 103 75q17 0 33 -11l347 -255q21 -15 21 -43z" />
    <glyph glyph-name="Wacute" unicode="&#x1e82;" 
d="M1222 1178.5q13 -8.5 19.5 -30.5t6.5 -64t-6.5 -64t-19.5 -30t-37 -8h-56l-101 -939q-3 -25 -14 -39t-36 -20t-71 -6q-66 0 -95.5 15t-41.5 50l-160 471l-162 -471q-12 -35 -42 -50t-97 -15q-46 0 -70.5 6t-35 20t-13.5 39l-97 939h-50q-24 0 -37 8t-19.5 30t-6.5 64
t6.5 64t19.5 30.5t37 8.5h394q24 0 37 -8.5t19.5 -30.5t6.5 -64t-6.5 -64t-19.5 -30t-37 -8h-117l53 -584l146 428q7 23 27 35t67 12q50 0 72 -9.5t28 -30.5l147 -435l54 584h-103q-24 0 -37 8t-19.5 30t-6.5 64t6.5 64t19.5 30.5t37 8.5h374q24 0 37 -8.5zM819 1714
q46 0 103 -75q40 -54 40 -93q0 -32 -24 -44l-407 -205q-10 -6 -23 -6q-36 0 -68 51q-22 35 -22 63t21 43l347 255q16 11 33 11z" />
    <glyph glyph-name="wacute" unicode="&#x1e83;" 
d="M1222 915.5q13 -8.5 19.5 -30.5t6.5 -64t-6.5 -64t-19.5 -30t-37 -8h-41l-146 -676q-8 -36 -34.5 -50.5t-86.5 -14.5q-58 0 -86 15t-41 50l-140 355l-142 -355q-14 -35 -42 -50t-87 -15q-60 0 -85.5 14.5t-33.5 50.5l-143 676h-34q-24 0 -37 8t-19.5 30t-6.5 64t6.5 64
t19.5 30.5t37 8.5h344q24 0 37 -8.5t19.5 -30.5t6.5 -64t-6.5 -64t-19.5 -30t-37 -8h-85l75 -388l138 339q11 28 33 42.5t63 14.5q43 0 64.5 -12t32.5 -38l137 -346l78 388h-72q-24 0 -37 8t-19.5 30t-6.5 64t6.5 64t19.5 30.5t37 8.5h334q24 0 37 -8.5zM819 1444
q46 0 103 -75q40 -54 40 -93q0 -32 -24 -44l-407 -205q-10 -6 -23 -6q-36 0 -68 51q-22 35 -22 63t21 43l347 255q16 11 33 11z" />
    <glyph glyph-name="Wdieresis" unicode="&#x1e84;" 
d="M1222 1178.5q13 -8.5 19.5 -30.5t6.5 -64t-6.5 -64t-19.5 -30t-37 -8h-56l-101 -939q-3 -25 -14 -39t-36 -20t-71 -6q-66 0 -95.5 15t-41.5 50l-160 471l-162 -471q-12 -35 -42 -50t-97 -15q-46 0 -70.5 6t-35 20t-13.5 39l-97 939h-50q-24 0 -37 8t-19.5 30t-6.5 64
t6.5 64t19.5 30.5t37 8.5h394q24 0 37 -8.5t19.5 -30.5t6.5 -64t-6.5 -64t-19.5 -30t-37 -8h-117l53 -584l146 428q7 23 27 35t67 12q50 0 72 -9.5t28 -30.5l147 -435l54 584h-103q-24 0 -37 8t-19.5 30t-6.5 64t6.5 64t19.5 30.5t37 8.5h374q24 0 37 -8.5zM500.5 1618.5
q28.5 -14.5 28.5 -48.5v-164q0 -34 -26.5 -48.5t-96.5 -14.5t-98.5 14.5t-28.5 48.5v164q0 35 26 49t96 14q71 0 99.5 -14.5zM940.5 1618.5q28.5 -14.5 28.5 -48.5v-164q0 -34 -26.5 -48.5t-96.5 -14.5t-98.5 14.5t-28.5 48.5v164q0 35 26 49t96 14q71 0 99.5 -14.5z" />
    <glyph glyph-name="wdieresis" unicode="&#x1e85;" 
d="M1222 915.5q13 -8.5 19.5 -30.5t6.5 -64t-6.5 -64t-19.5 -30t-37 -8h-41l-146 -676q-8 -36 -34.5 -50.5t-86.5 -14.5q-58 0 -86 15t-41 50l-140 355l-142 -355q-14 -35 -42 -50t-87 -15q-60 0 -85.5 14.5t-33.5 50.5l-143 676h-34q-24 0 -37 8t-19.5 30t-6.5 64t6.5 64
t19.5 30.5t37 8.5h344q24 0 37 -8.5t19.5 -30.5t6.5 -64t-6.5 -64t-19.5 -30t-37 -8h-85l75 -388l138 339q11 28 33 42.5t63 14.5q43 0 64.5 -12t32.5 -38l137 -346l78 388h-72q-24 0 -37 8t-19.5 30t-6.5 64t6.5 64t19.5 30.5t37 8.5h334q24 0 37 -8.5zM490.5 1348.5
q28.5 -14.5 28.5 -48.5v-164q0 -34 -26.5 -48.5t-96.5 -14.5t-98.5 14.5t-28.5 48.5v164q0 35 26 49t96 14q71 0 99.5 -14.5zM930.5 1348.5q28.5 -14.5 28.5 -48.5v-164q0 -34 -26.5 -48.5t-96.5 -14.5t-98.5 14.5t-28.5 48.5v164q0 35 26 49t96 14q71 0 99.5 -14.5z" />
    <glyph glyph-name="Ygrave" unicode="&#x1ef2;" 
d="M1162 1178.5q13 -8.5 19.5 -30.5t6.5 -64t-6.5 -64t-19.5 -30t-37 -8h-44l-342 -523v-254h196q24 0 37 -8.5t19.5 -30.5t6.5 -64t-6.5 -64t-19.5 -30t-37 -8h-642q-24 0 -37 8t-19.5 30t-6.5 64t6.5 64t19.5 30.5t37 8.5h196v255l-340 522h-46q-24 0 -37 8t-19.5 30
t-6.5 64t6.5 64t19.5 30.5t37 8.5h394q24 0 37 -8.5t19.5 -30.5t6.5 -64t-6.5 -64t-19.5 -30t-37 -8h-67l186 -292l188 292h-53q-24 0 -37 8t-19.5 30t-6.5 64t6.5 64t19.5 30.5t37 8.5h374q24 0 37 -8.5zM820 1405q0 -28 -22 -63q-32 -51 -68 -51q-12 0 -23 6l-407 205
q-24 12 -24 44q0 39 40 93q57 75 103 75q17 0 33 -11l347 -255q21 -15 21 -43z" />
    <glyph glyph-name="ygrave" unicode="&#x1ef3;" 
d="M1162 915.5q13 -8.5 19.5 -30.5t6.5 -64t-6.5 -64t-19.5 -30t-37 -8h-64l-383 -776q-70 -141 -133.5 -214.5t-145 -104t-210.5 -34.5q-36 -1 -54.5 27t-18.5 102q0 51 13.5 73t38.5 24q79 5 128.5 30t90 79.5t97.5 164.5l-306 629h-75q-24 0 -37 8t-19.5 30t-6.5 64
t6.5 64t19.5 30.5t37 8.5h404q24 0 37 -8.5t19.5 -30.5t6.5 -64t-6.5 -64t-19.5 -30t-37 -8h-60l174 -380l174 380h-54q-24 0 -37 8t-19.5 30t-6.5 64t6.5 64t19.5 30.5t37 8.5h384q24 0 37 -8.5zM820 1135q0 -28 -22 -63q-32 -51 -68 -51q-12 0 -23 6l-407 205
q-24 12 -24 44q0 39 40 93q57 75 103 75q17 0 33 -11l347 -255q21 -15 21 -43z" />
    <glyph glyph-name="uni2011" unicode="&#x2011;" 
d="M1032 686q13 -9 19.5 -33t6.5 -71t-6.5 -71t-19.5 -32.5t-37 -8.5h-762q-24 0 -37 8.5t-19.5 32.5t-6.5 71t6.5 71t19.5 33t37 9h762q24 0 37 -9z" />
    <glyph glyph-name="endash" unicode="&#x2013;" 
d="M1032 686q13 -9 19.5 -33t6.5 -71t-6.5 -71t-19.5 -32.5t-37 -8.5h-762q-24 0 -37 8.5t-19.5 32.5t-6.5 71t6.5 71t19.5 33t37 9h762q24 0 37 -9z" />
    <glyph glyph-name="emdash" unicode="&#x2014;" 
d="M1232 686q13 -9 19.5 -33t6.5 -71t-6.5 -71t-19.5 -32.5t-37 -8.5h-1162q-24 0 -37 8.5t-19.5 32.5t-6.5 71t6.5 71t19.5 33t37 9h1162q24 0 37 -9z" />
    <glyph glyph-name="quoteleft" unicode="&#x2018;" 
d="M388 718q-9 9 -9 24t7 30l207 467q16 37 46 52.5t80 15.5q43 0 63 -14t20 -46q0 -11 -3 -26l-90 -472q-4 -19 -17.5 -29.5t-34.5 -10.5h-243q-17 0 -26 9z" />
    <glyph glyph-name="quoteright" unicode="&#x2019;" 
d="M825 1260q9 -9 9 -24t-7 -30l-207 -467q-16 -37 -46 -52.5t-80 -15.5q-43 0 -63 14t-20 46q0 11 3 26l90 472q4 19 17.5 29.5t34.5 10.5h243q17 0 26 -9z" />
    <glyph glyph-name="quotesinglbase" unicode="&#x201a;" 
d="M825 295q9 -9 9 -24t-7 -30l-207 -467q-16 -37 -46 -52.5t-80 -15.5q-43 0 -63 14t-20 46q0 11 3 26l90 472q4 19 17.5 29.5t34.5 10.5h243q17 0 26 -9z" />
    <glyph glyph-name="quotedblleft" unicode="&#x201c;" 
d="M108 718q-9 9 -9 24t7 30l207 467q16 37 46 52.5t80 15.5q43 0 63 -14t20 -46q0 -11 -3 -26l-90 -472q-4 -19 -17.5 -29.5t-34.5 -10.5h-243q-17 0 -26 9zM668 718q-9 9 -9 24t7 30l207 467q16 37 46 52.5t80 15.5q43 0 63 -14t20 -46q0 -11 -3 -26l-90 -472
q-4 -19 -17.5 -29.5t-34.5 -10.5h-243q-17 0 -26 9z" />
    <glyph glyph-name="quotedblright" unicode="&#x201d;" 
d="M545 1260q9 -9 9 -24t-7 -30l-207 -467q-16 -37 -46 -52.5t-80 -15.5q-43 0 -63 14t-20 46q0 11 3 26l90 472q4 19 17.5 29.5t34.5 10.5h243q17 0 26 -9zM1105 1260q9 -9 9 -24t-7 -30l-207 -467q-16 -37 -46 -52.5t-80 -15.5q-43 0 -63 14t-20 46q0 11 3 26l90 472
q4 19 17.5 29.5t34.5 10.5h243q17 0 26 -9z" />
    <glyph glyph-name="quotedblbase" unicode="&#x201e;" 
d="M1105 295q9 -9 9 -24t-7 -30l-207 -467q-16 -37 -46 -52.5t-80 -15.5q-43 0 -63 14t-20 46q0 11 3 26l90 472q4 19 17.5 29.5t34.5 10.5h243q17 0 26 -9zM545 295q9 -9 9 -24t-7 -30l-207 -467q-16 -37 -46 -52.5t-80 -15.5q-43 0 -63 14t-20 46q0 11 3 26l90 472
q4 19 17.5 29.5t34.5 10.5h243q17 0 26 -9z" />
    <glyph glyph-name="dagger" unicode="&#x2020;" 
d="M685 1202.5q24 -6.5 32.5 -19.5t8.5 -37v-222h189q24 0 37 -9t19.5 -33t6.5 -71t-6.5 -71t-19.5 -32.5t-37 -8.5h-189v-388q0 -24 -8.5 -37t-32.5 -19.5t-71 -6.5t-71 6.5t-33 19.5t-9 37v388h-188q-24 0 -37 8.5t-19.5 32.5t-6.5 71t6.5 71t19.5 33t37 9h188v222
q0 24 9 37t33 19.5t71 6.5t71 -6.5z" />
    <glyph glyph-name="daggerdbl" unicode="&#x2021;" 
d="M685 1202.5q24 -6.5 32.5 -19.5t8.5 -37v-142h189q24 0 37 -9t19.5 -33t6.5 -71t-6.5 -71t-19.5 -32.5t-37 -8.5h-189v-181h189q24 0 37 -9t19.5 -33t6.5 -71t-6.5 -71t-19.5 -32.5t-37 -8.5h-189v-142q0 -24 -8.5 -37t-32.5 -19.5t-71 -6.5t-71 6.5t-33 19.5t-9 37v142
h-188q-24 0 -37 8.5t-19.5 32.5t-6.5 71t6.5 71t19.5 33t37 9h188v181h-188q-24 0 -37 8.5t-19.5 32.5t-6.5 71t6.5 71t19.5 33t37 9h188v142q0 24 9 37t33 19.5t71 6.5t71 -6.5z" />
    <glyph glyph-name="bullet" unicode="&#x2022;" 
d="M809 833q60 -25 60 -83v-332q0 -58 -60 -83t-195 -25t-195 25t-60 83v332q0 58 60 83t195 25t195 -25z" />
    <glyph glyph-name="ellipsis" unicode="&#x2026;" 
d="M309.5 275.5q29.5 -14.5 29.5 -48.5v-174q0 -34 -29.5 -48.5t-95.5 -14.5t-95.5 14.5t-29.5 48.5v174q0 34 29.5 48.5t95.5 14.5t95.5 -14.5zM709.5 275.5q29.5 -14.5 29.5 -48.5v-174q0 -34 -29.5 -48.5t-95.5 -14.5t-95.5 14.5t-29.5 48.5v174q0 34 29.5 48.5
t95.5 14.5t95.5 -14.5zM1109.5 275.5q29.5 -14.5 29.5 -48.5v-174q0 -34 -29.5 -48.5t-95.5 -14.5t-95.5 14.5t-29.5 48.5v174q0 34 29.5 48.5t95.5 14.5t95.5 -14.5z" />
    <glyph glyph-name="perthousand" unicode="&#x2030;" 
d="M461 1172q63 -37 100 -100t37 -137t-37 -137t-100 -100t-137 -37t-137 37t-100 100t-37 137t37 137t100 100t137 37t137 -37zM1024 1103q14 0 31.5 -11.5t42.5 -37.5q44 -45 44 -73q0 -19 -22 -41l-877 -834q-23 -21 -40 -21q-14 0 -31.5 11.5t-41.5 37.5q-45 48 -45 75
q0 17 23 40l877 834q20 20 39 20zM262.5 996.5q-25.5 -25.5 -25.5 -61.5t25.5 -61.5t61.5 -25.5t61.5 25.5t25.5 61.5t-25.5 61.5t-61.5 25.5t-61.5 -25.5zM1402 489q63 -37 100 -100t37 -137t-37 -137t-100 -100t-137 -37q-54 0 -100 20t-81 57q-34 -37 -80 -57t-100 -20
q-74 0 -137 37t-100 100t-37 137t37 137t100 100t137 37q53 0 99.5 -20.5t80.5 -56.5q35 36 81 56.5t100 20.5q74 0 137 -37zM842.5 313.5q-25.5 -25.5 -25.5 -61.5t25.5 -61.5t61.5 -25.5t61.5 25.5t25.5 61.5t-25.5 61.5t-61.5 25.5t-61.5 -25.5zM1203.5 313.5
q-25.5 -25.5 -25.5 -61.5t25.5 -61.5t61.5 -25.5t61.5 25.5t25.5 61.5t-25.5 61.5t-61.5 25.5t-61.5 -25.5z" />
    <glyph glyph-name="minute" unicode="&#x2032;" 
d="M859.5 1145.5q26.5 -22.5 26.5 -44.5q0 -14 -10 -26l-341 -381q-22 -24 -56 -24q-19 0 -46 10q-47 18 -47 51q0 14 7 27l201 406q10 20 28.5 30t49.5 10q41 0 105 -19q56 -17 82.5 -39.5z" />
    <glyph glyph-name="second" unicode="&#x2033;" 
d="M639.5 1145.5q26.5 -22.5 26.5 -44.5q0 -14 -10 -26l-341 -381q-22 -24 -56 -24q-19 0 -46 10q-47 18 -47 51q0 14 7 27l201 406q10 20 28.5 30t49.5 10q41 0 105 -19q56 -17 82.5 -39.5zM1079.5 1145.5q26.5 -22.5 26.5 -44.5q0 -14 -10 -26l-341 -381q-22 -24 -56 -24
q-19 0 -46 10q-47 18 -47 51q0 14 7 27l201 406q10 20 28.5 30t49.5 10q41 0 105 -19q56 -17 82.5 -39.5z" />
    <glyph glyph-name="guilsinglleft" unicode="&#x2039;" 
d="M682 946q35 0 92 -39q65 -44 65 -86q0 -18 -14 -35l-209 -250l209 -251q14 -17 14 -35q0 -42 -65 -86q-57 -39 -92 -39q-25 0 -40 19l-279 366q-9 12 -9 26q0 15 9 25l279 366q15 19 40 19z" />
    <glyph glyph-name="guilsinglright" unicode="&#x203a;" 
d="M874 536q0 -14 -9 -26l-279 -366q-15 -19 -40 -19q-35 0 -92 39q-65 44 -65 86q0 18 14 35l209 251l-209 250q-14 17 -14 35q0 42 65 86q57 39 92 39q25 0 40 -19l279 -366q9 -10 9 -25z" />
    <glyph glyph-name="fraction" unicode="&#x2044;" 
d="M1062 855q27 0 56 -45q24 -36 24 -58q0 -19 -20 -31l-937 -521q-12 -5 -20 -5q-27 0 -56 45q-24 36 -24 58q0 19 20 31l937 521q12 5 20 5z" />
    <glyph glyph-name="uni2074" unicode="&#x2074;" 
d="M808.5 1319q27.5 -15 27.5 -41v-445h90q27 0 39 -20t12 -64t-12 -64t-39 -20h-90v-142q0 -25 -18.5 -36.5t-68.5 -11.5q-57 0 -82.5 12t-25.5 36v142h-347q-15 0 -30 18t-24.5 46.5t-9.5 55.5q0 17 4 29t13 24l371 453q17 22 43 32.5t67 10.5q53 0 80.5 -15zM461 833h180
l6 239z" />
    <glyph glyph-name="franc" unicode="&#x20a3;" 
d="M1105 1172q15 -15 15 -50v-252q0 -34 -29 -48.5t-93 -14.5q-62 0 -85 14t-23 49v102h-390v-245h304q35 0 49 -23t14 -85t-14 -84.5t-49 -22.5h-304v-88h385q34 0 48.5 -15.5t14.5 -52.5t-14.5 -52.5t-48.5 -15.5h-385v-83h217q24 0 37 -8.5t19.5 -30.5t6.5 -64t-6.5 -64
t-19.5 -30t-37 -8h-594q-24 0 -37 8t-19.5 30t-6.5 64t6.5 64t19.5 30.5t37 8.5h127v83h-157q-34 0 -48.5 15.5t-14.5 52.5t14.5 52.5t48.5 15.5h157v558h-127q-24 0 -37 8t-19.5 30t-6.5 64t6.5 64t19.5 30.5t37 8.5h932q35 0 50 -15z" />
    <glyph glyph-name="uni20A9" unicode="&#x20a9;" 
d="M1232 757q13 -7 19.5 -27t6.5 -59t-6.5 -58.5t-19.5 -26.5t-37 -7h-109l-58 -536q-3 -25 -14 -39t-36 -20t-71 -6q-66 0 -95.5 15t-41.5 50l-160 471l-162 -471q-12 -35 -42 -50t-97 -15q-46 0 -70.5 6t-35 20t-13.5 39l-55 536h-102q-24 0 -37 7t-19.5 26.5t-6.5 58.5
t6.5 59t19.5 27t37 7h83l-23 218h-50q-24 0 -37 8t-19.5 30t-6.5 64t6.5 64t19.5 30.5t37 8.5h394q24 0 37 -8.5t19.5 -30.5t6.5 -64t-6.5 -64t-19.5 -30t-37 -8h-117l20 -218h158l21 62q7 23 27 35t67 12q50 0 72 -9.5t28 -30.5l23 -69h158l20 218h-103q-24 0 -37 8
t-19.5 30t-6.5 64t6.5 64t19.5 30.5t37 8.5h374q24 0 37 -8.5t19.5 -30.5t6.5 -64t-6.5 -64t-19.5 -30t-37 -8h-56l-23 -218h89q24 0 37 -7zM373 398l62 181h-78zM860 398l17 181h-78z" />
    <glyph glyph-name="Euro" unicode="&#x20ac;" 
d="M1101 1195q23 -14 23 -49v-384q0 -34 -30.5 -48.5t-101.5 -14.5q-47 0 -72.5 6.5t-35.5 19.5t-10 37q0 99 -53 159.5t-147 60.5q-71 0 -117 -33t-71 -99h189q35 0 49 -19t14 -74q0 -54 -14 -73t-49 -19h-218q-3 -33 -3 -66q0 -42 4 -77h217q35 0 49 -19t14 -74
q0 -54 -14 -73t-49 -19h-185q55 -132 194 -132q81 0 159.5 24t171.5 71q16 8 30 8q47 0 78 -83q14 -38 14 -68q0 -51 -46 -73q-104 -52 -211 -79t-206 -27q-173 0 -291 93.5t-167 265.5h-93q-35 0 -49 19t-14 73q0 55 14 74t49 19h67q-3 36 -3 71q0 36 3 72h-67
q-35 0 -49 19t-14 73q0 55 14 74t49 19h92q48 170 160 264.5t269 94.5q85 0 147.5 -32.5t102.5 -92.5v62q0 34 29 48.5t93 14.5q62 0 85 -14z" />
    <glyph glyph-name="trademark" unicode="&#x2122;" 
d="M1236 1307q19 -15 21 -50l30 -444q2 -36 -13 -50.5t-60 -14.5t-63 15t-20 50l-10 217l-91 -165q-12 -23 -31.5 -35t-40.5 -12t-40.5 12t-31.5 35l-92 165l-9 -217q-2 -35 -20 -50t-63 -15t-60 14.5t-13 50.5l30 444q2 35 21 50t64 15q33 0 49 -6.5t25 -22.5l140 -256
l140 256q9 16 25 22.5t49 6.5q45 0 64 -15zM564 1296.5q14 -15.5 14 -62.5t-13.5 -62t-49.5 -15h-121v-344q0 -36 -16 -50.5t-64 -14.5t-64 14.5t-16 50.5v344h-121q-36 0 -49.5 15t-13.5 62t14 62.5t49 15.5h402q35 0 49 -15.5z" />
    <glyph glyph-name="partialdiff" unicode="&#x2202;" 
d="M851 1156q96 -53 151.5 -160.5t55.5 -264.5q0 -88 -17 -183t-48 -188q-66 -194 -182 -288.5t-285 -94.5q-115 0 -200.5 44.5t-132 128t-46.5 199.5t50 205t138 138t197 49q88 0 159 -34t118 -98q7 50 7 99q0 137 -59.5 206t-171.5 69q-59 0 -141 -22q-10 -2 -14 -2
q-39 0 -66 86q-11 38 -11 59q0 26 13.5 41.5t40.5 24.5q115 39 224 39q124 0 220 -53zM437.5 468.5q-46.5 -44.5 -46.5 -120.5q0 -65 39.5 -104t104.5 -38q82 1 135 45t87 136q-26 57 -76 91.5t-116 34.5q-81 0 -127.5 -44.5z" />
    <glyph glyph-name="product" unicode="&#x220f;" 
d="M1053.5 1172.5q14.5 -14.5 14.5 -48.5v-1061q0 -34 -14.5 -48.5t-48.5 -14.5h-124q-34 0 -48.5 14.5t-14.5 48.5v889h-408v-889q0 -34 -14.5 -48.5t-48.5 -14.5h-124q-34 0 -48.5 14.5t-14.5 48.5v1061q0 34 14.5 48.5t48.5 14.5h782q34 0 48.5 -14.5z" />
    <glyph glyph-name="summation" unicode="&#x2211;" 
d="M1004 1177q13 -10 19.5 -35.5t6.5 -72.5t-6.5 -72.5t-19.5 -35t-37 -9.5h-421l254 -314q11 -14 11 -30q0 -17 -11 -31l-275 -342h462q24 0 37 -10t19.5 -35.5t6.5 -72.5t-6.5 -72.5t-19.5 -35t-37 -9.5h-754q-24 0 -37 8.5t-19.5 30.5t-6.5 64q0 27 3 44.5t12 28.5
l345 431l-325 404q-9 11 -12 28.5t-3 44.5q0 42 6.5 64t19.5 30.5t37 8.5h714q24 0 37 -10z" />
    <glyph glyph-name="minus" unicode="&#x2212;" 
d="M1032 686q13 -9 19.5 -33t6.5 -71t-6.5 -71t-19.5 -32.5t-37 -8.5h-762q-24 0 -37 8.5t-19.5 32.5t-6.5 71t6.5 71t19.5 33t37 9h762q24 0 37 -9z" />
    <glyph glyph-name="uni2215" unicode="&#x2215;" 
d="M1022 1591q45 -22 45 -57q0 -5 -4 -19l-679 -1843q-16 -43 -82 -43q-67 0 -112.5 22.5t-45.5 56.5q0 7 4 19l679 1843q16 43 82 43q68 0 113 -22z" />
    </font>
</defs>
</svg>
