<?xml version="1.0" standalone="no"?>
<!DOCTYPE svg PUBLIC "-//W3C//DTD SVG 1.1//EN" "http://www.w3.org/Graphics/SVG/1.1/DTD/svg11.dtd" >
<svg xmlns="http://www.w3.org/2000/svg" xmlns:xlink="http://www.w3.org/1999/xlink" version="1.1">
<metadata>
Created by FontForge 20170731 at Thu Nov 21 07:34:32 2019
 By Aleksey,,,
Copyright 2015 The Courier Prime Project Authors (https://github.com/quoteunquoteapps/CourierPrime).
</metadata>
<defs>
<font id="CourierPrime-Italic" horiz-adv-x="1228" >
  <font-face 
    font-family="Courier Prime"
    font-weight="400"
    font-style="italic"
    font-stretch="normal"
    units-per-em="2048"
    panose-1="0 0 5 9 0 0 0 0 0 0"
    ascent="1638"
    descent="-410"
    x-height="924"
    cap-height="1187"
    bbox="-922 -525 1584 1827"
    underline-thickness="130"
    underline-position="-380"
    slope="-10"
    unicode-range="U+000D-FB02"
  />
<missing-glyph 
d="M1217 1311.5q13 -10.5 13 -34.5q0 -7 -2 -23l-261 -1469q-6 -37 -23 -52.5t-51 -15.5h-821q-28 0 -41 10.5t-13 34.5q0 7 2 23l261 1469q6 37 23 52.5t51 15.5h821q28 0 41 -10.5zM868 -181l248 1401h-736l-248 -1401h736zM440 923l-2 8q0 14 17 24t38 10q18 0 29.5 -5.5
t14.5 -15.5l106 -335l225 335q7 10 20.5 15.5t31.5 5.5q19 0 35 -8.5t16 -20.5q0 -5 -5 -13l-290 -412l146 -406l2 -8q0 -14 -17 -23t-39 -9q-37 0 -43 19l-107 341l-224 -341q-13 -19 -51 -19q-20 0 -36 7.5t-16 19.5q0 5 5 13l290 419z" />
    <glyph glyph-name="fi" unicode="fi" 
d="M1310 96q0 -33 -42 -56q-54 -30 -106.5 -46t-109.5 -16q-119 0 -184 66.5t-65 184.5q0 42 13 112l73 399h-414l-146 -831q-27 -153 -118 -236t-239 -83q-65 0 -122 15.5t-120 52.5q-28 16 -28 44q0 22 19 53q26 41 58 41q17 0 30 -9q43 -27 82 -39t94 -12q82 0 131 45.5
t65 140.5l141 816h-198q-28 0 -40.5 10t-12.5 34q0 15 2 24q7 37 24 52.5t51 15.5h198l19 93q34 167 136.5 258.5t267.5 91.5q137 0 257 -51q43 -19 43 -58q0 -14 -6 -34q-19 -55 -57 -55q-10 0 -25 5q-117 47 -228 47q-102 0 -159.5 -55.5t-80.5 -161.5l-17 -78h501
q28 0 40.5 -10.5t12.5 -34.5q0 -15 -2 -24l-88 -497q-7 -42 -7 -66q0 -63 28.5 -91.5t93.5 -28.5q26 0 49 8t58 24l33 15q18 8 30 8q15 0 27 -10.5t26 -33.5q12 -22 12 -39z" />
    <glyph glyph-name="fl" unicode="fl" 
d="M1301 113q0 -35 -38 -58q-61 -36 -119 -56.5t-125 -20.5q-78 0 -136.5 29.5t-90.5 83t-32 123.5q0 49 14 133l138 791q-103 33 -184 33q-104 0 -168.5 -57t-86.5 -160l-17 -78h230q28 0 40.5 -11t12.5 -35q0 -6 -2 -24q-6 -37 -23 -51.5t-52 -14.5h-227l-146 -831
q-27 -153 -118 -236t-239 -83q-65 0 -122 15.5t-120 52.5q-28 16 -28 44q0 22 19 53q26 41 58 41q16 0 30 -9q43 -27 82 -39t94 -12q82 0 131 45.5t65 140.5l141 816h-168q-28 0 -40.5 10t-12.5 34q0 15 2 24q7 37 24 52.5t51 15.5h168l19 93q34 165 143 257.5t276 92.5
q72 0 145 -17t132 -42q26 -11 37.5 -27.5t11.5 -42.5q0 -13 -3 -28l-150 -850q-7 -44 -7 -74q0 -53 30.5 -82.5t88.5 -29.5q48 0 89 16t83 43q23 14 41 14q34 0 50 -43q9 -24 9 -41z" />
    <glyph glyph-name=".notdef" 
d="M1217 1311.5q13 -10.5 13 -34.5q0 -7 -2 -23l-261 -1469q-6 -37 -23 -52.5t-51 -15.5h-821q-28 0 -41 10.5t-13 34.5q0 7 2 23l261 1469q6 37 23 52.5t51 15.5h821q28 0 41 -10.5zM868 -181l248 1401h-736l-248 -1401h736zM440 923l-2 8q0 14 17 24t38 10q18 0 29.5 -5.5
t14.5 -15.5l106 -335l225 335q7 10 20.5 15.5t31.5 5.5q19 0 35 -8.5t16 -20.5q0 -5 -5 -13l-290 -412l146 -406l2 -8q0 -14 -17 -23t-39 -9q-37 0 -43 19l-107 341l-224 -341q-13 -19 -51 -19q-20 0 -36 7.5t-16 19.5q0 5 5 13l290 419z" />
    <glyph glyph-name=".null" horiz-adv-x="0" 
 />
    <glyph glyph-name="nonmarkingreturn" unicode="&#xd;" 
 />
    <glyph glyph-name="space" unicode=" " 
 />
    <glyph glyph-name="exclam" unicode="!" 
d="M862 1240q0 -9 -3 -21l-174 -707q-5 -23 -22 -35.5t-43 -12.5t-39 12.5t-11 35.5l77 707q4 50 50 50h130q35 0 35 -29zM687 255q30 -15 24 -48l-27 -154q-6 -34 -34.5 -48.5t-93.5 -14.5q-67 0 -97.5 15t-24.5 48l27 154q6 34 35 48.5t94 14.5q67 0 97 -15z" />
    <glyph glyph-name="quotedbl" unicode="&#x22;" 
d="M655 1240q0 -9 -3 -21l-134 -450q-8 -26 -28 -40t-50 -14q-29 0 -44.5 14t-13.5 40l24 450q3 50 50 50h164q35 0 35 -29zM1115 1240q0 -9 -3 -21l-134 -450q-8 -26 -28 -40t-50 -14q-29 0 -44.5 14t-13.5 40l24 450q3 50 50 50h164q35 0 35 -29z" />
    <glyph glyph-name="numbersign" unicode="#" 
d="M1228 854q13 -11 13 -35q0 -11 -3 -26q-7 -39 -24.5 -55.5t-51.5 -16.5h-192l-105 -245h184q27 0 40 -11t13 -35q0 -11 -3 -26q-7 -39 -24 -55.5t-51 -16.5h-220l-138 -321q-14 -33 -60 -33q-29 0 -49.5 13t-20.5 35q0 10 4 19l123 287h-253l-138 -321q-14 -33 -60 -33
q-29 0 -49.5 13t-20.5 35q0 10 4 19l123 287h-157q-28 0 -40.5 11t-12.5 36q0 15 2 25q7 39 24.5 55.5t51.5 16.5h194l105 245h-186q-27 0 -40 11t-13 35q0 11 3 26q7 39 24.5 55.5t51.5 16.5h222l133 311q14 33 60 33q29 0 49.5 -13t20.5 -35q0 -10 -4 -19l-119 -277h254
l133 311q14 33 60 33q29 0 49.5 -13t20.5 -35q0 -10 -4 -19l-119 -277h156q27 0 40 -11zM725 476l105 245h-254l-105 -245h254z" />
    <glyph glyph-name="dollar" unicode="$" 
d="M814.5 1301q14.5 -11 14.5 -34q0 -6 -2 -20l-32 -178q101 -29 161 -93l8 45q6 35 25.5 50t60.5 15q35 0 50.5 -10.5t15.5 -34.5q0 -6 -2 -20l-34 -190q-6 -35 -25.5 -50t-60.5 -15q-35 0 -44 26q-20 59 -65 92.5t-114 46.5l-43 -247q96 -12 167 -34q75 -23 118 -75
t43 -135q0 -71 -40 -143.5t-136 -124t-252 -54.5l-31 -178q-6 -34 -25.5 -49.5t-56.5 -15.5q-31 0 -45.5 11t-14.5 34q0 6 2 20l33 189q-119 25 -189 110l-10 -56q-6 -35 -25.5 -50t-60.5 -15q-35 0 -50.5 10.5t-15.5 34.5q0 6 2 20l42 240q6 35 25.5 50t61.5 15
q21 0 31.5 -9.5t15.5 -31.5q16 -75 64.5 -118t133.5 -58l50 283q-94 13 -155 33q-74 25 -115 70.5t-41 122.5q0 80 45.5 150t137 113t221.5 43l29 161q6 34 25.5 49.5t56.5 15.5q31 0 45.5 -11zM512 918q-49 -21 -73.5 -53.5t-24.5 -69.5q0 -31 21.5 -49t58 -27.5
t97.5 -17.5l42 240q-72 -2 -121 -23zM796.5 293q54.5 26 77 61.5t22.5 68.5q0 40 -25 62.5t-65 33t-104 18.5l-48 -273q88 3 142.5 29z" />
    <glyph glyph-name="percent" unicode="%" 
d="M554.5 1178.5q55.5 -30.5 87.5 -85t32 -123.5q0 -83 -39.5 -153.5t-110 -113t-159.5 -42.5q-68 0 -123.5 30.5t-87.5 85t-32 123.5q0 83 39.5 153.5t110 113t159.5 42.5q68 0 123.5 -30.5zM1168 1081q24 0 45 -27q17 -22 17 -42q0 -27 -32 -53l-1021 -830
q-26 -22 -49 -22q-26 0 -45 27q-17 22 -17 41q0 27 33 54l1020 830q26 22 49 22zM335 1055q-38 -24 -59.5 -63t-21.5 -83q0 -52 33 -85t90 -33q46 0 84 24t59.5 63t21.5 83q0 52 -33 85t-90 33q-46 0 -84 -24zM1054.5 495.5q55.5 -30.5 87.5 -85t32 -123.5
q0 -83 -39.5 -153.5t-110 -113t-159.5 -42.5q-68 0 -123.5 30.5t-87.5 85t-32 123.5q0 83 39.5 153.5t110 113t159.5 42.5q68 0 123.5 -30.5zM835 372q-38 -24 -59.5 -63t-21.5 -83q0 -52 33 -85t90 -33q46 0 84 24t59.5 63t21.5 83q0 52 -33 85t-90 33q-46 0 -84 -24z" />
    <glyph glyph-name="ampersand" unicode="&#x26;" 
d="M878.5 1181q76.5 -28 136.5 -76q14 -12 14 -35q0 -5 -2 -19l-23 -127q-6 -35 -25.5 -50t-60.5 -15q-35 0 -50.5 10.5t-15.5 34.5q0 6 2 20l16 90q-68 47 -176 47q-58 0 -106.5 -27t-77 -75t-28.5 -109q0 -39 13 -75t40 -73l233 -328q53 83 105 195q19 42 59 42h161
q28 0 40.5 -10t12.5 -34q0 -15 -2 -24q-7 -37 -24 -52.5t-51 -15.5h-83q-60 -128 -130 -224l83 -115h84q28 0 40.5 -10t12.5 -34q0 -15 -2 -24q-6 -37 -23 -52.5t-51 -15.5h-104q-49 0 -73 33l-70 97q-157 -152 -331 -152q-92 0 -158.5 37.5t-101 101t-34.5 141.5
q0 229 260 385q-62 97 -62 200q0 91 46 175.5t133.5 137.5t205.5 53q91 0 167.5 -28zM335 420.5q-49 -62.5 -49 -146.5q0 -66 41 -107t111 -41q122 0 233 119l-205 288q-82 -50 -131 -112.5z" />
    <glyph glyph-name="quotesingle" unicode="'" 
d="M885 1240q0 -9 -3 -21l-134 -450q-8 -26 -28 -40t-50 -14q-29 0 -44.5 14t-13.5 40l24 450q3 50 50 50h164q35 0 35 -29z" />
    <glyph glyph-name="parenleft" unicode="(" 
d="M959 1380q16 0 30 -13t22 -33q10 -21 10 -47q0 -34 -20 -44q-169 -88 -293 -222t-190.5 -302.5t-66.5 -356.5q0 -200 80.5 -352t205.5 -245q9 -8 9 -21t-7.5 -29t-20.5 -30q-12 -13 -26 -21t-28 -8q-13 0 -23 7q-90 61 -166.5 163t-123.5 239.5t-47 296.5q0 210 81 408.5
t225.5 356.5t329.5 248q12 5 19 5z" />
    <glyph glyph-name="parenright" unicode=")" 
d="M795.5 1211q76.5 -102 123.5 -239.5t47 -296.5q0 -210 -81 -408.5t-225.5 -356.5t-329.5 -248q-12 -5 -19 -5q-16 0 -30 13t-22 33q-10 21 -10 47q0 34 20 44q169 88 293 222t190.5 302.5t66.5 356.5q0 200 -80.5 352t-205.5 245q-9 8 -9 21t7.5 29t20.5 30q12 13 26 21
t28 8q13 0 23 -7q90 -61 166.5 -163z" />
    <glyph glyph-name="asterisk" unicode="*" 
d="M811.5 1193q20.5 -16 20.5 -45q0 -12 -5 -29l-86 -282l263 118q21 9 41 9q31 0 50.5 -23.5t19.5 -64.5q0 -35 -20.5 -58.5t-57.5 -30.5l-283 -48l154 -212q19 -27 19 -49q0 -38 -49 -67q-27 -17 -52 -17q-42 0 -64 52l-95 237l-175 -242q-15 -21 -34.5 -32.5t-40.5 -11.5
q-30 0 -56 22q-34 29 -34 64q0 36 33 64l233 203l-263 54q-54 11 -54 58q0 24 13 51q28 62 74 62q18 0 40 -11l238 -122l11 277q2 42 29 66t73 24q37 0 57.5 -16z" />
    <glyph glyph-name="plus" unicode="+" 
d="M769.5 1016q13.5 -10 13.5 -33q0 -4 -2 -20l-55 -313h313q28 0 40.5 -10t12.5 -34q0 -15 -2 -24q-7 -37 -24 -52.5t-51 -15.5h-313l-55 -313q-6 -34 -24 -48.5t-55 -14.5q-32 0 -45.5 10t-13.5 33q0 4 2 20l55 313h-313q-28 0 -40.5 10t-12.5 34q0 15 2 24q7 37 24 52.5
t51 15.5h313l55 313q6 34 24 48.5t55 14.5q32 0 45.5 -10z" />
    <glyph glyph-name="comma" unicode="," 
d="M719 286q9 -8 9 -22t-11 -33l-292 -484q-25 -41 -97 -41q-63 0 -63 40q0 9 5 26l173 482q7 19 22.5 29.5t36.5 10.5h192q16 0 25 -8z" />
    <glyph glyph-name="hyphen" unicode="-" 
d="M1079.5 640q12.5 -10 12.5 -34q0 -15 -2 -24q-7 -37 -24 -52.5t-51 -15.5h-762q-28 0 -40.5 10t-12.5 34q0 15 2 24q7 37 24 52.5t51 15.5h762q28 0 40.5 -10z" />
    <glyph glyph-name="period" unicode="." 
d="M694.5 285q32.5 -15 26.5 -48l-33 -184q-6 -34 -37 -48.5t-101 -14.5q-73 0 -105.5 15t-26.5 48l33 184q6 34 37 48.5t101 14.5q73 0 105.5 -15z" />
    <glyph glyph-name="slash" unicode="/" 
d="M1167.5 1378.5q21.5 -15.5 21.5 -38.5q0 -12 -7 -25l-943 -1638q-18 -32 -78 -32q-36 0 -57.5 15.5t-21.5 38.5q0 12 7 25l943 1638q18 32 78 32q36 0 57.5 -15.5z" />
    <glyph glyph-name="zero" unicode="0" 
d="M927.5 1153q77.5 -56 118.5 -158.5t41 -238.5q0 -172 -59 -352.5t-180 -303t-295 -122.5q-106 0 -183.5 56t-118.5 158.5t-41 238.5q0 172 59 352.5t180 303t295 122.5q106 0 183.5 -56zM537 963.5q-83 -97.5 -127.5 -245t-44.5 -292.5q0 -144 53 -222t148 -78
q111 0 194 97.5t127.5 245t44.5 292.5q0 143 -53.5 221.5t-147.5 78.5q-111 0 -194 -97.5z" />
    <glyph glyph-name="one" unicode="1" 
d="M987.5 126q12.5 -10 12.5 -34q0 -15 -2 -24q-6 -37 -23 -52.5t-51 -15.5h-674q-28 0 -41 10.5t-13 34.5q0 7 2 23q7 37 24 52.5t51 15.5h250l149 848l-268 -151q-16 -8 -29 -8q-32 0 -55 44q-13 25 -13 44q0 31 33 48l430 239q21 12 42 12q18 0 30 -11t12 -30
q0 -9 -1 -14l-180 -1021h274q28 0 40.5 -10z" />
    <glyph glyph-name="two" unicode="2" 
d="M892 1173q77 -36 119 -103.5t42 -158.5q0 -82 -29 -150.5t-87 -134t-156 -149.5l-397 -341h446l26 146q6 35 25.5 50t61.5 15q35 0 50 -10.5t15 -34.5q0 -4 -2 -20l-38 -214q-6 -37 -23 -52.5t-51 -15.5h-714q-28 0 -41 10.5t-13 34.5q0 7 2 23q7 38 25 54l519 446
q80 69 127.5 121t71 103t23.5 109q0 75 -50 117.5t-146 42.5q-108 0 -218 -61l-19 -105q-6 -35 -25.5 -50t-60.5 -15q-35 0 -50.5 10.5t-15.5 34.5q0 6 2 20l27 153q7 39 33 55q169 106 342 106q102 0 179 -36z" />
    <glyph glyph-name="three" unicode="3" 
d="M900 1173.5q76 -35.5 117 -99.5t41 -147q0 -102 -50 -179.5t-150 -122.5q70 -32 107.5 -93.5t37.5 -148.5q0 -94 -47.5 -187t-153 -155.5t-268.5 -62.5q-98 0 -192 34t-163 92q-22 19 -22 43q0 23 18 50q13 20 29 33t32 13q17 0 32 -14q57 -48 130.5 -75.5t151.5 -27.5
q103 0 169.5 39t96.5 98.5t30 122.5q0 84 -56 126.5t-160 42.5h-73q-28 0 -40.5 10.5t-12.5 34.5q0 5 2 23q7 37 24 52.5t51 15.5h55q96 0 156 32.5t86 83.5t26 110q0 68 -50.5 106t-145.5 38q-117 0 -204 -39l-12 -67q-6 -35 -25.5 -50t-61.5 -15q-35 0 -50 10.5t-15 34.5
q0 4 2 20l20 114q4 22 12.5 35t24.5 22q77 42 155 62.5t169 20.5q101 0 177 -35.5z" />
    <glyph glyph-name="four" unicode="4" 
d="M969 1150q0 -5 -2 -19l-112 -635h162q28 0 40.5 -10t12.5 -34q0 -15 -2 -24q-7 -37 -24 -52.5t-51 -15.5h-162l-40 -224h132q28 0 40.5 -10t12.5 -34q0 -15 -2 -24q-6 -37 -23 -52.5t-51 -15.5h-430q-28 0 -41 10.5t-13 34.5q0 7 2 23q7 37 24 52.5t51 15.5h148l40 224
h-478q-28 0 -40.5 10t-12.5 34q0 15 2 24q7 38 18 50l603 673q27 31 55 44.5t66 13.5q75 0 75 -59zM368 496h337l94 490z" />
    <glyph glyph-name="five" unicode="5" 
d="M1064.5 1177q12.5 -10 12.5 -34q0 -15 -2 -24q-7 -37 -24 -52.5t-51 -15.5h-466l-69 -316q98 51 214 51q104 0 179.5 -43t115 -119.5t39.5 -176.5q0 -110 -53 -218t-162.5 -179.5t-268.5 -71.5q-95 0 -186.5 32t-161.5 87q-24 18 -24 44q0 24 21 55q29 43 57 43
q14 0 30 -13q57 -46 128.5 -73t146.5 -27q104 0 175 47t105.5 120t34.5 150q0 89 -54 142t-151 53q-123 0 -232 -67q-13 -8 -25 -11t-30 -3q-35 0 -56 11t-17 31l113 523q8 35 27 50t60 15h534q28 0 40.5 -10z" />
    <glyph glyph-name="six" unicode="6" 
d="M1096 1195q14 -15 14 -53q0 -78 -48 -80q-268 -14 -434 -136t-231 -326q65 64 144 97.5t166 33.5q96 0 171 -39.5t117 -112t42 -166.5q0 -109 -55 -209t-160 -163t-246 -63q-122 0 -203.5 51t-120.5 135.5t-39 187.5q0 247 104.5 437t295.5 299t444 121q25 1 39 -14z
M525.5 551q-71.5 -32 -115 -92t-43.5 -140q0 -88 57 -140.5t158 -52.5q97 0 164 40.5t100 104.5t33 132q0 86 -51.5 133t-148.5 47q-82 0 -153.5 -32z" />
    <glyph glyph-name="seven" unicode="7" 
d="M1145.5 1177q12.5 -10 12.5 -34q0 -15 -2 -24q-4 -22 -13 -40l-612 -1055q-14 -23 -38 -34.5t-51 -11.5q-29 0 -50 13t-21 35q0 14 9 30l583 995h-469l-26 -146q-6 -35 -25.5 -50t-60.5 -15q-35 0 -50.5 10.5t-15.5 34.5q0 6 2 20l38 214q7 37 24 52.5t51 15.5h674
q28 0 40.5 -10z" />
    <glyph glyph-name="eight" unicode="8" 
d="M914.5 1171q73.5 -38 114.5 -103t41 -145q0 -101 -58.5 -176t-154.5 -122q72 -36 114.5 -98.5t42.5 -142.5q0 -96 -54.5 -190t-160 -155t-249.5 -61q-104 0 -185.5 40.5t-127 111.5t-45.5 160q0 120 72 208.5t188 136.5q-57 35 -91 89.5t-34 121.5q0 81 50 165.5
t145.5 141t224.5 56.5q94 0 167.5 -38zM597.5 1030q-57.5 -31 -87.5 -80.5t-30 -102.5q0 -44 23.5 -79t65.5 -55t97 -20q67 0 124.5 29.5t91.5 79.5t34 108q0 70 -51 110.5t-134 40.5q-76 0 -133.5 -31zM487.5 517.5q-65.5 -36.5 -100.5 -95t-35 -121.5q0 -52 26 -91.5
t74.5 -61.5t113.5 -22q87 0 152.5 36t101 94.5t35.5 122.5q0 79 -58 127t-156 48q-88 0 -153.5 -36.5z" />
    <glyph glyph-name="nine" unicode="9" 
d="M923.5 1158q81.5 -51 120.5 -135.5t39 -187.5q0 -247 -104.5 -437t-295.5 -299t-444 -121q-25 -1 -39 14t-14 53q0 78 48 80q268 14 434 136t231 326q-65 -64 -144 -97.5t-166 -33.5q-96 0 -171 39.5t-117 112t-42 166.5q0 109 55 209t160 163t246 63q122 0 203.5 -51z
M550 1020.5q-67 -40.5 -100 -104.5t-33 -132q0 -86 51.5 -133t148.5 -47q82 0 153.5 32t115 92t43.5 140q0 88 -57 140.5t-158 52.5q-97 0 -164 -40.5z" />
    <glyph glyph-name="colon" unicode=":" 
d="M805.5 915q32.5 -15 26.5 -48l-33 -184q-6 -34 -37 -48.5t-101 -14.5q-73 0 -105.5 15t-26.5 48l33 184q6 34 37 48.5t101 14.5q73 0 105.5 -15zM694.5 285q32.5 -15 26.5 -48l-33 -184q-6 -34 -37 -48.5t-101 -14.5q-73 0 -105.5 15t-26.5 48l33 184q6 34 37 48.5
t101 14.5q73 0 105.5 -15z" />
    <glyph glyph-name="semicolon" unicode=";" 
d="M805.5 915q32.5 -15 26.5 -48l-33 -184q-6 -34 -37 -48.5t-101 -14.5q-73 0 -105.5 15t-26.5 48l33 184q6 34 37 48.5t101 14.5q73 0 105.5 -15zM759 286q9 -8 9 -22t-11 -33l-292 -484q-25 -41 -97 -41q-63 0 -63 40q0 9 5 26l173 482q7 19 22.5 29.5t36.5 10.5h192
q16 0 25 -8z" />
    <glyph glyph-name="less" unicode="&#x3c;" 
d="M1095 1042q38 0 54 -49q6 -19 6 -36q0 -43 -47 -63l-722 -318l602 -315q32 -17 32 -44q0 -22 -20 -51q-30 -43 -63 -43q-18 0 -35 10l-710 381q-19 10 -28 22.5t-9 30.5q0 4 2 16q4 25 18 40.5t41 28.5l845 381q20 9 34 9z" />
    <glyph glyph-name="equal" unicode="=" 
d="M1114.5 840q12.5 -10 12.5 -34q0 -15 -2 -24q-6 -37 -23.5 -52.5t-51.5 -15.5h-762q-28 0 -40.5 10.5t-12.5 34.5q0 5 2 23q7 37 24 52.5t51 15.5h762q28 0 40.5 -10zM1044.5 440q12.5 -10 12.5 -34q0 -15 -2 -24q-7 -37 -24 -52.5t-51 -15.5h-762q-28 0 -40.5 10
t-12.5 34q0 15 2 24q7 37 24 52.5t51 15.5h762q28 0 40.5 -10z" />
    <glyph glyph-name="greater" unicode="&#x3e;" 
d="M1128 629.5q9 -12.5 9 -30.5q0 -4 -2 -16q-4 -25 -18 -40.5t-41 -28.5l-845 -381q-19 -9 -34 -9q-38 0 -54 49q-6 20 -6 36q0 43 47 63l722 318l-602 315q-32 17 -32 44q0 22 20 51q30 43 63 43q18 0 35 -10l710 -381q19 -10 28 -22.5z" />
    <glyph glyph-name="question" unicode="?" 
d="M929.5 1235.5q69.5 -33.5 106 -95t36.5 -143.5q0 -139 -94.5 -229t-287.5 -162l-36 -139q-12 -48 -75 -48q-62 0 -57 48l20 198q4 38 39 51l74 28q92 35 147 67.5t83 75.5t28 103q0 61 -42.5 96t-123.5 35q-119 0 -223 -42l-15 -84q-6 -35 -25.5 -50t-60.5 -15
q-35 0 -50.5 10.5t-15.5 34.5q0 6 2 20l24 132q4 21 12 34.5t23 21.5q165 86 344 86q98 0 167.5 -33.5zM632 218q27 -12 27 -39q0 -8 -1 -12l-20 -114q-6 -34 -33 -48.5t-87 -14.5q-56 0 -83.5 12.5t-27.5 39.5q0 7 1 11l20 114q6 34 33.5 48.5t87.5 14.5q56 0 83 -12z" />
    <glyph glyph-name="at" unicode="@" 
d="M1000.5 1023q97.5 -55 149.5 -154t52 -228q0 -128 -44 -244t-124.5 -188t-186.5 -72q-64 0 -103 33.5t-53 96.5q-59 -67 -113.5 -101t-115.5 -34q-66 0 -109 45.5t-43 125.5q0 94 60 208.5t153 194t185 79.5q86 0 110 -100l42 63q9 12 27 12q14 0 33 -8q33 -13 33 -35
q0 -7 -2 -11l-130 -302q-18 -44 -18 -77q0 -30 16 -47t45 -17q69 0 118.5 58.5t74.5 145t25 167.5q0 151 -86.5 236t-242.5 85q-165 0 -301 -101.5t-213.5 -258t-77.5 -313.5q0 -148 83 -230t240 -82q69 0 137.5 10t124.5 27q8 2 12 2q25 0 34 -44q3 -14 3 -24
q0 -32 -25 -42q-58 -24 -136 -38t-159 -14q-137 0 -235.5 51t-150 146.5t-51.5 225.5q0 200 96 387t264 304t372 117q133 0 230.5 -55zM583 602.5q-56 -55.5 -95.5 -134t-39.5 -141.5q0 -31 14 -46t38 -15q59 0 115 58.5t92 137t36 128.5q0 33 -16 50.5t-45 17.5
q-43 0 -99 -55.5z" />
    <glyph glyph-name="A" unicode="A" 
d="M837.5 1171.5q21.5 -15.5 27.5 -49.5l179 -986h64q28 0 40.5 -10t12.5 -34q0 -15 -2 -24q-6 -37 -23 -52.5t-51 -15.5h-354q-28 0 -41 10.5t-13 34.5q0 7 2 23q7 37 24 52.5t51 15.5h140l-40 238h-485l-125 -238h116q28 0 40.5 -10t12.5 -34q0 -15 -2 -24
q-6 -37 -23 -52.5t-51 -15.5h-334q-28 0 -41 10.5t-13 34.5q0 7 2 23q7 37 24 52.5t51 15.5h53l493 915h-184q-28 0 -40.5 10t-12.5 34q0 15 2 24q7 37 24 52.5t51 15.5h364q40 0 61.5 -15.5zM723 1051l-283 -541h392l-90 541h-19z" />
    <glyph glyph-name="B" unicode="B" 
d="M1011.5 1112q82.5 -75 82.5 -204q0 -94 -48.5 -164.5t-133.5 -115.5q83 -29 128.5 -92.5t45.5 -155.5q0 -107 -51 -193.5t-149.5 -136.5t-235.5 -50h-577q-28 0 -41 10.5t-13 34.5q0 7 2 23q7 37 24 52.5t51 15.5h122l162 915h-122q-28 0 -40.5 10t-12.5 34q0 15 2 24
q7 37 24 52.5t51 15.5h491q156 0 238.5 -75zM465 681h207q85 0 146 27.5t92 76.5t31 112q0 154 -194 154h-217zM368 136h265q140 0 218 65t78 177q0 85 -54 126t-164 41h-270z" />
    <glyph glyph-name="C" unicode="C" 
d="M1192 1198.5q15 -10.5 15 -34.5q0 -4 -2 -20l-58 -330q-6 -35 -25.5 -50t-60.5 -15q-35 0 -50.5 10.5t-15.5 34.5q0 6 2 20q4 21 4 49q0 88 -60 143t-180 55q-138 0 -243.5 -86.5t-162.5 -225t-57 -288.5q0 -158 76 -246.5t212 -88.5q97 0 191.5 30.5t178.5 85.5
q14 10 31 10q35 0 58 -45q14 -28 14 -48q0 -30 -36 -53q-216 -128 -448 -128q-133 0 -231.5 58.5t-151 166t-52.5 250.5q0 196 79 370t223 280t330 106q95 0 163.5 -34t108.5 -95l11 64q6 35 25.5 50t61.5 15q35 0 50 -10.5z" />
    <glyph glyph-name="D" unicode="D" 
d="M975 1131q101 -56 155.5 -160.5t54.5 -246.5q0 -157 -63.5 -324.5t-204.5 -283.5t-358 -116h-486q-28 0 -41 10.5t-13 34.5q0 7 2 23q7 37 24 52.5t51 15.5h112l162 915h-112q-28 0 -40.5 10t-12.5 34q0 15 2 24q7 37 24 52.5t51 15.5h456q136 0 237 -56zM358 136h186
q168 0 276.5 92t158 226.5t49.5 264.5q0 161 -84.5 246.5t-237.5 85.5h-186z" />
    <glyph glyph-name="E" unicode="E" 
d="M1196.5 1177q12.5 -10 12.5 -34q0 -15 -2 -24l-45 -254q-6 -35 -25.5 -50t-60.5 -15q-35 0 -50.5 10.5t-15.5 34.5q0 6 2 20l33 186h-535l-66 -371h250l16 91q7 35 26.5 50t60.5 15q34 0 49.5 -10.5t15.5 -33.5q0 -13 -2 -21l-56 -318q-6 -35 -25.5 -50t-60.5 -15
q-35 0 -50.5 10.5t-15.5 34.5q0 6 2 20l16 91h-250l-72 -408h555l41 229q6 35 25.5 50t60.5 15q35 0 50.5 -10.5t15.5 -34.5q0 -6 -2 -20l-53 -297q-6 -37 -23 -52.5t-51 -15.5h-894q-28 0 -41 10.5t-13 34.5q0 7 2 23q7 37 24 52.5t51 15.5h102l162 915h-102
q-28 0 -40.5 10t-12.5 34q0 15 2 24q7 37 24 52.5t51 15.5h874q28 0 40.5 -10z" />
    <glyph glyph-name="F" unicode="F" 
d="M1226.5 1177q12.5 -10 12.5 -34q0 -15 -2 -24l-47 -264q-6 -35 -25.5 -50t-60.5 -15q-35 0 -50.5 10.5t-15.5 34.5q0 6 2 20l35 196h-535l-69 -391h250l16 91q7 35 26.5 50t60.5 15q34 0 49.5 -10.5t15.5 -33.5q0 -13 -2 -21l-56 -318q-6 -35 -25.5 -50t-60.5 -15
q-35 0 -50.5 10.5t-15.5 34.5q0 6 2 20l16 91h-250l-69 -388h232q28 0 40.5 -10t12.5 -34q0 -15 -2 -24q-6 -37 -23 -52.5t-51 -15.5h-514q-28 0 -41 10.5t-13 34.5q0 7 2 23q7 37 24 52.5t51 15.5h132l162 915h-132q-28 0 -40.5 10t-12.5 34q0 15 2 24q7 37 24 52.5
t51 15.5h904q28 0 40.5 -10z" />
    <glyph glyph-name="G" unicode="G" 
d="M1180 1198.5q15 -10.5 15 -34.5q0 -4 -2 -20l-51 -290q-6 -35 -25.5 -50t-60.5 -15q-35 0 -50.5 10.5t-15.5 34.5q0 6 2 20q3 18 3 35q0 79 -63 125.5t-181 46.5q-145 0 -252.5 -88t-164 -225.5t-56.5 -282.5q0 -105 35.5 -181.5t102.5 -117t160 -40.5q175 0 309 57
l40 227h-247q-28 0 -40.5 10t-12.5 34q0 15 2 24q7 37 24 52.5t51 15.5h429q28 0 40.5 -10t12.5 -34q0 -15 -2 -24q-7 -37 -24 -52.5t-51 -15.5h-32l-49 -276q-5 -24 -17 -42t-31 -27q-178 -87 -413 -87q-134 0 -234.5 59.5t-155 168.5t-54.5 254q0 194 81.5 366.5
t227.5 277.5t332 105q95 0 163 -31.5t109 -87.5l9 54q6 35 25.5 50t61.5 15q35 0 50 -10.5z" />
    <glyph glyph-name="H" unicode="H" 
d="M1264.5 1177q12.5 -10 12.5 -34q0 -15 -2 -24q-7 -37 -24 -52.5t-51 -15.5h-72l-162 -915h72q28 0 40.5 -10t12.5 -34q0 -15 -2 -24q-6 -37 -23 -52.5t-51 -15.5h-314q-28 0 -41 10.5t-13 34.5q0 7 2 23q7 37 24 52.5t51 15.5h92l72 408h-498l-72 -408h92q28 0 40.5 -10
t12.5 -34q0 -15 -2 -24q-6 -37 -23 -52.5t-51 -15.5h-314q-28 0 -41 10.5t-13 34.5q0 7 2 23q7 37 24 52.5t51 15.5h72l162 915h-72q-28 0 -40.5 10t-12.5 34q0 15 2 24q7 37 24 52.5t51 15.5h314q28 0 40.5 -10t12.5 -34q0 -15 -2 -24q-7 -37 -24 -52.5t-51 -15.5h-92
l-66 -371h498l66 371h-92q-28 0 -40.5 10t-12.5 34q0 15 2 24q7 37 24 52.5t51 15.5h314q28 0 40.5 -10z" />
    <glyph glyph-name="I" unicode="I" 
d="M1114.5 1177q12.5 -10 12.5 -34q0 -15 -2 -24q-7 -37 -24 -52.5t-51 -15.5h-246l-162 -915h286q28 0 40.5 -10t12.5 -34q0 -15 -2 -24q-6 -37 -23 -52.5t-51 -15.5h-702q-28 0 -41 10.5t-13 34.5q0 7 2 23q7 37 24 52.5t51 15.5h266l162 915h-266q-28 0 -40.5 10
t-12.5 34q0 15 2 24q7 37 24 52.5t51 15.5h662q28 0 40.5 -10z" />
    <glyph glyph-name="J" unicode="J" 
d="M1274.5 1177q12.5 -10 12.5 -34q0 -15 -2 -24q-7 -37 -24 -52.5t-51 -15.5h-201l-127 -718q-62 -355 -447 -355q-114 0 -206.5 43.5t-144.5 113.5q-9 12 -9 32q0 5 2 19l49 279q7 35 26.5 50t60.5 15q34 0 49.5 -10.5t15.5 -33.5q0 -13 -2 -21l-46 -264q70 -75 217 -75
q131 0 200.5 58t90.5 179l121 688h-341q-28 0 -40.5 10t-12.5 34q0 15 2 24q7 37 24 52.5t51 15.5h692q28 0 40.5 -10z" />
    <glyph glyph-name="K" unicode="K" 
d="M1274.5 1177q12.5 -10 12.5 -34q0 -15 -2 -24q-7 -37 -24 -52.5t-51 -15.5h-52l-495 -405q8 1 24 1q61 0 105.5 -23.5t76.5 -76.5q24 -41 38.5 -91.5t29.5 -124.5q2 -11 11 -53t20 -70q13 -35 31.5 -53.5t45.5 -18.5h33q28 0 40.5 -10t12.5 -34q0 -15 -2 -24
q-6 -37 -23 -52.5t-51 -15.5h-77q-47 0 -85.5 33t-62.5 106q-13 38 -22.5 83.5t-11.5 54.5q-14 67 -24.5 105.5t-27.5 71.5q-18 34 -52.5 52t-82.5 18q-43 0 -85.5 -15t-77.5 -44l-35 -29l-53 -300h162q28 0 40.5 -10t12.5 -34q0 -15 -2 -24q-6 -37 -23 -52.5t-51 -15.5
h-424q-28 0 -41 10.5t-13 34.5q0 7 2 23q7 37 24 52.5t51 15.5h112l162 915h-112q-28 0 -40.5 10t-12.5 34q0 15 2 24q7 37 24 52.5t51 15.5h354q28 0 40.5 -10t12.5 -34q0 -15 -2 -24q-7 -37 -24 -52.5t-51 -15.5h-92l-73 -416l502 416h-63q-28 0 -40.5 10t-12.5 34
q0 15 2 24q7 37 24 52.5t51 15.5h324q28 0 40.5 -10z" />
    <glyph glyph-name="L" unicode="L" 
d="M876.5 1177q12.5 -10 12.5 -34q0 -15 -2 -24q-7 -37 -24 -52.5t-51 -15.5h-242l-162 -915h495l58 329q7 35 26.5 50t60.5 15q34 0 49.5 -10.5t15.5 -33.5q0 -13 -2 -21l-70 -397q-6 -37 -23 -52.5t-51 -15.5h-894q-28 0 -41 10.5t-13 34.5q0 7 2 23q7 37 24 52.5t51 15.5
h162l162 915h-162q-28 0 -40.5 10t-12.5 34q0 15 2 24q7 37 24 52.5t51 15.5h554q28 0 40.5 -10z" />
    <glyph glyph-name="M" unicode="M" 
d="M1284.5 1177q12.5 -10 12.5 -34q0 -15 -2 -24q-7 -37 -24 -52.5t-51 -15.5h-50l-136 -915h54q28 0 40.5 -10t12.5 -34q0 -15 -2 -24q-6 -37 -23 -52.5t-51 -15.5h-314q-28 0 -41 10.5t-13 34.5q0 7 2 23q7 37 24 52.5t51 15.5h111l123 819l-305 -570q-19 -35 -43 -50
t-60 -15t-55 15t-26 50l-104 570l-166 -819h111q28 0 40.5 -10t12.5 -34q0 -15 -2 -24q-6 -37 -23 -52.5t-51 -15.5h-314q-28 0 -41 10.5t-13 34.5q0 7 2 23q7 37 24 52.5t51 15.5h54l187 915h-49q-28 0 -40.5 10t-12.5 34q0 15 2 24q7 37 24 52.5t51 15.5h205q24 0 36.5 -8
t15.5 -25l115 -609l328 609q17 33 65 33h217q28 0 40.5 -10z" />
    <glyph glyph-name="N" unicode="N" 
d="M1274.5 1177q12.5 -10 12.5 -34q0 -15 -2 -24q-7 -37 -24 -52.5t-51 -15.5h-57l-179 -1014q-5 -27 -26 -43t-59 -16q-55 0 -75 55l-353 940h-4l-148 -837h141q28 0 40.5 -10t12.5 -34q0 -15 -2 -24q-6 -37 -23 -52.5t-51 -15.5h-354q-28 0 -41 10.5t-13 34.5q0 7 2 23
q7 37 24 52.5t51 15.5h67l162 915h-77q-28 0 -40.5 10t-12.5 34q0 15 2 24q7 37 24 52.5t51 15.5h224q42 0 52 -28l322 -861h4l133 753h-121q-28 0 -40.5 10t-12.5 34q0 15 2 24q7 37 24 52.5t51 15.5h324q28 0 40.5 -10z" />
    <glyph glyph-name="O" unicode="O" 
d="M976.5 1149.5q100.5 -59.5 154.5 -168.5t54 -253q0 -135 -40 -265.5t-116 -236.5q-83 -116 -203.5 -182t-270.5 -66q-134 0 -234.5 59.5t-154.5 168.5t-54 253q0 135 40 265.5t116 236.5q83 116 203.5 182t270.5 66q134 0 234.5 -59.5zM542 1012q-85 -49 -146 -134
q-62 -86 -94.5 -195t-32.5 -218q0 -105 35.5 -181.5t102 -117t159.5 -40.5q104 0 189 49t146 134q62 86 94.5 195t32.5 218q0 105 -35.5 181.5t-102 117t-159.5 40.5q-104 0 -189 -49z" />
    <glyph glyph-name="P" unicode="P" 
d="M1019.5 1148q83.5 -39 126.5 -109.5t43 -163.5q0 -80 -26 -156t-79 -137q-61 -70 -155.5 -109.5t-222.5 -39.5h-245l-53 -297h240q28 0 40.5 -10t12.5 -34q0 -15 -2 -24q-6 -37 -23 -52.5t-51 -15.5h-552q-28 0 -41 10.5t-13 34.5q0 7 2 23q7 37 24 52.5t51 15.5h162
l162 915h-162q-28 0 -40.5 10t-12.5 34q0 15 2 24q7 37 24 52.5t51 15.5h537q117 0 200.5 -39zM485 569h214q175 0 264 101q34 39 51 88.5t17 102.5q0 91 -63 140.5t-184 49.5h-214z" />
    <glyph glyph-name="Q" unicode="Q" 
d="M978 1152q101 -57 156 -161.5t55 -244.5q0 -143 -48.5 -283t-141.5 -243q-81 -90 -190.5 -141t-245.5 -51q-19 0 -55 2l-148 -130q78 27 149 27q32 0 58 -4t69 -13q68 -15 106 -15q41 0 82.5 13t89.5 44q7 5 18 5q15 0 29.5 -11.5t24.5 -29.5q13 -23 13 -46
q0 -33 -26 -49q-66 -44 -120.5 -62t-106.5 -18q-29 0 -56 4.5t-70 13.5q-51 11 -85 16t-74 5q-108 0 -232 -49q-9 -3 -17 -3q-33 0 -61 39q-23 33 -23 59q0 19 13 32l221 209q-117 51 -181.5 161t-64.5 264q0 143 48.5 282.5t141.5 242.5q81 90 190.5 141t245.5 51
q135 0 236 -57zM553 1021.5q-80 -39.5 -139 -109.5q-68 -81 -104.5 -191t-36.5 -221q0 -154 80 -239t222 -85q98 0 177.5 39.5t138.5 109.5q68 81 104 190.5t36 221.5q0 153 -79.5 238.5t-220.5 85.5q-98 0 -178 -39.5z" />
    <glyph glyph-name="R" unicode="R" 
d="M968 1151.5q79 -35.5 120 -99t41 -146.5q0 -142 -92 -234.5t-241 -122.5q48 -23 78 -76q23 -40 37.5 -79.5t29.5 -94.5q17 -57 29 -91q14 -35 32 -53.5t45 -18.5h28q28 0 40.5 -10t12.5 -34q0 -15 -2 -24q-7 -37 -24 -52.5t-51 -15.5h-62q-60 0 -96 31.5t-61 107.5
q-17 51 -34 112q-16 59 -30 100t-35 79q-23 43 -62 64t-99 21h-137l-67 -379h130q28 0 40.5 -10t12.5 -34q0 -15 -2 -24q-6 -37 -23 -52.5t-51 -15.5h-402q-28 0 -41 10.5t-13 34.5q0 7 2 23q7 37 24 52.5t51 15.5h122l162 915h-122q-28 0 -40.5 10t-12.5 34q0 15 2 24
q7 37 24 52.5t51 15.5h496q111 0 190 -35.5zM459 651h203q179 0 256 89q53 61 53 151q0 77 -59 118.5t-169 41.5h-213z" />
    <glyph glyph-name="S" unicode="S" 
d="M1136 1198.5q15 -10.5 15 -34.5q0 -4 -2 -20l-40 -230q-6 -35 -25.5 -50t-61.5 -15q-37 0 -47 26q-33 91 -111 138.5t-189 47.5q-88 0 -148 -32t-89.5 -80.5t-29.5 -99.5q0 -39 25.5 -64.5t73.5 -44.5q46 -18 158 -41q90 -20 147.5 -36t106.5 -43q66 -36 102 -90.5
t36 -137.5q0 -102 -47.5 -196.5t-156 -156t-278.5 -61.5q-101 0 -182.5 38.5t-132.5 109.5l-15 -83q-6 -35 -25.5 -50t-60.5 -15q-35 0 -50.5 10.5t-15.5 34.5q0 6 2 20l53 300q6 35 25.5 50t60.5 15q44 0 51 -42q20 -116 99 -178t210 -62q97 0 165.5 32t103 86t34.5 117
q0 46 -24 77t-68 54q-36 18 -82 31t-117 28q-76 17 -122 29t-87 31q-71 32 -110 82t-39 128q0 93 47.5 182t148 147.5t250.5 58.5q89 0 167 -36t126 -95l12 66q6 35 25.5 50t61.5 15q35 0 50 -10.5z" />
    <glyph glyph-name="T" unicode="T" 
d="M1222.5 1177q12.5 -10 12.5 -34q0 -15 -2 -24l-67 -377q-6 -35 -25.5 -50t-60.5 -15q-35 0 -50.5 10.5t-15.5 34.5q0 6 2 20l55 309h-267l-162 -915h246q28 0 40.5 -10t12.5 -34q0 -15 -2 -24q-6 -37 -23 -52.5t-51 -15.5h-622q-28 0 -41 10.5t-13 34.5q0 7 2 23
q7 37 24 52.5t51 15.5h226l162 915h-267l-55 -309q-6 -35 -25.5 -50t-60.5 -15q-35 0 -50.5 10.5t-15.5 34.5q0 6 2 20l67 377q7 37 24 52.5t51 15.5h858q28 0 40.5 -10z" />
    <glyph glyph-name="U" unicode="U" 
d="M1274.5 1177q12.5 -10 12.5 -34q0 -15 -2 -24q-7 -37 -24 -52.5t-51 -15.5h-62l-118 -668q-37 -209 -156 -307t-319 -98q-173 0 -271 81.5t-98 239.5q0 42 10 104l114 648h-62q-28 0 -40.5 10t-12.5 34q0 15 2 24q7 37 24 52.5t51 15.5h324q28 0 40.5 -10t12.5 -34
q0 -15 -2 -24q-7 -37 -24 -52.5t-51 -15.5h-112l-113 -638q-9 -51 -9 -92q0 -103 56 -149t172 -46q139 0 215.5 67t103.5 220l113 638h-112q-28 0 -40.5 10t-12.5 34q0 15 2 24q7 37 24 52.5t51 15.5h324q28 0 40.5 -10z" />
    <glyph glyph-name="V" unicode="V" 
d="M1334.5 1177q12.5 -10 12.5 -34q0 -15 -2 -24q-7 -37 -24 -52.5t-51 -15.5h-74l-537 -1008q-18 -35 -46.5 -50t-72.5 -15q-43 0 -66 15.5t-29 49.5l-178 1008h-79q-28 0 -40.5 10t-12.5 34q0 15 2 24q7 37 24 52.5t51 15.5h374q28 0 40.5 -10t12.5 -34q0 -15 -2 -24
q-7 -37 -24 -52.5t-51 -15.5h-144l150 -884l465 884h-97q-28 0 -40.5 10t-12.5 34q0 15 2 24q7 37 24 52.5t51 15.5h334q28 0 40.5 -10z" />
    <glyph glyph-name="W" unicode="W" 
d="M1354.5 1177q12.5 -10 12.5 -34q0 -15 -2 -24q-7 -37 -24 -52.5t-51 -15.5h-50l-316 -1008q-12 -36 -35 -50.5t-62 -14.5q-83 0 -91 65l-82 581l-290 -581q-32 -65 -115 -65q-39 0 -56.5 15t-16.5 50l45 1008h-53q-28 0 -40.5 10t-12.5 34q0 15 2 24q7 37 24 52.5
t51 15.5h344q28 0 40.5 -10t12.5 -34q0 -15 -2 -24q-7 -37 -24 -52.5t-51 -15.5h-146l-41 -797l289 584q24 47 81 47q32 0 47 -10t18 -30l84 -598l246 804h-124q-28 0 -40.5 10t-12.5 34q0 15 2 24q7 37 24 52.5t51 15.5h324q28 0 40.5 -10z" />
    <glyph glyph-name="X" unicode="X" 
d="M1264.5 1177q12.5 -10 12.5 -34q0 -15 -2 -24q-7 -37 -24 -52.5t-51 -15.5h-57l-395 -443l254 -472h66q28 0 40.5 -10t12.5 -34q0 -15 -2 -24q-6 -37 -23 -52.5t-51 -15.5h-344q-28 0 -41 10.5t-13 34.5q0 7 2 23q7 37 24 52.5t51 15.5h105l-190 366l-326 -366h87
q28 0 40.5 -10t12.5 -34q0 -15 -2 -24q-6 -37 -23 -52.5t-51 -15.5h-334q-28 0 -41 10.5t-13 34.5q0 7 2 23q7 37 24 52.5t51 15.5h54l443 492l-228 423h-77q-28 0 -40.5 10t-12.5 34q0 15 2 24q7 37 24 52.5t51 15.5h334q28 0 40.5 -10t12.5 -34q0 -15 -2 -24
q-7 -37 -24 -52.5t-51 -15.5h-85l165 -317l278 317h-64q-28 0 -40.5 10t-12.5 34q0 15 2 24q7 37 24 52.5t51 15.5h314q28 0 40.5 -10z" />
    <glyph glyph-name="Y" unicode="Y" 
d="M1284.5 1177q12.5 -10 12.5 -34q0 -15 -2 -24q-7 -37 -24 -52.5t-51 -15.5h-64l-452 -565l-62 -350h236q28 0 40.5 -10t12.5 -34q0 -15 -2 -24q-6 -37 -23 -52.5t-51 -15.5h-602q-28 0 -41 10.5t-13 34.5q0 7 2 23q7 37 24 52.5t51 15.5h216l64 363l-244 552h-74
q-28 0 -40.5 10t-12.5 34q0 15 2 24q7 37 24 52.5t51 15.5h334q28 0 40.5 -10t12.5 -34q0 -15 -2 -24q-7 -37 -24 -52.5t-51 -15.5h-97l178 -409l324 409h-61q-28 0 -40.5 10t-12.5 34q0 15 2 24q7 37 24 52.5t51 15.5h304q28 0 40.5 -10z" />
    <glyph glyph-name="Z" unicode="Z" 
d="M1156.5 1177q12.5 -10 12.5 -34q0 -15 -2 -24q-5 -25 -17 -39l-800 -944h522l48 269q6 35 25.5 50t60.5 15q35 0 50.5 -10.5t15.5 -34.5q0 -6 -2 -20l-60 -337q-6 -37 -23 -52.5t-51 -15.5h-766q-28 0 -41 10.5t-13 34.5q0 7 2 23q5 23 22 43l795 940h-492l-44 -249
q-6 -35 -25.5 -50t-61.5 -15q-35 0 -50 10.5t-15 34.5q0 4 2 20l56 317q7 37 24 52.5t51 15.5h736q28 0 40.5 -10z" />
    <glyph glyph-name="bracketleft" unicode="[" 
d="M1019 1361q13 -11 13 -35q0 -11 -3 -26q-7 -39 -24.5 -55.5t-51.5 -16.5h-327l-249 -1417h327q27 0 40 -11t13 -35q0 -11 -3 -26q-7 -39 -24.5 -55.5t-51.5 -16.5h-414q-28 0 -40.5 10t-12.5 34q0 15 2 24l277 1569q7 37 24 52.5t51 15.5h414q27 0 40 -11z" />
    <glyph glyph-name="backslash" unicode="\" 
d="M499.5 1385.5q17.5 -8.5 21.5 -23.5l378 -1653q1 -3 1 -9q0 -24 -27 -39.5t-59 -15.5q-27 0 -44 8.5t-21 23.5l-378 1653q-1 3 -1 9q0 24 26.5 39.5t58.5 15.5q27 0 44.5 -8.5z" />
    <glyph glyph-name="bracketright" unicode="]" 
d="M1047.5 1362q12.5 -10 12.5 -34q0 -15 -2 -24l-277 -1569q-7 -37 -24 -52.5t-51 -15.5h-414q-27 0 -40 11t-13 35q0 11 3 26q7 39 24.5 55.5t51.5 16.5h327l249 1417h-327q-27 0 -40 11t-13 35q0 11 3 26q7 39 24.5 55.5t51.5 16.5h414q28 0 40.5 -10z" />
    <glyph glyph-name="asciicircum" unicode="^" 
d="M798 1200q13 -9 20 -28l204 -591q3 -7 3 -15q0 -18 -15.5 -33t-38.5 -23q-20 -7 -42 -7q-39 0 -47 24l-154 480l-320 -480q-8 -13 -24.5 -19t-36.5 -6q-18 0 -36 5q-22 6 -36.5 18.5t-14.5 28.5q0 13 10 27l412 591q14 19 30.5 28t44.5 9t41 -9z" />
    <glyph glyph-name="underscore" unicode="_" 
d="M1222 -266.5q9 -9.5 9 -30.5q0 -12 -3 -28q-7 -38 -21 -53t-42 -15h-1183q-21 0 -30.5 8.5t-9.5 30.5q0 12 3 32q6 35 22 50t47 15h1180q19 0 28 -9.5z" />
    <glyph glyph-name="grave" unicode="`" 
d="M965 1093q0 -22 -13.5 -39t-33.5 -17q-4 0 -12 2l-481 163q-25 8 -25 35q0 28 25 72q19 35 35.5 50t32.5 15q14 0 33 -11l416 -230q23 -13 23 -40z" />
    <glyph glyph-name="a" unicode="a" 
d="M1118.5 133q12.5 -11 12.5 -36q0 -15 -2 -25q-8 -39 -25 -55.5t-51 -16.5h-11q-80 0 -129 46.5t-53 131.5q-72 -99 -160 -149.5t-198 -50.5q-104 0 -186 47.5t-128.5 135.5t-46.5 205q0 137 58 271t173.5 221.5t278.5 87.5q93 0 166 -48t119 -132l19 103q6 36 22.5 50.5
t55.5 14.5h2q33 0 47.5 -10.5t14.5 -33.5q0 -5 -2 -21l-104 -590q-4 -19 -4 -40q0 -47 23 -71t63 -24h5q28 0 40.5 -11zM705.5 186.5q81.5 60.5 128 156.5t46.5 198q0 121 -63.5 189t-171.5 68q-105 0 -184 -61t-121 -158.5t-42 -203.5q0 -114 59 -181.5t167 -67.5
q100 0 181.5 60.5z" />
    <glyph glyph-name="b" unicode="b" 
d="M480.5 1302q12.5 -10 12.5 -34q0 -15 -2 -24l-80 -453q150 155 334 155q107 0 189.5 -47.5t128.5 -135t46 -205.5q0 -138 -57.5 -271.5t-174 -221t-282.5 -87.5q-99 0 -177.5 48.5t-127.5 131.5l-19 -103q-6 -36 -23 -50.5t-58 -14.5q-34 0 -47.5 10t-13.5 32q0 5 2 23
l198 1121h-102q-28 0 -40.5 10t-12.5 34q0 15 2 24q7 37 24 52.5t51 15.5h189q28 0 40.5 -10zM520.5 739q-84.5 -59 -129.5 -154.5t-45 -201.5q0 -121 69 -189t186 -68q107 0 187 61t122 158.5t42 203.5q0 114 -60.5 181.5t-172.5 67.5q-114 0 -198.5 -59z" />
    <glyph glyph-name="c" unicode="c" 
d="M1120.5 935.5q15.5 -10.5 15.5 -34.5q0 -6 -2 -20l-51 -290q-6 -35 -24.5 -50t-59.5 -15q-36 0 -51.5 11t-15.5 36q0 4 2 18q2 11 2 32q0 81 -63 128t-184 47q-112 0 -203 -56t-143.5 -150t-52.5 -201q0 -78 32.5 -138t93.5 -93.5t145 -33.5q91 0 180 28.5t170 83.5
q19 13 37 13q33 0 56 -40q14 -25 14 -45q0 -36 -39 -61q-93 -59 -207 -93t-227 -34q-126 0 -219.5 52t-143.5 143.5t-50 206.5q0 147 72 277.5t201.5 209.5t294.5 79q90 0 160.5 -36t110.5 -99l13 70q7 35 26 50t60 15q35 0 50.5 -10.5z" />
    <glyph glyph-name="d" unicode="d" 
d="M1164.5 1302q12.5 -10 12.5 -34q0 -15 -2 -24l-196 -1108h82q28 0 40.5 -10t12.5 -34q0 -15 -2 -24q-6 -37 -23 -52.5t-51 -15.5h-159q-28 0 -41 10t-13 34q0 15 2 24l15 80q-157 -170 -347 -170q-107 0 -189.5 47.5t-128.5 135t-46 205.5q0 138 57.5 271.5t174 221
t282.5 87.5q97 0 173.5 -45t124.5 -123l70 398h-162q-28 0 -40.5 10t-12.5 34q0 15 2 24q7 37 24 52.5t51 15.5h249q28 0 40.5 -10zM452 737q-80 -61 -122 -158.5t-42 -203.5q0 -114 60.5 -181.5t172.5 -67.5q114 0 198.5 59t129.5 154.5t45 201.5q0 121 -69 189t-186 68
q-107 0 -187 -61z" />
    <glyph glyph-name="e" unicode="e" 
d="M857 411l-549 -57q4 -231 250 -231q96 0 195 25.5t180 66.5q16 7 25 7q38 0 56 -56q6 -21 6 -36q0 -23 -11.5 -38t-35.5 -26q-89 -39 -203.5 -63.5t-226.5 -24.5q-124 0 -212 45.5t-133.5 130t-45.5 200.5q0 164 72 299.5t202.5 214t296.5 78.5q109 0 190.5 -38
t125.5 -104t44 -149q0 -220 -226 -244zM826 550q55 6 77 30t22 70q0 66 -56 108.5t-161 42.5q-101 0 -180 -39.5t-131 -109t-74 -160.5z" />
    <glyph glyph-name="f" unicode="f" 
d="M1249 1266q43 -19 43 -58q0 -14 -6 -34q-19 -55 -57 -55q-10 0 -25 5q-117 47 -228 47q-202 0 -240 -217l-20 -110h346q28 0 40.5 -10t12.5 -34q0 -15 -2 -24q-6 -37 -23.5 -52.5t-51.5 -15.5h-346l-140 -799q-27 -153 -118 -236t-239 -83q-152 0 -272 86q-27 19 -27 47
q0 23 18 51q28 42 57 42q15 0 31 -11q92 -69 206 -69q82 0 131 45.5t65 140.5l138 786h-198q-28 0 -40.5 10.5t-12.5 34.5q0 5 2 23q7 37 24 52.5t51 15.5h198l22 123q30 166 134 258t270 92q134 0 257 -51z" />
    <glyph glyph-name="g" unicode="g" 
d="M844 899q75 -47 121 -133l19 103q6 36 23 50.5t58 14.5q34 0 47.5 -10t13.5 -32q0 -5 -2 -23l-161 -909q-32 -179 -154.5 -274.5t-323.5 -95.5t-368 70q-36 14 -36 51q0 19 9 43q21 55 58 55q14 0 24 -5q73 -32 159 -49t170 -17q135 0 216.5 66t100.5 179l33 191
q-74 -73 -156 -109.5t-177 -36.5q-108 0 -191 45.5t-129 130t-46 196.5q0 145 62.5 270t180 200.5t275.5 75.5q99 0 174 -47zM468.5 742.5q-78.5 -55.5 -119 -144t-40.5 -186.5q0 -108 61 -172t175 -64q118 0 201 56.5t125 144.5t42 179q0 114 -70.5 178t-188.5 64
q-107 0 -185.5 -55.5z" />
    <glyph glyph-name="h" unicode="h" 
d="M520.5 1302q12.5 -10 12.5 -34q0 -15 -2 -24l-87 -494q82 96 173.5 146t185.5 50q79 0 136.5 -32t88 -90.5t30.5 -136.5q0 -39 -7 -77l-84 -474h82q28 0 40.5 -10t12.5 -34q0 -15 -2 -24q-6 -37 -23 -52.5t-51 -15.5h-169q-28 0 -41 10t-13 34q0 15 2 24l95 537
q5 32 5 53q0 66 -33.5 103t-99.5 37q-84 0 -167.5 -53.5t-143.5 -144.5t-79 -198l-61 -347q-6 -35 -25.5 -50t-59.5 -15h-2q-35 0 -50 10.5t-15 34.5q0 4 2 20l198 1121h-92q-28 0 -40.5 10t-12.5 34q0 15 2 24q7 37 24 52.5t51 15.5h179q28 0 40.5 -10z" />
    <glyph glyph-name="i" unicode="i" 
d="M774 1352.5q19 -10.5 19 -35.5q0 -5 -2 -19l-23 -130q-6 -36 -28.5 -50.5t-77.5 -14.5q-48 0 -67 10.5t-19 35.5q0 5 2 19l23 130q6 36 29 50.5t78 14.5q47 0 66 -10.5zM702.5 914q12.5 -10 12.5 -34q0 -15 -2 -24l-96 -546q-7 -42 -7 -66q0 -63 32 -91.5t102 -28.5
q57 0 113.5 18.5t118.5 57.5q15 9 30 9q16 0 30 -12t23 -36q8 -20 8 -40q0 -35 -38 -56q-153 -87 -300 -87q-129 0 -199 66.5t-70 184.5q0 40 7 78l84 481h-253q-28 0 -40.5 10.5t-12.5 34.5q0 5 2 23q7 37 24 52.5t51 15.5h340q28 0 40.5 -10z" />
    <glyph glyph-name="j" unicode="j" 
d="M1044 1352.5q19 -10.5 19 -35.5q0 -5 -2 -19l-23 -130q-6 -36 -28.5 -50.5t-77.5 -14.5q-48 0 -67 10.5t-19 35.5q0 5 2 19l23 130q6 36 29 50.5t78 14.5q47 0 66 -10.5zM972.5 914q12.5 -10 12.5 -34q0 -15 -2 -24l-160 -913q-31 -177 -121 -265t-259 -88
q-83 0 -172.5 31.5t-159.5 81.5q-28 20 -28 47q0 21 17 51q26 44 58 44q18 0 33 -12q62 -44 131.5 -70.5t136.5 -26.5q98 0 147 53t69 167l146 832h-423q-28 0 -40.5 10.5t-12.5 34.5q0 5 2 23q7 37 24 52.5t51 15.5h510q28 0 40.5 -10z" />
    <glyph glyph-name="k" unicode="k" 
d="M549.5 1302q12.5 -10 12.5 -34q0 -15 -2 -24l-132 -747l395 291h-54q-28 0 -40.5 10.5t-12.5 34.5q0 5 2 23q7 37 24 52.5t51 15.5h334q28 0 40.5 -10t12.5 -34q0 -15 -2 -24q-6 -37 -23.5 -52.5t-51.5 -15.5h-55l-414 -302q18 3 34 3q78 0 137 -65q27 -29 44.5 -64
t37.5 -88q16 -41 27 -64.5t26 -40.5q26 -31 65 -31h24q28 0 40.5 -10t12.5 -34q0 -15 -2 -24q-6 -37 -23 -52.5t-51 -15.5h-43q-75 0 -115 40q-33 33 -53.5 72t-42.5 98q-18 46 -29.5 70.5t-28.5 44.5q-24 27 -57.5 40.5t-72.5 13.5q-37 0 -78.5 -12t-70.5 -33l-18 -13
l-47 -266q-6 -35 -25.5 -50t-59.5 -15h-2q-35 0 -50 10.5t-15 34.5q0 4 2 20l198 1121h-131q-28 0 -40.5 10t-12.5 34q0 15 2 24q7 37 24 52.5t51 15.5h218q28 0 40.5 -10z" />
    <glyph glyph-name="l" unicode="l" 
d="M751.5 1302q12.5 -10 12.5 -34q0 -15 -2 -24l-165 -934q-7 -44 -7 -67q0 -62 32.5 -90.5t101.5 -28.5q57 0 113.5 18.5t118.5 57.5q15 9 30 9q16 0 30 -12t23 -36q8 -20 8 -40q0 -35 -38 -56q-153 -87 -300 -87q-129 0 -199 66.5t-70 184.5q0 40 7 78l153 869h-273
q-28 0 -40.5 10t-12.5 34q0 15 2 24q7 37 24 52.5t51 15.5h360q28 0 40.5 -10z" />
    <glyph glyph-name="m" unicode="m" 
d="M1184.5 125.5q12.5 -10.5 12.5 -34.5q0 -5 -2 -23q-6 -37 -23 -52.5t-51 -15.5h-149q-28 0 -41 10t-13 34q0 15 2 24l105 592q5 32 5 52q0 86 -76 86q-47 0 -95.5 -48t-87 -131t-55.5 -182l-67 -382q-6 -35 -25.5 -50t-59.5 -15h-2q-35 0 -50 10.5t-15 34.5q0 4 2 20
l107 605q5 32 5 52q0 86 -76 86q-47 0 -95.5 -48t-87 -131t-55.5 -182l-67 -382q-6 -35 -25.5 -50t-59.5 -15h-2q-35 0 -50 10.5t-15 34.5q0 4 2 20l129 733h-82q-28 0 -40.5 10.5t-12.5 34.5q0 5 2 23q7 37 24 52.5t51 15.5h149q28 0 40.5 -10t12.5 -34q0 -15 -2 -24
l-17 -99q55 93 122.5 141t131.5 48q67 0 110.5 -47t47.5 -134q55 90 123.5 135.5t135.5 45.5q50 0 90.5 -24t64 -70.5t23.5 -111.5q0 -36 -7 -72l-94 -532h62q28 0 40.5 -10.5z" />
    <glyph glyph-name="n" unicode="n" 
d="M1000 875.5q68 -70.5 68 -189.5q0 -38 -7 -76l-84 -474h82q28 0 40.5 -10t12.5 -34q0 -15 -2 -24q-6 -37 -23 -52.5t-51 -15.5h-169q-28 0 -41 10t-13 34q0 15 2 24l95 537q5 32 5 54q0 66 -33 102.5t-100 36.5q-84 0 -167.5 -53.5t-143.5 -144.5t-79 -198l-61 -347
q-6 -35 -25.5 -50t-59.5 -15h-2q-35 0 -50 10.5t-15 34.5q0 4 2 20l129 733h-102q-28 0 -40.5 10.5t-12.5 34.5q0 5 2 23q7 37 24 52.5t51 15.5h179q28 0 40.5 -10t12.5 -34q0 -15 -2 -24l-21 -120q84 102 179 156t193 54q119 0 187 -70.5z" />
    <glyph glyph-name="o" unicode="o" 
d="M910 893.5q96 -52.5 149 -145.5t53 -210q0 -147 -70 -276t-196 -206.5t-286 -77.5q-124 0 -220 52.5t-149 145.5t-53 210q0 147 70 276t196 206.5t286 77.5q124 0 220 -52.5zM479 742q-87 -56 -135.5 -149t-48.5 -199q0 -80 33 -140.5t96.5 -94t151.5 -33.5q108 0 195 56
t135.5 149t48.5 199q0 80 -33 140.5t-96.5 94t-151.5 33.5q-108 0 -195 -56z" />
    <glyph glyph-name="p" unicode="p" 
d="M943.5 898.5q82.5 -47.5 128.5 -135t46 -205.5q0 -138 -57.5 -271.5t-174 -221t-282.5 -87.5q-97 0 -173.5 45t-124.5 123l-70 -398h173q28 0 40.5 -10t12.5 -34q0 -15 -2 -24q-7 -37 -24 -52.5t-51 -15.5h-424q-27 0 -40 10t-13 33q0 11 3 25q6 37 23 52.5t51 15.5h101
l184 1040h-82q-28 0 -40.5 10t-12.5 34q0 15 2 24q6 37 23 52.5t51 15.5h159q28 0 41 -10t13 -34q0 -15 -2 -24l-15 -80q157 170 347 170q107 0 189.5 -47.5zM529.5 739q-84.5 -59 -129.5 -154.5t-45 -201.5q0 -121 69 -189t186 -68q107 0 187 61t122 158.5t42 203.5
q0 114 -60.5 181.5t-172.5 67.5q-114 0 -198.5 -59z" />
    <glyph glyph-name="q" unicode="q" 
d="M837.5 897.5q78.5 -48.5 127.5 -131.5l19 103q6 36 23 50.5t58 14.5q34 0 47.5 -10t13.5 -32q0 -5 -2 -23l-198 -1121h102q28 0 40.5 -10t12.5 -34q0 -15 -2 -24q-7 -37 -24 -52.5t-51 -15.5h-424q-28 0 -40.5 10t-12.5 34q0 15 2 24q7 37 24 52.5t51 15.5h172l68 385
q-150 -155 -334 -155q-107 0 -189.5 47.5t-128.5 135t-46 205.5q0 138 57.5 271.5t174 221t282.5 87.5q99 0 177.5 -48.5zM467 737q-80 -61 -122 -158.5t-42 -203.5q0 -114 60.5 -181.5t172.5 -67.5q114 0 198.5 59t129.5 154.5t45 201.5q0 121 -69 189t-186 68
q-107 0 -187 -61z" />
    <glyph glyph-name="r" unicode="r" 
d="M1135 906q39 -25 39 -63q0 -24 -12 -45q-28 -54 -61 -54q-13 0 -28 9q-40 26 -96 26q-91 0 -194.5 -66t-182 -174.5t-99.5 -228.5l-31 -174h337q28 0 40.5 -10t12.5 -34q0 -15 -2 -24q-6 -37 -23 -52.5t-51 -15.5h-644q-28 0 -41 10.5t-13 34.5q0 7 2 23q7 37 24 52.5
t51 15.5h157l115 652h-127q-28 0 -40.5 10.5t-12.5 34.5q0 5 2 23q7 37 24 52.5t51 15.5h204q28 0 40.5 -10t12.5 -34q0 -15 -2 -24l-35 -202q98 135 218 213.5t229 78.5q75 0 136 -40z" />
    <glyph glyph-name="s" unicode="s" 
d="M1075.5 935.5q15.5 -10.5 15.5 -34.5q0 -6 -2 -20l-34 -190q-6 -35 -25.5 -50t-60.5 -15q-35 0 -44 26q-28 82 -104 115.5t-202 33.5q-75 0 -127 -20.5t-77.5 -54t-25.5 -71.5q0 -33 28 -52t81 -30q58 -13 152 -22q74 -9 123 -17.5t97 -23.5q161 -53 161 -190
q0 -77 -41.5 -155.5t-140.5 -132.5t-261 -54q-108 0 -184.5 30t-127.5 91l-10 -56q-6 -35 -25.5 -50t-60.5 -15q-35 0 -50.5 10.5t-15.5 34.5q0 6 2 20l42 240q6 35 25.5 50t61.5 15q21 0 31.5 -9.5t15.5 -31.5q20 -96 95.5 -140t215.5 -44q98 0 158 27.5t85 66.5t25 76
q0 35 -28 56t-80 33q-51 12 -159 24q-80 10 -126 17.5t-93 23.5q-74 25 -115 68t-41 114q0 85 45.5 157.5t137 116t222.5 43.5q97 0 173 -29t124 -81l8 45q6 35 25.5 50t60.5 15q35 0 50.5 -10.5z" />
    <glyph glyph-name="t" unicode="t" 
d="M651 1198.5q15 -10.5 15 -34.5q0 -4 -2 -20l-53 -300h411q28 0 40.5 -10t12.5 -34q0 -15 -2 -24q-6 -37 -23.5 -52.5t-51.5 -15.5h-411l-64 -364q-9 -46 -9 -83q0 -70 34.5 -103.5t112.5 -33.5q66 0 144.5 27.5t156.5 73.5q15 9 30 9q16 0 30 -12t23 -36q8 -20 8 -40
q0 -35 -38 -56q-88 -50 -186 -81t-183 -31q-143 0 -213 66.5t-70 192.5q0 42 10 104l64 367h-203q-28 0 -40.5 10.5t-12.5 34.5q0 5 2 23q7 37 24 52.5t51 15.5h203l53 300q6 35 25.5 50t61.5 15q35 0 50 -10.5z" />
    <glyph glyph-name="u" unicode="u" 
d="M1070.5 914q12.5 -10 12.5 -34q0 -15 -2 -24l-127 -720h82q28 0 40.5 -10t12.5 -34q0 -15 -2 -24q-6 -37 -23 -52.5t-51 -15.5h-160q-28 0 -40.5 10t-12.5 34q0 15 2 24l21 120q-84 -102 -179 -156t-193 -54q-119 0 -187 70.5t-68 189.5q0 40 7 76l84 474h-82
q-28 0 -40.5 10.5t-12.5 34.5q0 5 2 23q7 37 24 52.5t51 15.5h169q28 0 40.5 -10t12.5 -34q0 -15 -2 -24l-95 -537q-5 -32 -5 -54q0 -66 33 -102.5t100 -36.5q84 0 167.5 53.5t143.5 144.5t79 198l47 266h-142q-28 0 -40.5 10.5t-12.5 34.5q0 5 2 23q7 37 24 52.5t51 15.5
h229q28 0 40.5 -10z" />
    <glyph glyph-name="v" unicode="v" 
d="M1247.5 914q12.5 -10 12.5 -34q0 -15 -2 -24q-6 -37 -23.5 -52.5t-51.5 -15.5h-59l-454 -745q-21 -34 -50.5 -49.5t-78.5 -15.5q-48 0 -72.5 15.5t-32.5 49.5l-189 745h-66q-28 0 -40.5 10.5t-12.5 34.5q0 5 2 23q7 37 24 52.5t51 15.5h354q28 0 40.5 -10t12.5 -34
q0 -15 -2 -24q-6 -37 -23.5 -52.5t-51.5 -15.5h-132l158 -652l391 652h-83q-28 0 -40.5 10.5t-12.5 34.5q0 5 2 23q7 37 24 52.5t51 15.5h314q28 0 40.5 -10z" />
    <glyph glyph-name="w" unicode="w" 
d="M1307.5 914q12.5 -10 12.5 -34q0 -15 -2 -24q-6 -37 -23.5 -52.5t-51.5 -15.5h-21l-328 -745q-16 -36 -38 -50.5t-60 -14.5q-43 0 -65 15.5t-28 49.5l-76 434l-232 -434q-18 -34 -46 -49.5t-71 -15.5q-38 0 -54.5 14.5t-19.5 50.5l-62 745h-21q-28 0 -40.5 10.5
t-12.5 34.5q0 5 2 23q7 37 24 52.5t51 15.5h294q28 0 40.5 -10t12.5 -34q0 -15 -2 -24q-6 -37 -23.5 -52.5t-51.5 -15.5h-126l42 -582l249 464q25 47 84 47q33 0 49.5 -10t20.5 -30l83 -471l250 582h-98q-28 0 -40.5 10.5t-12.5 34.5q0 5 2 23q7 37 24 52.5t51 15.5h274
q28 0 40.5 -10z" />
    <glyph glyph-name="x" unicode="x" 
d="M1217.5 914q12.5 -10 12.5 -34q0 -15 -2 -24q-6 -37 -23.5 -52.5t-51.5 -15.5h-67l-355 -315l260 -337h57q28 0 40.5 -10t12.5 -34q0 -15 -2 -24q-6 -37 -23 -52.5t-51 -15.5h-344q-28 0 -41 10.5t-13 34.5q0 7 2 23q7 37 24 52.5t51 15.5h101l-192 254l-281 -254h68
q28 0 40.5 -10t12.5 -34q0 -15 -2 -24q-6 -37 -23 -52.5t-51 -15.5h-314q-28 0 -41 10.5t-13 34.5q0 7 2 23q7 37 24 52.5t51 15.5h52l387 343l-237 309h-77q-28 0 -40.5 10.5t-12.5 34.5q0 5 2 23q7 37 24 52.5t51 15.5h344q28 0 40.5 -10t12.5 -34q0 -15 -2 -24
q-6 -37 -23.5 -52.5t-51.5 -15.5h-81l170 -227l249 227h-44q-28 0 -40.5 10.5t-12.5 34.5q0 5 2 23q7 37 24 52.5t51 15.5h304q28 0 40.5 -10z" />
    <glyph glyph-name="y" unicode="y" 
d="M1247.5 914q12.5 -10 12.5 -34q0 -15 -2 -24q-6 -37 -23.5 -52.5t-51.5 -15.5h-59l-556 -838q-90 -136 -163.5 -211t-154.5 -110t-193 -39q-71 -2 -71 67q0 42 16.5 62t45.5 22q96 5 158 33t122.5 95t155.5 209l-237 710h-66q-28 0 -40.5 10.5t-12.5 34.5q0 5 2 23
q7 37 24 52.5t51 15.5h354q28 0 40.5 -10t12.5 -34q0 -15 -2 -24q-6 -37 -23.5 -52.5t-51.5 -15.5h-132l183 -562l368 562h-85q-28 0 -40.5 10.5t-12.5 34.5q0 5 2 23q7 37 24 52.5t51 15.5h314q28 0 40.5 -10z" />
    <glyph glyph-name="z" unicode="z" 
d="M1099.5 914q12.5 -10 12.5 -34q0 -15 -2 -24q-4 -29 -23 -46l-700 -674h476l31 172q6 35 25.5 50t60.5 15q35 0 50.5 -10.5t15.5 -34.5q0 -6 -2 -20l-43 -240q-7 -37 -23.5 -52.5t-50.5 -15.5h-746q-28 0 -41 10.5t-13 34.5q0 7 2 23q5 29 22 45l701 675h-446l-26 -149
q-6 -35 -25.5 -50t-60.5 -15q-35 0 -50.5 10.5t-15.5 34.5q0 6 2 20l38 217q7 37 24 52.5t51 15.5h716q28 0 40.5 -10z" />
    <glyph glyph-name="braceleft" unicode="{" 
d="M1127.5 1360q13.5 -12 13.5 -39q0 -5 -2 -21q-5 -39 -22 -55.5t-51 -16.5q-102 0 -166 -29.5t-99 -90.5t-49 -161l-10 -72q-18 -130 -87 -210t-204 -119l-1 -10q189 -70 189 -239q0 -36 -10 -84l-24 -112q-12 -55 -12 -99q0 -97 59 -144t182 -47q28 0 40 -11t12 -37
q0 -6 -2 -24q-5 -39 -22.5 -55.5t-51.5 -16.5q-176 0 -271.5 79.5t-95.5 231.5q0 62 16 132l21 93q12 53 12 94q0 87 -56 129.5t-181 42.5q-29 0 -42 11.5t-13 38.5q0 6 2 22q5 39 22.5 55.5t51.5 16.5q286 0 320 272l11 90q25 206 144.5 301.5t333.5 95.5q29 0 42.5 -12z
" />
    <glyph glyph-name="bar" unicode="|" 
d="M839 1383.5q15 -10.5 15 -34.5q0 -4 -2 -20l-285 -1619q-6 -35 -25.5 -50t-61.5 -15q-35 0 -50 10.5t-15 34.5q0 4 2 20l285 1619q6 35 25.5 50t61.5 15q35 0 50 -10.5z" />
    <glyph glyph-name="braceright" unicode="}" 
d="M121.5 -321q-13.5 12 -13.5 39q0 5 2 21q5 39 22 55.5t51 16.5q102 0 166 29.5t99.5 91t48.5 160.5l16 118q18 128 88 209.5t204 120.5l1 10q-181 70 -181 248q0 34 8 79l11 61q10 58 10 95q0 100 -57.5 147.5t-181.5 47.5q-28 0 -40 11t-12 37q0 6 2 24q5 39 22.5 55.5
t51.5 16.5q178 0 271 -80.5t93 -237.5q0 -60 -13 -125l-10 -52q-10 -55 -10 -91q0 -88 54 -130.5t177 -42.5q29 0 42 -11.5t13 -38.5q0 -6 -2 -22q-5 -39 -22.5 -55.5t-51.5 -16.5q-147 0 -226.5 -72.5t-95.5 -202.5l-16 -130q-25 -205 -145 -301t-333 -96q-29 0 -42.5 12z
" />
    <glyph glyph-name="asciitilde" unicode="~" 
d="M557.5 714q50.5 -21 114.5 -61q58 -34 94 -50t75 -16q85 0 155 84q16 19 38 19t43 -17q32 -24 32 -52q0 -14 -7 -25q-47 -76 -115 -121.5t-146 -45.5q-58 0 -108 21t-116 61q-56 33 -93 49.5t-75 16.5q-85 0 -155 -84q-16 -19 -38 -19t-43 17q-32 24 -32 52q0 14 7 25
q47 76 115 121.5t146 45.5q58 0 108.5 -21z" />
    <glyph glyph-name="uni00A0" unicode="&#xa0;" 
 />
    <glyph glyph-name="exclamdown" unicode="&#xa1;" 
d="M541 669q-30 15 -24 48l27 154q6 34 34.5 48.5t93.5 14.5q67 0 97.5 -15t24.5 -48l-27 -154q-6 -34 -35 -48.5t-94 -14.5q-67 0 -97 15zM366 -316q0 9 3 21l174 707q5 23 22 35.5t43 12.5t39 -12.5t11 -35.5l-77 -707q-4 -50 -50 -50h-130q-35 0 -35 29z" />
    <glyph glyph-name="cent" unicode="&#xa2;" 
d="M820.5 1301q14.5 -11 14.5 -34q0 -6 -2 -20l-30 -169q63 -13 112.5 -46t80.5 -81l13 70q7 35 26 50t60 15q35 0 50.5 -10.5t15.5 -34.5q0 -6 -2 -20l-51 -290q-6 -35 -24.5 -50t-59.5 -15q-36 0 -51.5 11t-15.5 36q0 4 2 18q2 11 2 31q0 69 -46.5 114.5t-136.5 57.5
l-117 -663q143 18 275 107q20 13 37 13q33 0 56 -40q14 -25 14 -45q0 -36 -39 -61q-79 -51 -175 -83.5t-194 -41.5l-32 -180q-6 -34 -25.5 -49.5t-56.5 -15.5q-31 0 -45.5 11t-14.5 34q0 6 2 20l32 183q-104 15 -180.5 69.5t-117 139.5t-40.5 188q0 138 63.5 261.5t179 205
t264.5 96.5l29 164q6 34 25.5 49.5t56.5 15.5q31 0 45.5 -11zM470.5 853.5q-73.5 -58.5 -114.5 -143t-41 -179.5q0 -103 54.5 -172t151.5 -87l116 658q-93 -18 -166.5 -76.5z" />
    <glyph glyph-name="sterling" unicode="&#xa3;" 
d="M924.5 1181q82.5 -28 140.5 -76q14 -12 14 -35q0 -5 -2 -19l-23 -127q-6 -35 -25.5 -50t-60.5 -15q-35 0 -50.5 10.5t-15.5 34.5q0 6 2 20l16 90q-70 47 -186 47q-69 0 -119 -34.5t-76 -87t-26 -105.5q0 -32 8 -62.5t24 -75.5q19 -58 24 -76h315q28 0 40.5 -10t12.5 -34
q0 -15 -2 -24q-7 -37 -24 -52.5t-51 -15.5h-277q-13 -191 -194 -349q68 23 129 23q31 0 57.5 -4.5t65.5 -14.5q35 -8 55.5 -12t43.5 -4q36 0 75 12.5t86 43.5q10 6 21 6q14 0 28 -10t24 -27q12 -22 12 -42q0 -32 -27 -50q-66 -43 -118.5 -60.5t-101.5 -17.5q-28 0 -54 4
t-64 13q-42 10 -76.5 15t-73.5 5q-104 0 -230 -49q-9 -3 -17 -3q-17 0 -33 10.5t-28 27.5q-18 26 -18 53q0 25 16 38q131 102 198 194t73 198h-144q-28 0 -40.5 10t-12.5 34q0 15 2 24q7 37 24 52.5t51 15.5h100q-4 14 -14 42q-19 56 -28.5 95t-9.5 82q0 89 46.5 174.5
t135.5 140.5t209 55q91 0 173.5 -28z" />
    <glyph glyph-name="currency" unicode="&#xa4;" 
d="M1202 994q0 -22 -27 -45l-156 -130q34 -73 34 -160q0 -83 -27.5 -160.5t-78.5 -139.5l113 -134q19 -22 19 -42q0 -24 -33 -53q-28 -24 -51 -24q-22 0 -45 27l-111 132q-107 -67 -235 -67q-70 0 -129 19.5t-105 55.5l-153 -128q-22 -19 -42 -19q-24 0 -53 33
q-24 29 -24 51q0 23 27 45l156 130q-34 73 -34 160q0 83 27.5 160.5t78.5 139.5l-113 134q-19 22 -19 42q0 25 33 53q28 24 51 24t45 -27l111 -132q107 67 235 67q70 0 129 -19.5t105 -55.5l153 128q22 19 42 19q25 0 53 -33q24 -28 24 -51zM452.5 398q58.5 -58 161.5 -58
q87 0 153.5 44.5t102.5 116.5t36 151q0 96 -58.5 154t-161.5 58q-87 0 -153.5 -44.5t-102.5 -116.5t-36 -151q0 -96 58.5 -154z" />
    <glyph glyph-name="yen" unicode="&#xa5;" 
d="M1284.5 1177q12.5 -10 12.5 -34q0 -15 -2 -24q-7 -37 -24 -52.5t-51 -15.5h-64l-185 -231h118q28 0 40.5 -10t12.5 -34q0 -15 -2 -24q-7 -37 -24 -52.5t-51 -15.5h-203l-139 -174h291q28 0 40.5 -10t12.5 -34q0 -15 -2 -24q-6 -37 -23.5 -52.5t-51.5 -15.5h-306l-42 -238
h236q28 0 40.5 -10t12.5 -34q0 -15 -2 -24q-6 -37 -23 -52.5t-51 -15.5h-602q-28 0 -41 10.5t-13 34.5q0 7 2 23q7 37 24 52.5t51 15.5h216l42 238h-306q-28 0 -40.5 10.5t-12.5 34.5q0 5 2 23q7 37 24 52.5t51 15.5h299l-77 174h-211q-28 0 -40.5 10t-12.5 34q0 15 2 24
q7 37 24 52.5t51 15.5h127l-102 231h-74q-28 0 -40.5 10t-12.5 34q0 15 2 24q7 37 24 52.5t51 15.5h334q28 0 40.5 -10t12.5 -34q0 -15 -2 -24q-7 -37 -24 -52.5t-51 -15.5h-97l178 -409l324 409h-61q-28 0 -40.5 10t-12.5 34q0 15 2 24q7 37 24 52.5t51 15.5h304
q28 0 40.5 -10z" />
    <glyph glyph-name="brokenbar" unicode="&#xa6;" 
d="M839 1383.5q15 -10.5 15 -34.5q0 -4 -2 -20l-105 -599q-6 -35 -25.5 -50t-60.5 -15q-35 0 -50.5 10.5t-15.5 34.5q0 6 2 20l105 599q6 35 25.5 50t61.5 15q35 0 50 -10.5zM659.5 363.5q15.5 -10.5 15.5 -34.5q0 -6 -2 -20l-106 -599q-6 -35 -25.5 -50t-61.5 -15
q-35 0 -50 10.5t-15 34.5q0 4 2 20l106 599q6 35 25.5 50t60.5 15q35 0 50.5 -10.5z" />
    <glyph glyph-name="section" unicode="&#xa7;" 
d="M1104.5 1177q12.5 -10 12.5 -34q0 -15 -2 -24l-34 -197q-6 -35 -25.5 -50t-61.5 -15q-35 0 -50 10.5t-15 34.5q0 4 2 20l22 129h-243q-80 0 -121.5 -35t-41.5 -102q0 -42 23.5 -78.5t72.5 -69.5l262 -182q134 -92 134 -221q0 -25 -4 -45q-12 -65 -54.5 -111.5
t-124.5 -97.5q6 -27 6 -56q0 -23 -5 -53q-19 -108 -97 -169t-212 -61h-356q-28 0 -40.5 10t-12.5 34q0 15 2 24l38 217q6 35 25.5 50t61.5 15q35 0 50 -10.5t15 -34.5q0 -4 -2 -20l-26 -149h243q80 0 121.5 35t41.5 102q0 42 -23.5 78.5t-72.5 69.5l-262 182
q-134 92 -134 221q0 25 4 45q11 64 53.5 110.5t125.5 97.5q-6 27 -6 57q0 23 5 53q19 108 97 169t212 61h356q28 0 40.5 -10zM392 672q-21 -30 -21 -70q0 -31 17.5 -56t55.5 -51l262 -182q56 -39 92 -85q44 27 65.5 57t21.5 70q0 31 -17.5 56t-55.5 51l-262 182
q-58 40 -93 85q-44 -27 -65 -57z" />
    <glyph glyph-name="dieresis" unicode="&#xa8;" 
d="M630 1289q30 -31 30 -76q0 -39 -20.5 -72t-53.5 -52t-70 -19q-47 0 -77.5 31t-30.5 77q0 37 20.5 70t54 52.5t70.5 19.5q47 0 77 -31zM1070 1289q30 -31 30 -76q0 -39 -20.5 -72t-53.5 -52t-70 -19q-47 0 -77.5 31t-30.5 77q0 37 20.5 70t54 52.5t70.5 19.5q47 0 77 -31z
" />
    <glyph glyph-name="copyright" unicode="&#xa9;" 
d="M1001.5 1143q111.5 -66 172.5 -180.5t61 -257.5q0 -196 -92.5 -363t-249.5 -265.5t-340 -98.5q-146 0 -258 66t-173 181.5t-61 258.5q0 196 93 362.5t250 264.5t340 98q146 0 257.5 -66zM461.5 1009q-127.5 -80 -203.5 -218t-76 -304q0 -115 46 -203t131.5 -137
t201.5 -49q148 0 275 80.5t202.5 219t75.5 304.5q0 114 -45.5 202t-131 136.5t-201.5 48.5q-147 0 -274.5 -80zM803.5 926.5q44.5 -10.5 83.5 -29.5q36 -19 36 -48q0 -17 -10 -37q-19 -40 -49 -40q-14 0 -28 7q-34 17 -65 24.5t-69 7.5q-46 0 -86.5 -19t-71.5 -57
q-32 -39 -50 -92.5t-18 -107.5q0 -77 41 -118.5t108 -41.5q38 0 71.5 7.5t73.5 24.5q15 7 29 7t23.5 -10t16.5 -32q5 -18 5 -30q0 -18 -10.5 -30.5t-34.5 -22.5q-45 -19 -93.5 -29.5t-93.5 -10.5q-79 0 -140 33.5t-94.5 96.5t-33.5 147q0 81 28.5 163t83.5 140
q49 53 115 80.5t143 27.5q45 0 89.5 -10.5z" />
    <glyph glyph-name="ordfeminine" unicode="&#xaa;" 
d="M1103 601.5q10 -10.5 10 -31.5q0 -7 -2 -23q-7 -33 -21.5 -48.5t-41.5 -15.5h-10q-59 0 -100.5 30.5t-54.5 87.5q-61 -70 -129.5 -103t-154.5 -33q-83 0 -149 36.5t-103.5 104t-37.5 157.5q0 105 46.5 208t138.5 170.5t220 67.5q78 0 132.5 -33.5t83.5 -92.5l13 67
q6 28 20 39t52 11q32 0 45 -8t13 -26q0 -4 -2 -16l-77 -436q-3 -16 -3 -30q0 -36 20 -54t55 -18h4q23 0 33 -10.5zM766.5 638q60.5 41 90.5 109.5t30 150.5q0 90 -47 134.5t-135 44.5q-74 0 -131.5 -43t-89.5 -113.5t-32 -150.5q0 -82 44.5 -127.5t122.5 -45.5
q87 0 147.5 41z" />
    <glyph glyph-name="guillemotleft" unicode="&#xab;" 
d="M559 946q27 0 61 -35q26 -27 26 -49q0 -19 -18 -35l-279 -249l218 -293q10 -13 10 -29q0 -27 -36 -52q-32 -22 -57 -22q-22 0 -36 19l-269 371q-7 11 -7 21q0 17 12 27l346 314q12 12 29 12zM1059 946q27 0 61 -35q26 -27 26 -49q0 -19 -18 -35l-299 -269l198 -273
q10 -13 10 -29q0 -27 -36 -52q-32 -22 -57 -22q-22 0 -36 19l-249 351q-7 11 -7 21q0 17 12 27l366 334q12 12 29 12z" />
    <glyph glyph-name="logicalnot" unicode="&#xac;" 
d="M1134 834.5q13 -10.5 13 -34.5q0 -7 -2 -23l-70 -394q-6 -35 -25.5 -50t-60.5 -15q-35 0 -50.5 10.5t-15.5 34.5q0 6 2 20l58 326h-725q-28 0 -40.5 10t-12.5 34q0 15 2 24q6 37 23 52.5t51 15.5h812q28 0 41 -10.5z" />
    <glyph glyph-name="uni00AD" unicode="&#xad;" 
d="M998.5 500q12.5 -10 12.5 -34q0 -15 -2 -24q-7 -37 -24 -52.5t-51 -15.5h-672q-28 0 -40.5 10t-12.5 34q0 15 2 24q7 37 24 52.5t51 15.5h672q28 0 40.5 -10z" />
    <glyph glyph-name="registered" unicode="&#xae;" 
d="M984 1279q93 -55 143.5 -150.5t50.5 -214.5q0 -163 -77 -302.5t-207.5 -221.5t-283.5 -82q-122 0 -215 55t-144 151.5t-51 215.5q0 163 77.5 302t208.5 220.5t283 81.5q122 0 215 -55zM533 1167.5q-106 -66.5 -169 -182t-63 -253.5q0 -95 38 -168.5t109.5 -114.5
t168.5 -41q124 0 229.5 67t168 182.5t62.5 254.5q0 95 -38 168t-109.5 113.5t-167.5 40.5q-123 0 -229 -66.5zM842 1070.5q41 -20.5 63 -57t22 -81.5q0 -70 -39.5 -121.5t-112.5 -74.5l76 -102q14 -19 14 -32q0 -19 -28 -38q-22 -15 -36 -15q-15 0 -30 20l-104 149h-84
l-19 -112q-5 -29 -19.5 -41.5t-43.5 -12.5q-22 0 -32 8t-10 25q0 5 2 21l76 432q4 28 19 40.5t44 12.5h147q54 0 95 -20.5zM601 816h88q63 0 96 31t33 78q0 32 -22.5 50t-67.5 18h-96z" />
    <glyph glyph-name="macron" unicode="&#xaf;" 
d="M1084.5 1236q12.5 -10 12.5 -34q0 -15 -2 -24q-7 -37 -24 -52.5t-51 -15.5h-562q-28 0 -40.5 10t-12.5 34q0 15 2 24q7 37 24 52.5t51 15.5h562q28 0 40.5 -10z" />
    <glyph glyph-name="degree" unicode="&#xb0;" 
d="M778.5 1178q56.5 -31 89.5 -86.5t33 -126.5q0 -84 -40 -156.5t-112 -116t-163 -43.5q-69 0 -126 31.5t-90 87t-33 126.5q0 82 40 154.5t112.5 116.5t163.5 44q69 0 125.5 -31zM554.5 1050q-38.5 -24 -60.5 -64t-22 -84q0 -52 33.5 -85t92.5 -33q48 0 86 24t60 63.5
t22 84.5q0 52 -33.5 85t-91.5 33q-48 0 -86.5 -24z" />
    <glyph glyph-name="plusminus" unicode="&#xb1;" 
d="M787.5 1116q13.5 -10 13.5 -33q0 -4 -2 -20l-45 -253h313q28 0 40.5 -10t12.5 -34q0 -15 -2 -24q-6 -37 -23.5 -52.5t-51.5 -15.5h-313l-44 -253q-6 -34 -24 -48.5t-55 -14.5q-32 0 -45.5 10t-13.5 33q0 4 2 20l44 253h-313q-28 0 -40.5 10.5t-12.5 34.5q0 5 2 23
q7 37 24 52.5t51 15.5h313l45 253q6 34 24 48.5t55 14.5q32 0 45.5 -10zM1009.5 239.5q12.5 -10.5 12.5 -34.5q0 -5 -2 -23q-7 -37 -24 -52.5t-51 -15.5h-762q-28 0 -40.5 10t-12.5 34q0 15 2 24q6 37 23.5 52.5t51.5 15.5h762q28 0 40.5 -10.5z" />
    <glyph glyph-name="uni00B2" unicode="&#xb2;" 
d="M958.5 1274.5q67.5 -59.5 67.5 -163.5q0 -86 -51 -154.5t-165 -150.5l-274 -198h322l14 78q5 26 23 38.5t54 12.5q31 0 45 -9.5t14 -28.5q0 -8 -1 -13l-27 -150q-4 -26 -19.5 -39.5t-39.5 -13.5h-571q-38 0 -38 46q0 58 46 91l381 280q77 56 110.5 100t33.5 99
q0 49 -34.5 77.5t-99.5 28.5q-42 0 -86 -10.5t-82 -28.5l-18 -103q-5 -26 -23 -38.5t-54 -12.5q-31 0 -45 9.5t-14 28.5q0 8 1 13l26 147q4 27 29 42q66 39 143 60.5t147 21.5q118 0 185.5 -59.5z" />
    <glyph glyph-name="uni00B3" unicode="&#xb3;" 
d="M957 1277q69 -57 69 -156q0 -68 -39 -121.5t-109 -86.5q52 -22 80.5 -63.5t28.5 -98.5q0 -84 -41.5 -149t-122 -101t-195.5 -36q-76 0 -148 17.5t-129 49.5q-19 11 -19 34q0 18 13 43q24 44 50 44q8 0 20 -5q53 -25 111 -39.5t107 -14.5q100 0 156 38.5t56 108.5
q0 54 -42.5 76.5t-122.5 22.5h-52q-35 0 -35 42q0 7 2 23q10 60 55 60h39q194 0 194 139q0 49 -37.5 75t-100.5 26q-88 0 -162 -29l-11 -63q-5 -26 -23 -38.5t-54 -12.5q-31 0 -45 9.5t-14 28.5q0 8 1 13l20 110q5 29 28 42q63 34 136.5 51.5t142.5 17.5q124 0 193 -57z" />
    <glyph glyph-name="acute" unicode="&#xb4;" 
d="M1003 1374q16 0 32.5 -15t35.5 -50q25 -44 25 -72q0 -27 -25 -35l-481 -163q-8 -2 -12 -2q-14 0 -26 9.5t-17 24.5q-4 9 -4 22q0 27 23 40l416 230q19 11 33 11z" />
    <glyph glyph-name="uni00B5" unicode="&#xb5;" 
d="M1090 923.5q15 -10.5 15 -34.5q0 -4 -2 -20l-143 -814q-6 -36 -22.5 -50.5t-55.5 -14.5h-2q-33 0 -47.5 10.5t-14.5 33.5q0 5 2 21l25 143q-78 -98 -175.5 -159t-194.5 -61q-53 0 -96.5 15t-74.5 43l-65 -369q-6 -35 -25.5 -50t-59.5 -15h-2q-35 0 -50 10.5t-15 34.5
q0 4 2 20l212 1202q6 35 25.5 50t59.5 15h2q35 0 50 -10.5t15 -34.5q0 -4 -2 -20l-97 -550q-5 -30 -5 -53q0 -66 37.5 -103t115.5 -37q76 0 159.5 51t146.5 137.5t81 187.5l64 367q6 35 25.5 50t59.5 15h2q35 0 50 -10.5z" />
    <glyph glyph-name="paragraph" unicode="&#xb6;" 
d="M1233.5 1177q12.5 -10 12.5 -34q0 -15 -2 -24q-7 -37 -24 -52.5t-51 -15.5h-68l-246 -1396q-6 -35 -25.5 -50t-61.5 -15q-35 0 -50 10.5t-15 34.5q0 4 2 20l246 1396h-160l-246 -1396q-6 -35 -25.5 -50t-61.5 -15q-35 0 -50 10.5t-15 34.5q0 4 2 20l149 847
q-103 3 -179.5 38.5t-118 99.5t-41.5 149q0 107 53.5 198t160 145.5t258.5 54.5h516q28 0 40.5 -10z" />
    <glyph glyph-name="periodcentered" unicode="&#xb7;" 
d="M771.5 720q32.5 -15 26.5 -48l-33 -184q-6 -34 -37 -48.5t-101 -14.5q-73 0 -105.5 15t-26.5 48l33 184q6 34 37 48.5t101 14.5q73 0 105.5 -15z" />
    <glyph glyph-name="cedilla" unicode="&#xb8;" 
d="M705.5 -152.5q45.5 -40.5 45.5 -105.5q0 -34 -14 -73.5t-40 -66.5q-69 -74 -220 -74q-68 0 -130 12t-108 36q-17 8 -17 32q0 21 10 38q9 17 21.5 27.5t26.5 10.5q7 0 11 -2q38 -15 88 -24.5t99 -9.5q58 0 87 22.5t29 58.5q0 55 -103 55l-35 -1q-29 0 -29 28q0 9 1 14
l35 203h135l-25 -141q87 1 132.5 -39.5z" />
    <glyph glyph-name="uni00B9" unicode="&#xb9;" 
d="M966.5 597.5q9.5 -10.5 9.5 -30.5q0 -6 -2 -22q-9 -62 -60 -62h-534q-22 0 -31.5 10.5t-9.5 30.5q0 6 2 22q9 62 60 62h205l98 551l-185 -88q-19 -9 -33 -9q-25 0 -40 34q-8 19 -8 34q0 30 34 46l328 152q18 7 28 7q18 0 28 -11.5t6 -31.5l-121 -684h194q22 0 31.5 -10.5
z" />
    <glyph glyph-name="ordmasculine" unicode="&#xba;" 
d="M908.5 1168.5q73.5 -40.5 114.5 -112t41 -161.5q0 -106 -51.5 -205.5t-148 -162t-224.5 -62.5q-94 0 -167 40t-114 111.5t-41 161.5q0 108 52 207.5t148.5 161.5t223.5 62q93 0 166.5 -40.5zM584.5 1034.5q-61.5 -42.5 -94.5 -109.5t-33 -138q0 -86 53 -138t144 -52
q74 0 136 38t98 104.5t36 147.5q0 86 -52.5 138t-143.5 52q-82 0 -143.5 -42.5z" />
    <glyph glyph-name="guillemotright" unicode="&#xbb;" 
d="M634 555q0 -16 -12 -27l-366 -334q-12 -12 -29 -12q-27 0 -61 35q-26 27 -26 49q0 19 18 35l299 269l-198 273q-10 13 -10 29q0 27 36 52q32 22 57 22q23 0 36 -19l249 -351q7 -10 7 -21zM1114 535q0 -16 -12 -27l-346 -314q-12 -12 -29 -12q-27 0 -61 35q-26 27 -26 49
q0 19 18 35l279 249l-218 293q-11 14 -11 29q0 26 37 52q32 22 57 22q23 0 36 -19l269 -371q7 -10 7 -21z" />
    <glyph glyph-name="onequarter" unicode="&#xbc;" 
d="M518 684h-446q-34 0 -34 34q0 4 2 18q8 52 50 52h171l81 459l-154 -73q-14 -7 -27 -7q-23 0 -34 28q-7 18 -7 28q0 26 29 39l274 127q13 5 23 5q15 0 23.5 -9t5.5 -26l-101 -571h162q34 0 34 -34q0 -4 -2 -18q-8 -52 -50 -52zM1185 786q0 -25 -19 -35l-1017 -561
q-7 -4 -16 -4q-25 0 -40 28q-9 15 -9 30q0 24 20 35l1017 561q7 4 16 4q25 0 40 -28q8 -13 8 -30zM1192 42q0 -34 -13 -52.5t-39 -18.5h-92l-27 -153q-4 -20 -18.5 -30t-44.5 -10q-58 0 -50 40l27 153h-314q-17 0 -26.5 12t-9.5 35q0 25 5.5 37t18.5 26l383 378
q19 19 36 27.5t38 8.5q29 0 49.5 -13t16.5 -33l-66 -373h92q34 0 34 -34zM953 76l53 266l-269 -266h216z" />
    <glyph glyph-name="onehalf" unicode="&#xbd;" 
d="M518 684h-446q-34 0 -34 34q0 4 2 18q8 52 50 52h171l81 459l-154 -73q-14 -7 -27 -7q-23 0 -34 28q-7 18 -7 28q0 26 29 39l274 127q13 5 23 5q15 0 23.5 -9t5.5 -26l-101 -571h162q34 0 34 -34q0 -4 -2 -18q-8 -52 -50 -52zM1185 836q0 -25 -19 -35l-1017 -561
q-7 -4 -16 -4q-25 0 -40 28q-9 15 -9 30q0 24 20 35l1017 561q7 4 16 4q25 0 40 -28q8 -13 8 -30zM1159 -12q12 -8 12 -24q0 -7 -1 -11l-23 -125q-8 -44 -49 -44h-477q-31 0 -31 38q0 48 38 76l318 234q64 47 92 83.5t28 82.5q0 41 -28.5 64.5t-83.5 23.5q-35 0 -71.5 -9
t-68.5 -24l-15 -85q-4 -22 -18.5 -32.5t-45.5 -10.5q-26 0 -38 8t-12 24q0 7 1 11l22 122q4 24 24 35q56 33 120 51t122 18q99 0 155.5 -50t56.5 -136q0 -72 -42.5 -129t-138.5 -126l-228 -165h268l12 65q4 22 19 32.5t45 10.5q26 0 38 -8z" />
    <glyph glyph-name="threequarters" unicode="&#xbe;" 
d="M587 1346q58 -48 58 -130q0 -57 -32.5 -102t-91.5 -72q44 -18 67.5 -52.5t23.5 -82.5q0 -70 -34.5 -124t-102 -84t-163.5 -30q-64 0 -123.5 14.5t-107.5 41.5q-16 10 -16 28q0 14 11 36q20 36 42 36q9 0 17 -4q44 -21 92.5 -33t89.5 -12q83 0 130 32.5t47 90.5
q0 45 -36 64t-102 19h-44q-29 0 -29 35q0 5 2 19q4 24 14.5 37t31.5 13h32q162 0 162 116q0 41 -31 62.5t-84 21.5q-74 0 -135 -24l-9 -53q-4 -21 -19 -31.5t-46 -10.5q-49 0 -49 31q0 7 1 11l17 92q3 23 23 35q53 28 114.5 43t118.5 15q103 0 161 -48zM1137 854
q25 0 40 -28q8 -13 8 -30q0 -25 -19 -35l-1017 -561q-7 -4 -16 -4q-25 0 -40 28q-9 15 -9 30q0 24 20 35l1017 561q7 4 16 4zM1115.5 482q20.5 -13 16.5 -33l-66 -373h92q34 0 34 -34t-13 -52.5t-39 -18.5h-92l-27 -153q-4 -20 -18.5 -30t-44.5 -10q-58 0 -50 40l27 153
h-314q-17 0 -26.5 12t-9.5 35q0 25 5.5 37t18.5 26l383 378q19 19 36 27.5t38 8.5q29 0 49.5 -13zM737 76h216l53 266z" />
    <glyph glyph-name="questiondown" unicode="&#xbf;" 
d="M596 706q-27 12 -27 39q0 8 1 12l20 114q6 34 33 48.5t87 14.5q56 0 83.5 -12.5t27.5 -39.5q0 -7 -1 -11l-20 -114q-6 -34 -33.5 -48.5t-87.5 -14.5q-56 0 -83 12zM298.5 -311.5q-69.5 33.5 -106 95t-36.5 143.5q0 139 94.5 229t287.5 162l36 139q12 48 75 48
q62 0 57 -48l-20 -198q-4 -38 -39 -51l-74 -28q-92 -35 -147 -67.5t-83 -75.5t-28 -103q0 -61 42.5 -96t123.5 -35q119 0 223 42l15 84q6 35 25.5 50t60.5 15q35 0 50.5 -10.5t15.5 -34.5q0 -6 -2 -20l-24 -132q-4 -21 -12 -34.5t-23 -21.5q-165 -86 -344 -86
q-98 0 -167.5 33.5z" />
    <glyph glyph-name="Agrave" unicode="&#xc0;" 
d="M837.5 1171.5q21.5 -15.5 27.5 -49.5l179 -986h64q28 0 40.5 -10t12.5 -34q0 -15 -2 -24q-6 -37 -23 -52.5t-51 -15.5h-354q-28 0 -41 10.5t-13 34.5q0 7 2 23q7 37 24 52.5t51 15.5h140l-40 238h-485l-125 -238h116q28 0 40.5 -10t12.5 -34q0 -15 -2 -24
q-6 -37 -23 -52.5t-51 -15.5h-334q-28 0 -41 10.5t-13 34.5q0 7 2 23q7 37 24 52.5t51 15.5h53l493 915h-184q-28 0 -40.5 10t-12.5 34q0 15 2 24q7 37 24 52.5t51 15.5h364q40 0 61.5 -15.5zM723 1051l-283 -541h392l-90 541h-19zM925 1363q0 -22 -13.5 -39t-33.5 -17
q-4 0 -12 2l-481 163q-25 8 -25 35q0 28 25 72q19 35 35.5 50t32.5 15q14 0 33 -11l416 -230q23 -13 23 -40z" />
    <glyph glyph-name="Aacute" unicode="&#xc1;" 
d="M837.5 1171.5q21.5 -15.5 27.5 -49.5l179 -986h64q28 0 40.5 -10t12.5 -34q0 -15 -2 -24q-6 -37 -23 -52.5t-51 -15.5h-354q-28 0 -41 10.5t-13 34.5q0 7 2 23q7 37 24 52.5t51 15.5h140l-40 238h-485l-125 -238h116q28 0 40.5 -10t12.5 -34q0 -15 -2 -24
q-6 -37 -23 -52.5t-51 -15.5h-334q-28 0 -41 10.5t-13 34.5q0 7 2 23q7 37 24 52.5t51 15.5h53l493 915h-184q-28 0 -40.5 10t-12.5 34q0 15 2 24q7 37 24 52.5t51 15.5h364q40 0 61.5 -15.5zM723 1051l-283 -541h392l-90 541h-19zM969 1644q16 0 32.5 -15t35.5 -50
q25 -44 25 -72q0 -27 -25 -35l-481 -163q-8 -2 -12 -2q-14 0 -26 9.5t-17 24.5q-4 9 -4 22q0 27 23 40l416 230q19 11 33 11z" />
    <glyph glyph-name="Acircumflex" unicode="&#xc2;" 
d="M837.5 1171.5q21.5 -15.5 27.5 -49.5l179 -986h64q28 0 40.5 -10t12.5 -34q0 -15 -2 -24q-6 -37 -23 -52.5t-51 -15.5h-354q-28 0 -41 10.5t-13 34.5q0 7 2 23q7 37 24 52.5t51 15.5h140l-40 238h-485l-125 -238h116q28 0 40.5 -10t12.5 -34q0 -15 -2 -24
q-6 -37 -23 -52.5t-51 -15.5h-334q-28 0 -41 10.5t-13 34.5q0 7 2 23q7 37 24 52.5t51 15.5h53l493 915h-184q-28 0 -40.5 10t-12.5 34q0 15 2 24q7 37 24 52.5t51 15.5h364q40 0 61.5 -15.5zM723 1051l-283 -541h392l-90 541h-19zM826 1628l246 -232q11 -11 11 -29
q0 -20 -11 -37q-8 -12 -19 -19.5t-22 -7.5q-9 0 -18 6l-252 159l-306 -159q-12 -5 -20 -5q-13 0 -24 7.5t-17 19.5t-6 26q0 23 20 39l308 232q26 18 58 18q33 0 52 -18z" />
    <glyph glyph-name="Atilde" unicode="&#xc3;" 
d="M837.5 1171.5q21.5 -15.5 27.5 -49.5l179 -986h64q28 0 40.5 -10t12.5 -34q0 -15 -2 -24q-6 -37 -23 -52.5t-51 -15.5h-354q-28 0 -41 10.5t-13 34.5q0 7 2 23q7 37 24 52.5t51 15.5h140l-40 238h-485l-125 -238h116q28 0 40.5 -10t12.5 -34q0 -15 -2 -24
q-6 -37 -23 -52.5t-51 -15.5h-334q-28 0 -41 10.5t-13 34.5q0 7 2 23q7 37 24 52.5t51 15.5h53l493 915h-184q-28 0 -40.5 10t-12.5 34q0 15 2 24q7 37 24 52.5t51 15.5h364q40 0 61.5 -15.5zM723 1051l-283 -541h392l-90 541h-19zM652.5 1549q29.5 -8 77.5 -25
q45 -16 72 -23t56 -7q65 0 135 42q11 6 20 6q23 0 42 -31q11 -18 11 -37q0 -24 -17 -37q-109 -91 -200 -91q-34 0 -63.5 8t-77.5 25q-45 16 -72 23t-56 7q-64 0 -135 -42q-10 -6 -20 -6q-23 0 -42 31q-11 18 -11 37q0 24 17 37q109 91 200 91q34 0 63.5 -8z" />
    <glyph glyph-name="Adieresis" unicode="&#xc4;" 
d="M837.5 1171.5q21.5 -15.5 27.5 -49.5l179 -986h64q28 0 40.5 -10t12.5 -34q0 -15 -2 -24q-6 -37 -23 -52.5t-51 -15.5h-354q-28 0 -41 10.5t-13 34.5q0 7 2 23q7 37 24 52.5t51 15.5h140l-40 238h-485l-125 -238h116q28 0 40.5 -10t12.5 -34q0 -15 -2 -24
q-6 -37 -23 -52.5t-51 -15.5h-334q-28 0 -41 10.5t-13 34.5q0 7 2 23q7 37 24 52.5t51 15.5h53l493 915h-184q-28 0 -40.5 10t-12.5 34q0 15 2 24q7 37 24 52.5t51 15.5h364q40 0 61.5 -15.5zM723 1051l-283 -541h392l-90 541h-19zM638 1559q30 -31 30 -76q0 -39 -20.5 -72
t-53.5 -52t-70 -19q-47 0 -77.5 31t-30.5 77q0 37 20.5 70t54 52.5t70.5 19.5q47 0 77 -31zM1078 1559q30 -31 30 -76q0 -39 -20.5 -72t-53.5 -52t-70 -19q-47 0 -77.5 31t-30.5 77q0 37 20.5 70t54 52.5t70.5 19.5q47 0 77 -31z" />
    <glyph glyph-name="Aring" unicode="&#xc5;" 
d="M837.5 1171.5q21.5 -15.5 27.5 -49.5l179 -986h64q28 0 40.5 -10t12.5 -34q0 -15 -2 -24q-6 -37 -23 -52.5t-51 -15.5h-354q-28 0 -41 10.5t-13 34.5q0 7 2 23q7 37 24 52.5t51 15.5h140l-40 238h-485l-125 -238h116q28 0 40.5 -10t12.5 -34q0 -15 -2 -24
q-6 -37 -23 -52.5t-51 -15.5h-334q-28 0 -41 10.5t-13 34.5q0 7 2 23q7 37 24 52.5t51 15.5h53l493 915h-184q-28 0 -40.5 10t-12.5 34q0 15 2 24q7 37 24 52.5t51 15.5h364q40 0 61.5 -15.5zM723 1051l-283 -541h392l-90 541h-19zM902 1768q49 -29 77 -78.5t28 -107.5
q0 -69 -36 -133t-100 -104t-145 -40q-60 0 -109 29t-77 78.5t-28 107.5q0 67 36 131.5t100 105t145 40.5q60 0 109 -29zM709 1656.5q-35 -20.5 -56 -55t-21 -73.5q0 -45 29.5 -74t75.5 -29q38 0 73 20.5t56.5 54.5t21.5 73q0 45 -30 74.5t-76 29.5q-38 0 -73 -20.5z" />
    <glyph glyph-name="AE" unicode="&#xc6;" 
d="M1242.5 1177q12.5 -10 12.5 -34q0 -15 -2 -24l-45 -254q-6 -35 -25.5 -50t-60.5 -15q-35 0 -50.5 10.5t-15.5 34.5q0 6 2 20l33 186h-260l-65 -366h192q28 0 40.5 -10t12.5 -34q0 -15 -2 -24q-7 -37 -24 -52.5t-51 -15.5h-192l-73 -413h272l41 229q6 35 25.5 50t60.5 15
q35 0 50.5 -10.5t15.5 -34.5q0 -6 -2 -20l-53 -297q-6 -37 -23 -52.5t-51 -15.5h-446q-28 0 -41 10.5t-13 34.5q0 7 2 23l54 306h-221l-113 -238h83q28 0 40.5 -10t12.5 -34q0 -15 -2 -24q-6 -37 -23 -52.5t-51 -15.5h-294q-28 0 -41 10.5t-13 34.5q0 7 2 23q7 37 24 52.5
t51 15.5h50l437 915h-94q-28 0 -40.5 10t-12.5 34q0 15 2 24q7 37 24 52.5t51 15.5h769q28 0 40.5 -10zM661 1051l-257 -541h181l96 541h-20z" />
    <glyph glyph-name="Ccedilla" unicode="&#xc7;" 
d="M1192 1198.5q15 -10.5 15 -34.5q0 -4 -2 -20l-58 -330q-6 -35 -25.5 -50t-60.5 -15q-35 0 -50.5 10.5t-15.5 34.5q0 6 2 20q4 21 4 49q0 88 -60 143t-180 55q-138 0 -243.5 -86.5t-162.5 -225t-57 -288.5q0 -158 76 -246.5t212 -88.5q97 0 191.5 30.5t178.5 85.5
q14 10 31 10q35 0 58 -45q14 -28 14 -48q0 -30 -36 -53q-190 -113 -394 -126l-16 -93q87 1 132.5 -39.5t45.5 -105.5q0 -34 -14 -73.5t-40 -66.5q-69 -74 -220 -74q-68 0 -130 12t-108 36q-17 8 -17 32q0 21 10 38q9 17 21.5 27.5t26.5 10.5q7 0 11 -2q38 -15 88 -24.5
t99 -9.5q58 0 87 22.5t29 58.5q0 55 -103 55l-35 -1q-29 0 -29 28q0 9 1 14l27 159q-110 17 -190 79t-122.5 162t-42.5 228q0 196 79 370t223 280t330 106q95 0 163.5 -34t108.5 -95l11 64q6 35 25.5 50t61.5 15q35 0 50 -10.5z" />
    <glyph glyph-name="Egrave" unicode="&#xc8;" 
d="M1196.5 1177q12.5 -10 12.5 -34q0 -15 -2 -24l-45 -254q-6 -35 -25.5 -50t-60.5 -15q-35 0 -50.5 10.5t-15.5 34.5q0 6 2 20l33 186h-535l-66 -371h250l16 91q7 35 26.5 50t60.5 15q34 0 49.5 -10.5t15.5 -33.5q0 -13 -2 -21l-56 -318q-6 -35 -25.5 -50t-60.5 -15
q-35 0 -50.5 10.5t-15.5 34.5q0 6 2 20l16 91h-250l-72 -408h555l41 229q6 35 25.5 50t60.5 15q35 0 50.5 -10.5t15.5 -34.5q0 -6 -2 -20l-53 -297q-6 -37 -23 -52.5t-51 -15.5h-894q-28 0 -41 10.5t-13 34.5q0 7 2 23q7 37 24 52.5t51 15.5h102l162 915h-102
q-28 0 -40.5 10t-12.5 34q0 15 2 24q7 37 24 52.5t51 15.5h874q28 0 40.5 -10zM1025 1363q0 -22 -13.5 -39t-33.5 -17q-4 0 -12 2l-481 163q-25 8 -25 35q0 28 25 72q19 35 35.5 50t32.5 15q14 0 33 -11l416 -230q23 -13 23 -40z" />
    <glyph glyph-name="Eacute" unicode="&#xc9;" 
d="M1196.5 1177q12.5 -10 12.5 -34q0 -15 -2 -24l-45 -254q-6 -35 -25.5 -50t-60.5 -15q-35 0 -50.5 10.5t-15.5 34.5q0 6 2 20l33 186h-535l-66 -371h250l16 91q7 35 26.5 50t60.5 15q34 0 49.5 -10.5t15.5 -33.5q0 -13 -2 -21l-56 -318q-6 -35 -25.5 -50t-60.5 -15
q-35 0 -50.5 10.5t-15.5 34.5q0 6 2 20l16 91h-250l-72 -408h555l41 229q6 35 25.5 50t60.5 15q35 0 50.5 -10.5t15.5 -34.5q0 -6 -2 -20l-53 -297q-6 -37 -23 -52.5t-51 -15.5h-894q-28 0 -41 10.5t-13 34.5q0 7 2 23q7 37 24 52.5t51 15.5h102l162 915h-102
q-28 0 -40.5 10t-12.5 34q0 15 2 24q7 37 24 52.5t51 15.5h874q28 0 40.5 -10zM1009 1644q16 0 32.5 -15t35.5 -50q25 -44 25 -72q0 -27 -25 -35l-481 -163q-8 -2 -12 -2q-14 0 -26 9.5t-17 24.5q-4 9 -4 22q0 27 23 40l416 230q19 11 33 11z" />
    <glyph glyph-name="Ecircumflex" unicode="&#xca;" 
d="M1196.5 1177q12.5 -10 12.5 -34q0 -15 -2 -24l-45 -254q-6 -35 -25.5 -50t-60.5 -15q-35 0 -50.5 10.5t-15.5 34.5q0 6 2 20l33 186h-535l-66 -371h250l16 91q7 35 26.5 50t60.5 15q34 0 49.5 -10.5t15.5 -33.5q0 -13 -2 -21l-56 -318q-6 -35 -25.5 -50t-60.5 -15
q-35 0 -50.5 10.5t-15.5 34.5q0 6 2 20l16 91h-250l-72 -408h555l41 229q6 35 25.5 50t60.5 15q35 0 50.5 -10.5t15.5 -34.5q0 -6 -2 -20l-53 -297q-6 -37 -23 -52.5t-51 -15.5h-894q-28 0 -41 10.5t-13 34.5q0 7 2 23q7 37 24 52.5t51 15.5h102l162 915h-102
q-28 0 -40.5 10t-12.5 34q0 15 2 24q7 37 24 52.5t51 15.5h874q28 0 40.5 -10zM876 1628l246 -232q11 -11 11 -29q0 -20 -11 -37q-8 -12 -19 -19.5t-22 -7.5q-9 0 -18 6l-252 159l-306 -159q-12 -5 -20 -5q-13 0 -24 7.5t-17 19.5t-6 26q0 23 20 39l308 232q26 18 58 18
q33 0 52 -18z" />
    <glyph glyph-name="Edieresis" unicode="&#xcb;" 
d="M1196.5 1177q12.5 -10 12.5 -34q0 -15 -2 -24l-45 -254q-6 -35 -25.5 -50t-60.5 -15q-35 0 -50.5 10.5t-15.5 34.5q0 6 2 20l33 186h-535l-66 -371h250l16 91q7 35 26.5 50t60.5 15q34 0 49.5 -10.5t15.5 -33.5q0 -13 -2 -21l-56 -318q-6 -35 -25.5 -50t-60.5 -15
q-35 0 -50.5 10.5t-15.5 34.5q0 6 2 20l16 91h-250l-72 -408h555l41 229q6 35 25.5 50t60.5 15q35 0 50.5 -10.5t15.5 -34.5q0 -6 -2 -20l-53 -297q-6 -37 -23 -52.5t-51 -15.5h-894q-28 0 -41 10.5t-13 34.5q0 7 2 23q7 37 24 52.5t51 15.5h102l162 915h-102
q-28 0 -40.5 10t-12.5 34q0 15 2 24q7 37 24 52.5t51 15.5h874q28 0 40.5 -10zM678 1559q30 -31 30 -76q0 -39 -20.5 -72t-53.5 -52t-70 -19q-47 0 -77.5 31t-30.5 77q0 37 20.5 70t54 52.5t70.5 19.5q47 0 77 -31zM1118 1559q30 -31 30 -76q0 -39 -20.5 -72t-53.5 -52
t-70 -19q-47 0 -77.5 31t-30.5 77q0 37 20.5 70t54 52.5t70.5 19.5q47 0 77 -31z" />
    <glyph glyph-name="Igrave" unicode="&#xcc;" 
d="M1114.5 1177q12.5 -10 12.5 -34q0 -15 -2 -24q-7 -37 -24 -52.5t-51 -15.5h-246l-162 -915h286q28 0 40.5 -10t12.5 -34q0 -15 -2 -24q-6 -37 -23 -52.5t-51 -15.5h-702q-28 0 -41 10.5t-13 34.5q0 7 2 23q7 37 24 52.5t51 15.5h266l162 915h-266q-28 0 -40.5 10
t-12.5 34q0 15 2 24q7 37 24 52.5t51 15.5h662q28 0 40.5 -10zM1015 1363q0 -22 -13.5 -39t-33.5 -17q-4 0 -12 2l-481 163q-25 8 -25 35q0 28 25 72q19 35 35.5 50t32.5 15q14 0 33 -11l416 -230q23 -13 23 -40z" />
    <glyph glyph-name="Iacute" unicode="&#xcd;" 
d="M1114.5 1177q12.5 -10 12.5 -34q0 -15 -2 -24q-7 -37 -24 -52.5t-51 -15.5h-246l-162 -915h286q28 0 40.5 -10t12.5 -34q0 -15 -2 -24q-6 -37 -23 -52.5t-51 -15.5h-702q-28 0 -41 10.5t-13 34.5q0 7 2 23q7 37 24 52.5t51 15.5h266l162 915h-266q-28 0 -40.5 10
t-12.5 34q0 15 2 24q7 37 24 52.5t51 15.5h662q28 0 40.5 -10zM1019 1644q16 0 32.5 -15t35.5 -50q25 -44 25 -72q0 -27 -25 -35l-481 -163q-8 -2 -12 -2q-14 0 -26 9.5t-17 24.5q-4 9 -4 22q0 27 23 40l416 230q19 11 33 11z" />
    <glyph glyph-name="Icircumflex" unicode="&#xce;" 
d="M1114.5 1177q12.5 -10 12.5 -34q0 -15 -2 -24q-7 -37 -24 -52.5t-51 -15.5h-246l-162 -915h286q28 0 40.5 -10t12.5 -34q0 -15 -2 -24q-6 -37 -23 -52.5t-51 -15.5h-702q-28 0 -41 10.5t-13 34.5q0 7 2 23q7 37 24 52.5t51 15.5h266l162 915h-266q-28 0 -40.5 10
t-12.5 34q0 15 2 24q7 37 24 52.5t51 15.5h662q28 0 40.5 -10zM856 1628l246 -232q11 -11 11 -29q0 -20 -11 -37q-8 -12 -19 -19.5t-22 -7.5q-9 0 -18 6l-252 159l-306 -159q-12 -5 -20 -5q-13 0 -24 7.5t-17 19.5t-6 26q0 23 20 39l308 232q26 18 58 18q33 0 52 -18z" />
    <glyph glyph-name="Idieresis" unicode="&#xcf;" 
d="M1114.5 1177q12.5 -10 12.5 -34q0 -15 -2 -24q-7 -37 -24 -52.5t-51 -15.5h-246l-162 -915h286q28 0 40.5 -10t12.5 -34q0 -15 -2 -24q-6 -37 -23 -52.5t-51 -15.5h-702q-28 0 -41 10.5t-13 34.5q0 7 2 23q7 37 24 52.5t51 15.5h266l162 915h-266q-28 0 -40.5 10
t-12.5 34q0 15 2 24q7 37 24 52.5t51 15.5h662q28 0 40.5 -10zM658 1559q30 -31 30 -76q0 -39 -20.5 -72t-53.5 -52t-70 -19q-47 0 -77.5 31t-30.5 77q0 37 20.5 70t54 52.5t70.5 19.5q47 0 77 -31zM1098 1559q30 -31 30 -76q0 -39 -20.5 -72t-53.5 -52t-70 -19
q-47 0 -77.5 31t-30.5 77q0 37 20.5 70t54 52.5t70.5 19.5q47 0 77 -31z" />
    <glyph glyph-name="Eth" unicode="&#xd0;" 
d="M975 1131q101 -56 155.5 -160.5t54.5 -246.5q0 -157 -63.5 -324.5t-204.5 -283.5t-358 -116h-486q-28 0 -41 10.5t-13 34.5q0 7 2 23q7 37 24 52.5t51 15.5h112l72 408h-142q-28 0 -40.5 10.5t-12.5 34.5q0 5 2 23q7 37 24 52.5t51 15.5h142l66 371h-112q-28 0 -40.5 10
t-12.5 34q0 15 2 24q7 37 24 52.5t51 15.5h456q136 0 237 -56zM820.5 228q108.5 92 158 226.5t49.5 264.5q0 161 -84.5 246.5t-237.5 85.5h-186l-66 -371h190q28 0 40.5 -10t12.5 -34q0 -15 -2 -24q-6 -37 -23.5 -52.5t-51.5 -15.5h-190l-72 -408h186q168 0 276.5 92z" />
    <glyph glyph-name="Ntilde" unicode="&#xd1;" 
d="M1274.5 1177q12.5 -10 12.5 -34q0 -15 -2 -24q-7 -37 -24 -52.5t-51 -15.5h-57l-179 -1014q-5 -27 -26 -43t-59 -16q-55 0 -75 55l-353 940h-4l-148 -837h141q28 0 40.5 -10t12.5 -34q0 -15 -2 -24q-6 -37 -23 -52.5t-51 -15.5h-354q-28 0 -41 10.5t-13 34.5q0 7 2 23
q7 37 24 52.5t51 15.5h67l162 915h-77q-28 0 -40.5 10t-12.5 34q0 15 2 24q7 37 24 52.5t51 15.5h224q42 0 52 -28l322 -861h4l133 753h-121q-28 0 -40.5 10t-12.5 34q0 15 2 24q7 37 24 52.5t51 15.5h324q28 0 40.5 -10zM712.5 1549q29.5 -8 77.5 -25q45 -16 72 -23t56 -7
q65 0 135 42q11 6 20 6q23 0 42 -31q11 -18 11 -37q0 -24 -17 -37q-109 -91 -200 -91q-34 0 -63.5 8t-77.5 25q-45 16 -72 23t-56 7q-64 0 -135 -42q-10 -6 -20 -6q-23 0 -42 31q-11 18 -11 37q0 24 17 37q109 91 200 91q34 0 63.5 -8z" />
    <glyph glyph-name="Ograve" unicode="&#xd2;" 
d="M976.5 1149.5q100.5 -59.5 154.5 -168.5t54 -253q0 -135 -40 -265.5t-116 -236.5q-83 -116 -203.5 -182t-270.5 -66q-134 0 -234.5 59.5t-154.5 168.5t-54 253q0 135 40 265.5t116 236.5q83 116 203.5 182t270.5 66q134 0 234.5 -59.5zM542 1012q-85 -49 -146 -134
q-62 -86 -94.5 -195t-32.5 -218q0 -105 35.5 -181.5t102 -117t159.5 -40.5q104 0 189 49t146 134q62 86 94.5 195t32.5 218q0 105 -35.5 181.5t-102 117t-159.5 40.5q-104 0 -189 -49zM1025 1363q0 -22 -13.5 -39t-33.5 -17q-4 0 -12 2l-481 163q-25 8 -25 35q0 28 25 72
q19 35 35.5 50t32.5 15q14 0 33 -11l416 -230q23 -13 23 -40z" />
    <glyph glyph-name="Oacute" unicode="&#xd3;" 
d="M976.5 1149.5q100.5 -59.5 154.5 -168.5t54 -253q0 -135 -40 -265.5t-116 -236.5q-83 -116 -203.5 -182t-270.5 -66q-134 0 -234.5 59.5t-154.5 168.5t-54 253q0 135 40 265.5t116 236.5q83 116 203.5 182t270.5 66q134 0 234.5 -59.5zM542 1012q-85 -49 -146 -134
q-62 -86 -94.5 -195t-32.5 -218q0 -105 35.5 -181.5t102 -117t159.5 -40.5q104 0 189 49t146 134q62 86 94.5 195t32.5 218q0 105 -35.5 181.5t-102 117t-159.5 40.5q-104 0 -189 -49zM1009 1644q16 0 32.5 -15t35.5 -50q25 -44 25 -72q0 -27 -25 -35l-481 -163
q-8 -2 -12 -2q-14 0 -26 9.5t-17 24.5q-4 9 -4 22q0 27 23 40l416 230q19 11 33 11z" />
    <glyph glyph-name="Ocircumflex" unicode="&#xd4;" 
d="M976.5 1149.5q100.5 -59.5 154.5 -168.5t54 -253q0 -135 -40 -265.5t-116 -236.5q-83 -116 -203.5 -182t-270.5 -66q-134 0 -234.5 59.5t-154.5 168.5t-54 253q0 135 40 265.5t116 236.5q83 116 203.5 182t270.5 66q134 0 234.5 -59.5zM542 1012q-85 -49 -146 -134
q-62 -86 -94.5 -195t-32.5 -218q0 -105 35.5 -181.5t102 -117t159.5 -40.5q104 0 189 49t146 134q62 86 94.5 195t32.5 218q0 105 -35.5 181.5t-102 117t-159.5 40.5q-104 0 -189 -49zM856 1628l246 -232q11 -11 11 -29q0 -20 -11 -37q-8 -12 -19 -19.5t-22 -7.5q-9 0 -18 6
l-252 159l-306 -159q-12 -5 -20 -5q-13 0 -24 7.5t-17 19.5t-6 26q0 23 20 39l308 232q26 18 58 18q33 0 52 -18z" />
    <glyph glyph-name="Otilde" unicode="&#xd5;" 
d="M976.5 1149.5q100.5 -59.5 154.5 -168.5t54 -253q0 -135 -40 -265.5t-116 -236.5q-83 -116 -203.5 -182t-270.5 -66q-134 0 -234.5 59.5t-154.5 168.5t-54 253q0 135 40 265.5t116 236.5q83 116 203.5 182t270.5 66q134 0 234.5 -59.5zM542 1012q-85 -49 -146 -134
q-62 -86 -94.5 -195t-32.5 -218q0 -105 35.5 -181.5t102 -117t159.5 -40.5q104 0 189 49t146 134q62 86 94.5 195t32.5 218q0 105 -35.5 181.5t-102 117t-159.5 40.5q-104 0 -189 -49zM712.5 1549q29.5 -8 77.5 -25q45 -16 72 -23t56 -7q65 0 135 42q11 6 20 6q23 0 42 -31
q11 -18 11 -37q0 -24 -17 -37q-109 -91 -200 -91q-34 0 -63.5 8t-77.5 25q-45 16 -72 23t-56 7q-64 0 -135 -42q-10 -6 -20 -6q-23 0 -42 31q-11 18 -11 37q0 24 17 37q109 91 200 91q34 0 63.5 -8z" />
    <glyph glyph-name="Odieresis" unicode="&#xd6;" 
d="M976.5 1149.5q100.5 -59.5 154.5 -168.5t54 -253q0 -135 -40 -265.5t-116 -236.5q-83 -116 -203.5 -182t-270.5 -66q-134 0 -234.5 59.5t-154.5 168.5t-54 253q0 135 40 265.5t116 236.5q83 116 203.5 182t270.5 66q134 0 234.5 -59.5zM542 1012q-85 -49 -146 -134
q-62 -86 -94.5 -195t-32.5 -218q0 -105 35.5 -181.5t102 -117t159.5 -40.5q104 0 189 49t146 134q62 86 94.5 195t32.5 218q0 105 -35.5 181.5t-102 117t-159.5 40.5q-104 0 -189 -49zM658 1559q30 -31 30 -76q0 -39 -20.5 -72t-53.5 -52t-70 -19q-47 0 -77.5 31t-30.5 77
q0 37 20.5 70t54 52.5t70.5 19.5q47 0 77 -31zM1098 1559q30 -31 30 -76q0 -39 -20.5 -72t-53.5 -52t-70 -19q-47 0 -77.5 31t-30.5 77q0 37 20.5 70t54 52.5t70.5 19.5q47 0 77 -31z" />
    <glyph glyph-name="multiply" unicode="&#xd7;" 
d="M1073 879q0 -22 -25 -43l-302 -261l218 -260q18 -21 18 -39q0 -13 -8.5 -25.5t-25.5 -27.5q-28 -23 -50 -23q-25 0 -48 27l-213 253l-296 -256q-23 -20 -43 -20q-25 0 -54 31q-26 28 -26 50t25 43l302 262l-217 259q-18 21 -18 39q0 13 8.5 25.5t25.5 27.5q28 23 50 23
q26 0 48 -27l212 -253l296 256q23 20 43 20q25 0 54 -31q26 -28 26 -50z" />
    <glyph glyph-name="Oslash" unicode="&#xd8;" 
d="M1235 1183q0 -18 -21 -44l-104 -120q75 -122 75 -291q0 -135 -40 -265.5t-116 -236.5q-83 -116 -203.5 -182t-270.5 -66q-163 0 -275 87l-83 -95q-29 -32 -57 -32q-22 0 -46 19q-32 24 -32 50q0 20 20 43l104 120q-74 119 -74 289q0 135 40 265.5t116 236.5
q83 116 203.5 182t270.5 66q161 0 274 -86l83 96q29 32 58 32q23 0 47 -19q31 -25 31 -49zM542 1012q-85 -49 -146 -134q-62 -86 -94.5 -195t-32.5 -218q0 -94 29 -167l615 707q-75 56 -182 56q-104 0 -189 -49zM566 126q104 0 189 49t146 134q62 86 94.5 195t32.5 218
q0 97 -30 169l-616 -708q74 -57 184 -57z" />
    <glyph glyph-name="Ugrave" unicode="&#xd9;" 
d="M1274.5 1177q12.5 -10 12.5 -34q0 -15 -2 -24q-7 -37 -24 -52.5t-51 -15.5h-62l-118 -668q-37 -209 -156 -307t-319 -98q-173 0 -271 81.5t-98 239.5q0 42 10 104l114 648h-62q-28 0 -40.5 10t-12.5 34q0 15 2 24q7 37 24 52.5t51 15.5h324q28 0 40.5 -10t12.5 -34
q0 -15 -2 -24q-7 -37 -24 -52.5t-51 -15.5h-112l-113 -638q-9 -51 -9 -92q0 -103 56 -149t172 -46q139 0 215.5 67t103.5 220l113 638h-112q-28 0 -40.5 10t-12.5 34q0 15 2 24q7 37 24 52.5t51 15.5h324q28 0 40.5 -10zM1025 1363q0 -22 -13.5 -39t-33.5 -17q-4 0 -12 2
l-481 163q-25 8 -25 35q0 28 25 72q19 35 35.5 50t32.5 15q14 0 33 -11l416 -230q23 -13 23 -40z" />
    <glyph glyph-name="Uacute" unicode="&#xda;" 
d="M1274.5 1177q12.5 -10 12.5 -34q0 -15 -2 -24q-7 -37 -24 -52.5t-51 -15.5h-62l-118 -668q-37 -209 -156 -307t-319 -98q-173 0 -271 81.5t-98 239.5q0 42 10 104l114 648h-62q-28 0 -40.5 10t-12.5 34q0 15 2 24q7 37 24 52.5t51 15.5h324q28 0 40.5 -10t12.5 -34
q0 -15 -2 -24q-7 -37 -24 -52.5t-51 -15.5h-112l-113 -638q-9 -51 -9 -92q0 -103 56 -149t172 -46q139 0 215.5 67t103.5 220l113 638h-112q-28 0 -40.5 10t-12.5 34q0 15 2 24q7 37 24 52.5t51 15.5h324q28 0 40.5 -10zM1039 1644q16 0 32.5 -15t35.5 -50q25 -44 25 -72
q0 -27 -25 -35l-481 -163q-8 -2 -12 -2q-14 0 -26 9.5t-17 24.5q-4 9 -4 22q0 27 23 40l416 230q19 11 33 11z" />
    <glyph glyph-name="Ucircumflex" unicode="&#xdb;" 
d="M1274.5 1177q12.5 -10 12.5 -34q0 -15 -2 -24q-7 -37 -24 -52.5t-51 -15.5h-62l-118 -668q-37 -209 -156 -307t-319 -98q-173 0 -271 81.5t-98 239.5q0 42 10 104l114 648h-62q-28 0 -40.5 10t-12.5 34q0 15 2 24q7 37 24 52.5t51 15.5h324q28 0 40.5 -10t12.5 -34
q0 -15 -2 -24q-7 -37 -24 -52.5t-51 -15.5h-112l-113 -638q-9 -51 -9 -92q0 -103 56 -149t172 -46q139 0 215.5 67t103.5 220l113 638h-112q-28 0 -40.5 10t-12.5 34q0 15 2 24q7 37 24 52.5t51 15.5h324q28 0 40.5 -10zM866 1628l246 -232q11 -11 11 -29q0 -20 -11 -37
q-8 -12 -19 -19.5t-22 -7.5q-9 0 -18 6l-252 159l-306 -159q-12 -5 -20 -5q-13 0 -24 7.5t-17 19.5t-6 26q0 23 20 39l308 232q26 18 58 18q33 0 52 -18z" />
    <glyph glyph-name="Udieresis" unicode="&#xdc;" 
d="M1274.5 1177q12.5 -10 12.5 -34q0 -15 -2 -24q-7 -37 -24 -52.5t-51 -15.5h-62l-118 -668q-37 -209 -156 -307t-319 -98q-173 0 -271 81.5t-98 239.5q0 42 10 104l114 648h-62q-28 0 -40.5 10t-12.5 34q0 15 2 24q7 37 24 52.5t51 15.5h324q28 0 40.5 -10t12.5 -34
q0 -15 -2 -24q-7 -37 -24 -52.5t-51 -15.5h-112l-113 -638q-9 -51 -9 -92q0 -103 56 -149t172 -46q139 0 215.5 67t103.5 220l113 638h-112q-28 0 -40.5 10t-12.5 34q0 15 2 24q7 37 24 52.5t51 15.5h324q28 0 40.5 -10zM658 1559q30 -31 30 -76q0 -39 -20.5 -72t-53.5 -52
t-70 -19q-47 0 -77.5 31t-30.5 77q0 37 20.5 70t54 52.5t70.5 19.5q47 0 77 -31zM1098 1559q30 -31 30 -76q0 -39 -20.5 -72t-53.5 -52t-70 -19q-47 0 -77.5 31t-30.5 77q0 37 20.5 70t54 52.5t70.5 19.5q47 0 77 -31z" />
    <glyph glyph-name="Yacute" unicode="&#xdd;" 
d="M1284.5 1177q12.5 -10 12.5 -34q0 -15 -2 -24q-7 -37 -24 -52.5t-51 -15.5h-64l-452 -565l-62 -350h236q28 0 40.5 -10t12.5 -34q0 -15 -2 -24q-6 -37 -23 -52.5t-51 -15.5h-602q-28 0 -41 10.5t-13 34.5q0 7 2 23q7 37 24 52.5t51 15.5h216l64 363l-244 552h-74
q-28 0 -40.5 10t-12.5 34q0 15 2 24q7 37 24 52.5t51 15.5h334q28 0 40.5 -10t12.5 -34q0 -15 -2 -24q-7 -37 -24 -52.5t-51 -15.5h-97l178 -409l324 409h-61q-28 0 -40.5 10t-12.5 34q0 15 2 24q7 37 24 52.5t51 15.5h304q28 0 40.5 -10zM1043 1644q16 0 32.5 -15t35.5 -50
q25 -44 25 -72q0 -27 -25 -35l-481 -163q-8 -2 -12 -2q-14 0 -26 9.5t-17 24.5q-4 9 -4 22q0 27 23 40l416 230q19 11 33 11z" />
    <glyph glyph-name="Thorn" unicode="&#xde;" 
d="M864.5 1177q12.5 -10 12.5 -34q0 -15 -2 -24q-7 -37 -24 -52.5t-51 -15.5h-206l-22 -124h221q103 0 174.5 -35.5t107.5 -97t36 -140.5q0 -68 -24 -137.5t-75 -124.5q-112 -119 -314 -119h-241l-25 -137h226q28 0 40.5 -10t12.5 -34q0 -15 -2 -24q-6 -37 -23 -52.5
t-51 -15.5h-522q-28 0 -41 10.5t-13 34.5q0 7 2 23q7 37 24 52.5t51 15.5h146l162 915h-166q-28 0 -40.5 10t-12.5 34q0 15 2 24q7 37 24 52.5t51 15.5h522q28 0 40.5 -10zM481 409h210q134 0 204 75q30 33 44 73.5t14 83.5q0 69 -48.5 109.5t-146.5 40.5h-210z" />
    <glyph glyph-name="germandbls" unicode="&#xdf;" 
d="M936.5 1279.5q75.5 -37.5 114 -102.5t38.5 -148q0 -111 -58.5 -196t-168.5 -138q84 -38 130 -109.5t46 -167.5q0 -98 -45.5 -199t-150.5 -171t-272 -70q-45 0 -61.5 12.5t-16.5 45.5q0 48 18 69t57 21q111 0 182 44t102 111t31 141q0 95 -57 146t-159 51q-28 0 -40.5 11
t-12.5 34q0 15 2 24q6 36 23.5 52t51.5 19q83 8 137.5 47t80 94t25.5 114q0 75 -50 116.5t-145 41.5q-102 0 -170.5 -64.5t-88.5 -175.5l-155 -877q-6 -35 -25.5 -50t-59.5 -15h-2q-35 0 -50 10.5t-15 34.5q0 4 2 20l157 888q19 111 75 195.5t144.5 131.5t202.5 47
q108 0 183.5 -37.5z" />
    <glyph glyph-name="agrave" unicode="&#xe0;" 
d="M1118.5 133q12.5 -11 12.5 -36q0 -15 -2 -25q-8 -39 -25 -55.5t-51 -16.5h-11q-80 0 -129 46.5t-53 131.5q-72 -99 -160 -149.5t-198 -50.5q-104 0 -186 47.5t-128.5 135.5t-46.5 205q0 137 58 271t173.5 221.5t278.5 87.5q93 0 166 -48t119 -132l19 103q6 36 22.5 50.5
t55.5 14.5h2q33 0 47.5 -10.5t14.5 -33.5q0 -5 -2 -21l-104 -590q-4 -19 -4 -40q0 -47 23 -71t63 -24h5q28 0 40.5 -11zM705.5 186.5q81.5 60.5 128 156.5t46.5 198q0 121 -63.5 189t-171.5 68q-105 0 -184 -61t-121 -158.5t-42 -203.5q0 -114 59 -181.5t167 -67.5
q100 0 181.5 60.5zM977 1093q0 -22 -13.5 -39t-33.5 -17q-4 0 -12 2l-481 163q-25 8 -25 35q0 28 25 72q19 35 35.5 50t32.5 15q14 0 33 -11l416 -230q23 -13 23 -40z" />
    <glyph glyph-name="aacute" unicode="&#xe1;" 
d="M1118.5 133q12.5 -11 12.5 -36q0 -15 -2 -25q-8 -39 -25 -55.5t-51 -16.5h-11q-80 0 -129 46.5t-53 131.5q-72 -99 -160 -149.5t-198 -50.5q-104 0 -186 47.5t-128.5 135.5t-46.5 205q0 137 58 271t173.5 221.5t278.5 87.5q93 0 166 -48t119 -132l19 103q6 36 22.5 50.5
t55.5 14.5h2q33 0 47.5 -10.5t14.5 -33.5q0 -5 -2 -21l-104 -590q-4 -19 -4 -40q0 -47 23 -71t63 -24h5q28 0 40.5 -11zM705.5 186.5q81.5 60.5 128 156.5t46.5 198q0 121 -63.5 189t-171.5 68q-105 0 -184 -61t-121 -158.5t-42 -203.5q0 -114 59 -181.5t167 -67.5
q100 0 181.5 60.5zM951 1374q16 0 32.5 -15t35.5 -50q25 -44 25 -72q0 -27 -25 -35l-481 -163q-8 -2 -12 -2q-14 0 -26 9.5t-17 24.5q-4 9 -4 22q0 27 23 40l416 230q19 11 33 11z" />
    <glyph glyph-name="acircumflex" unicode="&#xe2;" 
d="M1118.5 133q12.5 -11 12.5 -36q0 -15 -2 -25q-8 -39 -25 -55.5t-51 -16.5h-11q-80 0 -129 46.5t-53 131.5q-72 -99 -160 -149.5t-198 -50.5q-104 0 -186 47.5t-128.5 135.5t-46.5 205q0 137 58 271t173.5 221.5t278.5 87.5q93 0 166 -48t119 -132l19 103q6 36 22.5 50.5
t55.5 14.5h2q33 0 47.5 -10.5t14.5 -33.5q0 -5 -2 -21l-104 -590q-4 -19 -4 -40q0 -47 23 -71t63 -24h5q28 0 40.5 -11zM705.5 186.5q81.5 60.5 128 156.5t46.5 198q0 121 -63.5 189t-171.5 68q-105 0 -184 -61t-121 -158.5t-42 -203.5q0 -114 59 -181.5t167 -67.5
q100 0 181.5 60.5zM808 1358l246 -232q11 -11 11 -29q0 -20 -11 -37q-8 -12 -19 -19.5t-22 -7.5q-9 0 -18 6l-252 159l-306 -159q-12 -5 -20 -5q-13 0 -24 7.5t-17 19.5t-6 26q0 23 20 39l308 232q26 18 58 18q33 0 52 -18z" />
    <glyph glyph-name="atilde" unicode="&#xe3;" 
d="M1118.5 133q12.5 -11 12.5 -36q0 -15 -2 -25q-8 -39 -25 -55.5t-51 -16.5h-11q-80 0 -129 46.5t-53 131.5q-72 -99 -160 -149.5t-198 -50.5q-104 0 -186 47.5t-128.5 135.5t-46.5 205q0 137 58 271t173.5 221.5t278.5 87.5q93 0 166 -48t119 -132l19 103q6 36 22.5 50.5
t55.5 14.5h2q33 0 47.5 -10.5t14.5 -33.5q0 -5 -2 -21l-104 -590q-4 -19 -4 -40q0 -47 23 -71t63 -24h5q28 0 40.5 -11zM705.5 186.5q81.5 60.5 128 156.5t46.5 198q0 121 -63.5 189t-171.5 68q-105 0 -184 -61t-121 -158.5t-42 -203.5q0 -114 59 -181.5t167 -67.5
q100 0 181.5 60.5zM656.5 1289q29.5 -8 77.5 -25q45 -16 72 -23t56 -7q65 0 135 42q11 6 20 6q23 0 42 -31q11 -18 11 -37q0 -24 -17 -37q-109 -91 -200 -91q-34 0 -63.5 8t-77.5 25q-45 16 -72 23t-56 7q-64 0 -135 -42q-10 -6 -20 -6q-23 0 -42 31q-11 18 -11 37
q0 24 17 37q109 91 200 91q34 0 63.5 -8z" />
    <glyph glyph-name="adieresis" unicode="&#xe4;" 
d="M1118.5 133q12.5 -11 12.5 -36q0 -15 -2 -25q-8 -39 -25 -55.5t-51 -16.5h-11q-80 0 -129 46.5t-53 131.5q-72 -99 -160 -149.5t-198 -50.5q-104 0 -186 47.5t-128.5 135.5t-46.5 205q0 137 58 271t173.5 221.5t278.5 87.5q93 0 166 -48t119 -132l19 103q6 36 22.5 50.5
t55.5 14.5h2q33 0 47.5 -10.5t14.5 -33.5q0 -5 -2 -21l-104 -590q-4 -19 -4 -40q0 -47 23 -71t63 -24h5q28 0 40.5 -11zM705.5 186.5q81.5 60.5 128 156.5t46.5 198q0 121 -63.5 189t-171.5 68q-105 0 -184 -61t-121 -158.5t-42 -203.5q0 -114 59 -181.5t167 -67.5
q100 0 181.5 60.5zM600 1289q30 -31 30 -76q0 -39 -20.5 -72t-53.5 -52t-70 -19q-47 0 -77.5 31t-30.5 77q0 37 20.5 70t54 52.5t70.5 19.5q47 0 77 -31zM1040 1289q30 -31 30 -76q0 -39 -20.5 -72t-53.5 -52t-70 -19q-47 0 -77.5 31t-30.5 77q0 37 20.5 70t54 52.5
t70.5 19.5q47 0 77 -31z" />
    <glyph glyph-name="aring" unicode="&#xe5;" 
d="M1118.5 133q12.5 -11 12.5 -36q0 -15 -2 -25q-8 -39 -25 -55.5t-51 -16.5h-11q-80 0 -129 46.5t-53 131.5q-72 -99 -160 -149.5t-198 -50.5q-104 0 -186 47.5t-128.5 135.5t-46.5 205q0 137 58 271t173.5 221.5t278.5 87.5q93 0 166 -48t119 -132l19 103q6 36 22.5 50.5
t55.5 14.5h2q33 0 47.5 -10.5t14.5 -33.5q0 -5 -2 -21l-104 -590q-4 -19 -4 -40q0 -47 23 -71t63 -24h5q28 0 40.5 -11zM705.5 186.5q81.5 60.5 128 156.5t46.5 198q0 121 -63.5 189t-171.5 68q-105 0 -184 -61t-121 -158.5t-42 -203.5q0 -114 59 -181.5t167 -67.5
q100 0 181.5 60.5zM892 1499q49 -29 77 -78.5t28 -107.5q0 -69 -36 -133t-100 -104t-145 -40q-60 0 -109 29t-77 78.5t-28 107.5q0 67 36 131.5t100 105t145 40.5q60 0 109 -29zM699 1387.5q-35 -20.5 -56 -55t-21 -73.5q0 -45 29.5 -74t75.5 -29q38 0 73 20.5t56.5 54.5
t21.5 73q0 45 -30 74.5t-76 29.5q-38 0 -73 -20.5z" />
    <glyph glyph-name="ae" unicode="&#xe6;" 
d="M1122 868q59 -78 59 -221q0 -67 -12 -145q-5 -33 -22.5 -47.5t-51.5 -14.5h-399q-12 -76 -12 -132q0 -185 120 -185q48 0 91 18.5t93 59.5q20 17 42 17q14 0 27.5 -8t22.5 -23q13 -20 13 -40q0 -34 -37 -63q-65 -53 -131 -79.5t-136 -26.5q-163 0 -219 144
q-60 -67 -139.5 -105.5t-159.5 -38.5q-68 0 -119.5 27t-79.5 76t-28 114q0 98 50.5 182.5t141.5 132.5q132 70 335 70l4 22q9 50 9 87q0 56 -24.5 84t-80.5 28q-87 0 -193 -72q-19 -13 -38 -13q-29 0 -52 32q-16 24 -16 44q0 29 31 52q71 53 140.5 77.5t142.5 24.5
q153 0 201 -116q49 57 111 86.5t133 29.5q124 0 183 -78zM806.5 749q-48.5 -52 -80.5 -169h300q5 42 5 69q0 74 -25 113t-80 39q-71 0 -119.5 -52zM316 398q-57 -29 -88 -79t-31 -110q0 -43 24.5 -66.5t67.5 -23.5q56 0 107 28.5t86 79t46 113.5l18 100q-147 0 -230 -42z
" />
    <glyph glyph-name="ccedilla" unicode="&#xe7;" 
d="M1120.5 935.5q15.5 -10.5 15.5 -34.5q0 -6 -2 -20l-51 -290q-6 -35 -24.5 -50t-59.5 -15q-36 0 -51.5 11t-15.5 36q0 4 2 18q2 11 2 32q0 81 -63 128t-184 47q-112 0 -203 -56t-143.5 -150t-52.5 -201q0 -78 32.5 -138t93.5 -93.5t145 -33.5q91 0 180 28.5t170 83.5
q19 13 37 13q33 0 56 -40q14 -25 14 -45q0 -36 -39 -61q-80 -51 -176 -83.5t-193 -40.5l-17 -94q87 1 132.5 -39.5t45.5 -105.5q0 -34 -14 -73.5t-40 -66.5q-69 -74 -220 -74q-68 0 -130 12t-108 36q-17 8 -17 32q0 21 10 38q9 17 21.5 27.5t26.5 10.5q7 0 11 -2
q38 -15 88 -24.5t99 -9.5q58 0 87 22.5t29 58.5q0 55 -103 55l-35 -1q-29 0 -29 28q0 9 1 14l27 157q-106 14 -183.5 69t-118.5 140t-41 189q0 147 72 277.5t201.5 209.5t294.5 79q90 0 160.5 -36t110.5 -99l13 70q7 35 26 50t60 15q35 0 50.5 -10.5z" />
    <glyph glyph-name="egrave" unicode="&#xe8;" 
d="M857 411l-549 -57q4 -231 250 -231q96 0 195 25.5t180 66.5q16 7 25 7q38 0 56 -56q6 -21 6 -36q0 -23 -11.5 -38t-35.5 -26q-89 -39 -203.5 -63.5t-226.5 -24.5q-124 0 -212 45.5t-133.5 130t-45.5 200.5q0 164 72 299.5t202.5 214t296.5 78.5q109 0 190.5 -38
t125.5 -104t44 -149q0 -220 -226 -244zM826 550q55 6 77 30t22 70q0 66 -56 108.5t-161 42.5q-101 0 -180 -39.5t-131 -109t-74 -160.5zM977 1093q0 -22 -13.5 -39t-33.5 -17q-4 0 -12 2l-481 163q-25 8 -25 35q0 28 25 72q19 35 35.5 50t32.5 15q14 0 33 -11l416 -230
q23 -13 23 -40z" />
    <glyph glyph-name="eacute" unicode="&#xe9;" 
d="M857 411l-549 -57q4 -231 250 -231q96 0 195 25.5t180 66.5q16 7 25 7q38 0 56 -56q6 -21 6 -36q0 -23 -11.5 -38t-35.5 -26q-89 -39 -203.5 -63.5t-226.5 -24.5q-124 0 -212 45.5t-133.5 130t-45.5 200.5q0 164 72 299.5t202.5 214t296.5 78.5q109 0 190.5 -38
t125.5 -104t44 -149q0 -220 -226 -244zM826 550q55 6 77 30t22 70q0 66 -56 108.5t-161 42.5q-101 0 -180 -39.5t-131 -109t-74 -160.5zM951 1374q16 0 32.5 -15t35.5 -50q25 -44 25 -72q0 -27 -25 -35l-481 -163q-8 -2 -12 -2q-14 0 -26 9.5t-17 24.5q-4 9 -4 22
q0 27 23 40l416 230q19 11 33 11z" />
    <glyph glyph-name="ecircumflex" unicode="&#xea;" 
d="M857 411l-549 -57q4 -231 250 -231q96 0 195 25.5t180 66.5q16 7 25 7q38 0 56 -56q6 -21 6 -36q0 -23 -11.5 -38t-35.5 -26q-89 -39 -203.5 -63.5t-226.5 -24.5q-124 0 -212 45.5t-133.5 130t-45.5 200.5q0 164 72 299.5t202.5 214t296.5 78.5q109 0 190.5 -38
t125.5 -104t44 -149q0 -220 -226 -244zM826 550q55 6 77 30t22 70q0 66 -56 108.5t-161 42.5q-101 0 -180 -39.5t-131 -109t-74 -160.5zM818 1358l246 -232q11 -11 11 -29q0 -20 -11 -37q-8 -12 -19 -19.5t-22 -7.5q-9 0 -18 6l-252 159l-306 -159q-12 -5 -20 -5
q-13 0 -24 7.5t-17 19.5t-6 26q0 23 20 39l308 232q26 18 58 18q33 0 52 -18z" />
    <glyph glyph-name="edieresis" unicode="&#xeb;" 
d="M857 411l-549 -57q4 -231 250 -231q96 0 195 25.5t180 66.5q16 7 25 7q38 0 56 -56q6 -21 6 -36q0 -23 -11.5 -38t-35.5 -26q-89 -39 -203.5 -63.5t-226.5 -24.5q-124 0 -212 45.5t-133.5 130t-45.5 200.5q0 164 72 299.5t202.5 214t296.5 78.5q109 0 190.5 -38
t125.5 -104t44 -149q0 -220 -226 -244zM826 550q55 6 77 30t22 70q0 66 -56 108.5t-161 42.5q-101 0 -180 -39.5t-131 -109t-74 -160.5zM610 1289q30 -31 30 -76q0 -39 -20.5 -72t-53.5 -52t-70 -19q-47 0 -77.5 31t-30.5 77q0 37 20.5 70t54 52.5t70.5 19.5q47 0 77 -31z
M1050 1289q30 -31 30 -76q0 -39 -20.5 -72t-53.5 -52t-70 -19q-47 0 -77.5 31t-30.5 77q0 37 20.5 70t54 52.5t70.5 19.5q47 0 77 -31z" />
    <glyph glyph-name="igrave" unicode="&#xec;" 
d="M702.5 914q12.5 -10 12.5 -34q0 -15 -2 -24l-96 -546q-7 -42 -7 -66q0 -63 32 -91.5t102 -28.5q57 0 113.5 18.5t118.5 57.5q15 9 30 9q16 0 30 -12t23 -36q8 -20 8 -40q0 -35 -38 -56q-153 -87 -300 -87q-129 0 -199 66.5t-70 184.5q0 40 7 78l84 481h-253
q-28 0 -40.5 10.5t-12.5 34.5q0 5 2 23q7 37 24 52.5t51 15.5h340q28 0 40.5 -10zM817 1093q0 -22 -13.5 -39t-33.5 -17q-4 0 -12 2l-481 163q-25 8 -25 35q0 28 25 72q19 35 35.5 50t32.5 15q14 0 33 -11l416 -230q23 -13 23 -40z" />
    <glyph glyph-name="iacute" unicode="&#xed;" 
d="M702.5 914q12.5 -10 12.5 -34q0 -15 -2 -24l-96 -546q-7 -42 -7 -66q0 -63 32 -91.5t102 -28.5q57 0 113.5 18.5t118.5 57.5q15 9 30 9q16 0 30 -12t23 -36q8 -20 8 -40q0 -35 -38 -56q-153 -87 -300 -87q-129 0 -199 66.5t-70 184.5q0 40 7 78l84 481h-253
q-28 0 -40.5 10.5t-12.5 34.5q0 5 2 23q7 37 24 52.5t51 15.5h340q28 0 40.5 -10zM881 1374q16 0 32.5 -15t35.5 -50q25 -44 25 -72q0 -27 -25 -35l-481 -163q-8 -2 -12 -2q-14 0 -26 9.5t-17 24.5q-4 9 -4 22q0 27 23 40l416 230q19 11 33 11z" />
    <glyph glyph-name="icircumflex" unicode="&#xee;" 
d="M702.5 914q12.5 -10 12.5 -34q0 -15 -2 -24l-96 -546q-7 -42 -7 -66q0 -63 32 -91.5t102 -28.5q57 0 113.5 18.5t118.5 57.5q15 9 30 9q16 0 30 -12t23 -36q8 -20 8 -40q0 -35 -38 -56q-153 -87 -300 -87q-129 0 -199 66.5t-70 184.5q0 40 7 78l84 481h-253
q-28 0 -40.5 10.5t-12.5 34.5q0 5 2 23q7 37 24 52.5t51 15.5h340q28 0 40.5 -10zM708 1358l246 -232q11 -11 11 -29q0 -20 -11 -37q-8 -12 -19 -19.5t-22 -7.5q-9 0 -18 6l-252 159l-306 -159q-12 -5 -20 -5q-13 0 -24 7.5t-17 19.5t-6 26q0 23 20 39l308 232q26 18 58 18
q33 0 52 -18z" />
    <glyph glyph-name="idieresis" unicode="&#xef;" 
d="M702.5 914q12.5 -10 12.5 -34q0 -15 -2 -24l-96 -546q-7 -42 -7 -66q0 -63 32 -91.5t102 -28.5q57 0 113.5 18.5t118.5 57.5q15 9 30 9q16 0 30 -12t23 -36q8 -20 8 -40q0 -35 -38 -56q-153 -87 -300 -87q-129 0 -199 66.5t-70 184.5q0 40 7 78l84 481h-253
q-28 0 -40.5 10.5t-12.5 34.5q0 5 2 23q7 37 24 52.5t51 15.5h340q28 0 40.5 -10zM530 1289q30 -31 30 -76q0 -39 -20.5 -72t-53.5 -52t-70 -19q-47 0 -77.5 31t-30.5 77q0 37 20.5 70t54 52.5t70.5 19.5q47 0 77 -31zM970 1289q30 -31 30 -76q0 -39 -20.5 -72t-53.5 -52
t-70 -19q-47 0 -77.5 31t-30.5 77q0 37 20.5 70t54 52.5t70.5 19.5q47 0 77 -31z" />
    <glyph glyph-name="eth" unicode="&#xf0;" 
d="M806 1194l251 88q21 7 33 7q19 0 31.5 -12t20.5 -37q6 -18 6 -33q0 -37 -46 -53l-185 -65q189 -213 189 -502q0 -86 -16 -175q-24 -134 -99.5 -232t-190 -150t-250.5 -52q-119 0 -212 49t-144.5 136.5t-51.5 199.5q0 140 67 259.5t192 191.5t289 72q67 0 128 -22t111 -61
q-51 126 -165 232l-254 -89q-18 -6 -31 -6q-39 0 -54 48q-7 23 -7 34q0 36 47 52l171 60q-61 39 -103 61q-35 18 -35 48q0 20 15 45q26 45 58 45q18 0 35 -10q110 -58 200 -129zM479.5 688q-85.5 -50 -133.5 -135t-48 -186q0 -111 71.5 -176t196.5 -65q112 0 197.5 52
t132 137t46.5 181q0 112 -71.5 177t-196.5 65q-109 0 -194.5 -50z" />
    <glyph glyph-name="ntilde" unicode="&#xf1;" 
d="M1000 875.5q68 -70.5 68 -189.5q0 -38 -7 -76l-84 -474h82q28 0 40.5 -10t12.5 -34q0 -15 -2 -24q-6 -37 -23 -52.5t-51 -15.5h-169q-28 0 -41 10t-13 34q0 15 2 24l95 537q5 32 5 54q0 66 -33 102.5t-100 36.5q-84 0 -167.5 -53.5t-143.5 -144.5t-79 -198l-61 -347
q-6 -35 -25.5 -50t-59.5 -15h-2q-35 0 -50 10.5t-15 34.5q0 4 2 20l129 733h-102q-28 0 -40.5 10.5t-12.5 34.5q0 5 2 23q7 37 24 52.5t51 15.5h179q28 0 40.5 -10t12.5 -34q0 -15 -2 -24l-21 -120q84 102 179 156t193 54q119 0 187 -70.5zM656.5 1289q29.5 -8 77.5 -25
q45 -16 72 -23t56 -7q65 0 135 42q11 6 20 6q23 0 42 -31q11 -18 11 -37q0 -24 -17 -37q-109 -91 -200 -91q-34 0 -63.5 8t-77.5 25q-45 16 -72 23t-56 7q-64 0 -135 -42q-10 -6 -20 -6q-23 0 -42 31q-11 18 -11 37q0 24 17 37q109 91 200 91q34 0 63.5 -8z" />
    <glyph glyph-name="ograve" unicode="&#xf2;" 
d="M910 893.5q96 -52.5 149 -145.5t53 -210q0 -147 -70 -276t-196 -206.5t-286 -77.5q-124 0 -220 52.5t-149 145.5t-53 210q0 147 70 276t196 206.5t286 77.5q124 0 220 -52.5zM479 742q-87 -56 -135.5 -149t-48.5 -199q0 -80 33 -140.5t96.5 -94t151.5 -33.5q108 0 195 56
t135.5 149t48.5 199q0 80 -33 140.5t-96.5 94t-151.5 33.5q-108 0 -195 -56zM967 1093q0 -22 -13.5 -39t-33.5 -17q-4 0 -12 2l-481 163q-25 8 -25 35q0 28 25 72q19 35 35.5 50t32.5 15q14 0 33 -11l416 -230q23 -13 23 -40z" />
    <glyph glyph-name="oacute" unicode="&#xf3;" 
d="M910 893.5q96 -52.5 149 -145.5t53 -210q0 -147 -70 -276t-196 -206.5t-286 -77.5q-124 0 -220 52.5t-149 145.5t-53 210q0 147 70 276t196 206.5t286 77.5q124 0 220 -52.5zM479 742q-87 -56 -135.5 -149t-48.5 -199q0 -80 33 -140.5t96.5 -94t151.5 -33.5q108 0 195 56
t135.5 149t48.5 199q0 80 -33 140.5t-96.5 94t-151.5 33.5q-108 0 -195 -56zM961 1374q16 0 32.5 -15t35.5 -50q25 -44 25 -72q0 -27 -25 -35l-481 -163q-8 -2 -12 -2q-14 0 -26 9.5t-17 24.5q-4 9 -4 22q0 27 23 40l416 230q19 11 33 11z" />
    <glyph glyph-name="ocircumflex" unicode="&#xf4;" 
d="M910 893.5q96 -52.5 149 -145.5t53 -210q0 -147 -70 -276t-196 -206.5t-286 -77.5q-124 0 -220 52.5t-149 145.5t-53 210q0 147 70 276t196 206.5t286 77.5q124 0 220 -52.5zM479 742q-87 -56 -135.5 -149t-48.5 -199q0 -80 33 -140.5t96.5 -94t151.5 -33.5q108 0 195 56
t135.5 149t48.5 199q0 80 -33 140.5t-96.5 94t-151.5 33.5q-108 0 -195 -56zM808 1358l246 -232q11 -11 11 -29q0 -20 -11 -37q-8 -12 -19 -19.5t-22 -7.5q-9 0 -18 6l-252 159l-306 -159q-12 -5 -20 -5q-13 0 -24 7.5t-17 19.5t-6 26q0 23 20 39l308 232q26 18 58 18
q33 0 52 -18z" />
    <glyph glyph-name="otilde" unicode="&#xf5;" 
d="M910 893.5q96 -52.5 149 -145.5t53 -210q0 -147 -70 -276t-196 -206.5t-286 -77.5q-124 0 -220 52.5t-149 145.5t-53 210q0 147 70 276t196 206.5t286 77.5q124 0 220 -52.5zM479 742q-87 -56 -135.5 -149t-48.5 -199q0 -80 33 -140.5t96.5 -94t151.5 -33.5q108 0 195 56
t135.5 149t48.5 199q0 80 -33 140.5t-96.5 94t-151.5 33.5q-108 0 -195 -56zM661.5 1289q29.5 -8 77.5 -25q45 -16 72 -23t56 -7q65 0 135 42q11 6 20 6q23 0 42 -31q11 -18 11 -37q0 -24 -17 -37q-109 -91 -200 -91q-34 0 -63.5 8t-77.5 25q-45 16 -72 23t-56 7
q-64 0 -135 -42q-10 -6 -20 -6q-23 0 -42 31q-11 18 -11 37q0 24 17 37q109 91 200 91q34 0 63.5 -8z" />
    <glyph glyph-name="odieresis" unicode="&#xf6;" 
d="M910 893.5q96 -52.5 149 -145.5t53 -210q0 -147 -70 -276t-196 -206.5t-286 -77.5q-124 0 -220 52.5t-149 145.5t-53 210q0 147 70 276t196 206.5t286 77.5q124 0 220 -52.5zM479 742q-87 -56 -135.5 -149t-48.5 -199q0 -80 33 -140.5t96.5 -94t151.5 -33.5q108 0 195 56
t135.5 149t48.5 199q0 80 -33 140.5t-96.5 94t-151.5 33.5q-108 0 -195 -56zM610 1289q30 -31 30 -76q0 -39 -20.5 -72t-53.5 -52t-70 -19q-47 0 -77.5 31t-30.5 77q0 37 20.5 70t54 52.5t70.5 19.5q47 0 77 -31zM1050 1289q30 -31 30 -76q0 -39 -20.5 -72t-53.5 -52
t-70 -19q-47 0 -77.5 31t-30.5 77q0 37 20.5 70t54 52.5t70.5 19.5q47 0 77 -31z" />
    <glyph glyph-name="divide" unicode="&#xf7;" 
d="M792.5 1043.5q22.5 -11.5 22.5 -37.5q0 -9 -1 -14l-18 -104q-6 -34 -33.5 -48.5t-83.5 -14.5q-50 0 -72 11.5t-22 37.5q0 9 1 14l18 104q6 34 33 48.5t83 14.5q50 0 72.5 -11.5zM1079.5 640q12.5 -10 12.5 -34q0 -15 -2 -24q-7 -37 -24 -52.5t-51 -15.5h-762
q-28 0 -40.5 10t-12.5 34q0 15 2 24q7 37 24 52.5t51 15.5h762q28 0 40.5 -10zM686.5 328.5q22.5 -11.5 22.5 -37.5q0 -9 -1 -14l-18 -104q-6 -34 -33.5 -48.5t-83.5 -14.5q-50 0 -72 11.5t-22 37.5q0 9 1 14l18 104q6 34 33 48.5t83 14.5q50 0 72.5 -11.5z" />
    <glyph glyph-name="oslash" unicode="&#xf8;" 
d="M1223 891q0 -23 -30 -49l-128 -106q47 -89 47 -198q0 -147 -70 -276t-196 -206.5t-286 -77.5q-87 0 -160.5 26t-129.5 75l-119 -98q-26 -22 -51 -22q-26 0 -51 28q-23 26 -23 47q0 24 29 47l130 107q-47 88 -47 198q0 147 70 276t196 206.5t286 77.5q86 0 159.5 -26
t129.5 -75l119 98q26 22 51 22q27 0 52 -28q22 -27 22 -46zM311 293l547 451q-71 54 -184 54q-108 0 -195 -56t-135.5 -149t-48.5 -199q0 -57 16 -101zM939 632l-547 -452q71 -54 184 -54q108 0 195 56t135.5 149t48.5 199q0 57 -16 102z" />
    <glyph glyph-name="ugrave" unicode="&#xf9;" 
d="M1070.5 914q12.5 -10 12.5 -34q0 -15 -2 -24l-127 -720h82q28 0 40.5 -10t12.5 -34q0 -15 -2 -24q-6 -37 -23 -52.5t-51 -15.5h-160q-28 0 -40.5 10t-12.5 34q0 15 2 24l21 120q-84 -102 -179 -156t-193 -54q-119 0 -187 70.5t-68 189.5q0 40 7 76l84 474h-82
q-28 0 -40.5 10.5t-12.5 34.5q0 5 2 23q7 37 24 52.5t51 15.5h169q28 0 40.5 -10t12.5 -34q0 -15 -2 -24l-95 -537q-5 -32 -5 -54q0 -66 33 -102.5t100 -36.5q84 0 167.5 53.5t143.5 144.5t79 198l47 266h-142q-28 0 -40.5 10.5t-12.5 34.5q0 5 2 23q7 37 24 52.5t51 15.5
h229q28 0 40.5 -10zM947 1093q0 -22 -13.5 -39t-33.5 -17q-4 0 -12 2l-481 163q-25 8 -25 35q0 28 25 72q19 35 35.5 50t32.5 15q14 0 33 -11l416 -230q23 -13 23 -40z" />
    <glyph glyph-name="uacute" unicode="&#xfa;" 
d="M1070.5 914q12.5 -10 12.5 -34q0 -15 -2 -24l-127 -720h82q28 0 40.5 -10t12.5 -34q0 -15 -2 -24q-6 -37 -23 -52.5t-51 -15.5h-160q-28 0 -40.5 10t-12.5 34q0 15 2 24l21 120q-84 -102 -179 -156t-193 -54q-119 0 -187 70.5t-68 189.5q0 40 7 76l84 474h-82
q-28 0 -40.5 10.5t-12.5 34.5q0 5 2 23q7 37 24 52.5t51 15.5h169q28 0 40.5 -10t12.5 -34q0 -15 -2 -24l-95 -537q-5 -32 -5 -54q0 -66 33 -102.5t100 -36.5q84 0 167.5 53.5t143.5 144.5t79 198l47 266h-142q-28 0 -40.5 10.5t-12.5 34.5q0 5 2 23q7 37 24 52.5t51 15.5
h229q28 0 40.5 -10zM971 1374q16 0 32.5 -15t35.5 -50q25 -44 25 -72q0 -27 -25 -35l-481 -163q-8 -2 -12 -2q-14 0 -26 9.5t-17 24.5q-4 9 -4 22q0 27 23 40l416 230q19 11 33 11z" />
    <glyph glyph-name="ucircumflex" unicode="&#xfb;" 
d="M1070.5 914q12.5 -10 12.5 -34q0 -15 -2 -24l-127 -720h82q28 0 40.5 -10t12.5 -34q0 -15 -2 -24q-6 -37 -23 -52.5t-51 -15.5h-160q-28 0 -40.5 10t-12.5 34q0 15 2 24l21 120q-84 -102 -179 -156t-193 -54q-119 0 -187 70.5t-68 189.5q0 40 7 76l84 474h-82
q-28 0 -40.5 10.5t-12.5 34.5q0 5 2 23q7 37 24 52.5t51 15.5h169q28 0 40.5 -10t12.5 -34q0 -15 -2 -24l-95 -537q-5 -32 -5 -54q0 -66 33 -102.5t100 -36.5q84 0 167.5 53.5t143.5 144.5t79 198l47 266h-142q-28 0 -40.5 10.5t-12.5 34.5q0 5 2 23q7 37 24 52.5t51 15.5
h229q28 0 40.5 -10zM788 1358l246 -232q11 -11 11 -29q0 -20 -11 -37q-8 -12 -19 -19.5t-22 -7.5q-9 0 -18 6l-252 159l-306 -159q-12 -5 -20 -5q-13 0 -24 7.5t-17 19.5t-6 26q0 23 20 39l308 232q26 18 58 18q33 0 52 -18z" />
    <glyph glyph-name="udieresis" unicode="&#xfc;" 
d="M1070.5 914q12.5 -10 12.5 -34q0 -15 -2 -24l-127 -720h82q28 0 40.5 -10t12.5 -34q0 -15 -2 -24q-6 -37 -23 -52.5t-51 -15.5h-160q-28 0 -40.5 10t-12.5 34q0 15 2 24l21 120q-84 -102 -179 -156t-193 -54q-119 0 -187 70.5t-68 189.5q0 40 7 76l84 474h-82
q-28 0 -40.5 10.5t-12.5 34.5q0 5 2 23q7 37 24 52.5t51 15.5h169q28 0 40.5 -10t12.5 -34q0 -15 -2 -24l-95 -537q-5 -32 -5 -54q0 -66 33 -102.5t100 -36.5q84 0 167.5 53.5t143.5 144.5t79 198l47 266h-142q-28 0 -40.5 10.5t-12.5 34.5q0 5 2 23q7 37 24 52.5t51 15.5
h229q28 0 40.5 -10zM580 1289q30 -31 30 -76q0 -39 -20.5 -72t-53.5 -52t-70 -19q-47 0 -77.5 31t-30.5 77q0 37 20.5 70t54 52.5t70.5 19.5q47 0 77 -31zM1020 1289q30 -31 30 -76q0 -39 -20.5 -72t-53.5 -52t-70 -19q-47 0 -77.5 31t-30.5 77q0 37 20.5 70t54 52.5
t70.5 19.5q47 0 77 -31z" />
    <glyph glyph-name="yacute" unicode="&#xfd;" 
d="M1247.5 914q12.5 -10 12.5 -34q0 -15 -2 -24q-6 -37 -23.5 -52.5t-51.5 -15.5h-59l-556 -838q-90 -136 -163.5 -211t-154.5 -110t-193 -39q-71 -2 -71 67q0 42 16.5 62t45.5 22q96 5 158 33t122.5 95t155.5 209l-237 710h-66q-28 0 -40.5 10.5t-12.5 34.5q0 5 2 23
q7 37 24 52.5t51 15.5h354q28 0 40.5 -10t12.5 -34q0 -15 -2 -24q-6 -37 -23.5 -52.5t-51.5 -15.5h-132l183 -562l368 562h-85q-28 0 -40.5 10.5t-12.5 34.5q0 5 2 23q7 37 24 52.5t51 15.5h314q28 0 40.5 -10zM1001 1374q16 0 32.5 -15t35.5 -50q25 -44 25 -72
q0 -27 -25 -35l-481 -163q-8 -2 -12 -2q-14 0 -26 9.5t-17 24.5q-4 9 -4 22q0 27 23 40l416 230q19 11 33 11z" />
    <glyph glyph-name="thorn" unicode="&#xfe;" 
d="M490.5 1302q12.5 -10 12.5 -34q0 -15 -2 -24l-80 -454q150 156 333 156q107 0 189.5 -47.5t128.5 -135t46 -205.5q0 -138 -57.5 -271.5t-174 -221t-282.5 -87.5q-97 0 -173.5 45t-124.5 123l-70 -398h173q28 0 40.5 -10t12.5 -34q0 -15 -2 -24q-7 -37 -24 -52.5
t-51 -15.5h-424q-27 0 -40 10t-13 33q0 11 3 25q6 37 23 52.5t51 15.5h101l253 1428h-82q-28 0 -40.5 10.5t-12.5 34.5q0 5 2 23q7 37 24 52.5t51 15.5h169q28 0 40.5 -10zM529.5 739q-84.5 -59 -129.5 -154.5t-45 -201.5q0 -121 69 -189t186 -68q107 0 187 61t122 158.5
t42 203.5q0 114 -60.5 181.5t-172.5 67.5q-114 0 -198.5 -59z" />
    <glyph glyph-name="ydieresis" unicode="&#xff;" 
d="M1247.5 914q12.5 -10 12.5 -34q0 -15 -2 -24q-6 -37 -23.5 -52.5t-51.5 -15.5h-59l-556 -838q-90 -136 -163.5 -211t-154.5 -110t-193 -39q-71 -2 -71 67q0 42 16.5 62t45.5 22q96 5 158 33t122.5 95t155.5 209l-237 710h-66q-28 0 -40.5 10.5t-12.5 34.5q0 5 2 23
q7 37 24 52.5t51 15.5h354q28 0 40.5 -10t12.5 -34q0 -15 -2 -24q-6 -37 -23.5 -52.5t-51.5 -15.5h-132l183 -562l368 562h-85q-28 0 -40.5 10.5t-12.5 34.5q0 5 2 23q7 37 24 52.5t51 15.5h314q28 0 40.5 -10zM610 1289q30 -31 30 -76q0 -39 -20.5 -72t-53.5 -52t-70 -19
q-47 0 -77.5 31t-30.5 77q0 37 20.5 70t54 52.5t70.5 19.5q47 0 77 -31zM1050 1289q30 -31 30 -76q0 -39 -20.5 -72t-53.5 -52t-70 -19q-47 0 -77.5 31t-30.5 77q0 37 20.5 70t54 52.5t70.5 19.5q47 0 77 -31z" />
    <glyph glyph-name="Amacron" unicode="&#x100;" 
d="M837.5 1171.5q21.5 -15.5 27.5 -49.5l179 -986h64q28 0 40.5 -10t12.5 -34q0 -15 -2 -24q-6 -37 -23 -52.5t-51 -15.5h-354q-28 0 -41 10.5t-13 34.5q0 7 2 23q7 37 24 52.5t51 15.5h140l-40 238h-485l-125 -238h116q28 0 40.5 -10t12.5 -34q0 -15 -2 -24
q-6 -37 -23 -52.5t-51 -15.5h-334q-28 0 -41 10.5t-13 34.5q0 7 2 23q7 37 24 52.5t51 15.5h53l493 915h-184q-28 0 -40.5 10t-12.5 34q0 15 2 24q7 37 24 52.5t51 15.5h364q40 0 61.5 -15.5zM723 1051l-283 -541h392l-90 541h-19zM1064.5 1506q12.5 -10 12.5 -34
q0 -15 -2 -24q-7 -37 -24 -52.5t-51 -15.5h-562q-28 0 -40.5 10t-12.5 34q0 15 2 24q7 37 24 52.5t51 15.5h562q28 0 40.5 -10z" />
    <glyph glyph-name="amacron" unicode="&#x101;" 
d="M1118.5 133q12.5 -11 12.5 -36q0 -15 -2 -25q-8 -39 -25 -55.5t-51 -16.5h-11q-80 0 -129 46.5t-53 131.5q-72 -99 -160 -149.5t-198 -50.5q-104 0 -186 47.5t-128.5 135.5t-46.5 205q0 137 58 271t173.5 221.5t278.5 87.5q93 0 166 -48t119 -132l19 103q6 36 22.5 50.5
t55.5 14.5h2q33 0 47.5 -10.5t14.5 -33.5q0 -5 -2 -21l-104 -590q-4 -19 -4 -40q0 -47 23 -71t63 -24h5q28 0 40.5 -11zM705.5 186.5q81.5 60.5 128 156.5t46.5 198q0 121 -63.5 189t-171.5 68q-105 0 -184 -61t-121 -158.5t-42 -203.5q0 -114 59 -181.5t167 -67.5
q100 0 181.5 60.5zM1054.5 1236q12.5 -10 12.5 -34q0 -15 -2 -24q-7 -37 -24 -52.5t-51 -15.5h-562q-28 0 -40.5 10t-12.5 34q0 15 2 24q7 37 24 52.5t51 15.5h562q28 0 40.5 -10z" />
    <glyph glyph-name="Abreve" unicode="&#x102;" 
d="M837.5 1171.5q21.5 -15.5 27.5 -49.5l179 -986h64q28 0 40.5 -10t12.5 -34q0 -15 -2 -24q-6 -37 -23 -52.5t-51 -15.5h-354q-28 0 -41 10.5t-13 34.5q0 7 2 23q7 37 24 52.5t51 15.5h140l-40 238h-485l-125 -238h116q28 0 40.5 -10t12.5 -34q0 -15 -2 -24
q-6 -37 -23 -52.5t-51 -15.5h-334q-28 0 -41 10.5t-13 34.5q0 7 2 23q7 37 24 52.5t51 15.5h53l493 915h-184q-28 0 -40.5 10t-12.5 34q0 15 2 24q7 37 24 52.5t51 15.5h364q40 0 61.5 -15.5zM723 1051l-283 -541h392l-90 541h-19zM1137 1605q10 -11 10 -24q0 -5 -3 -13
q-44 -106 -150.5 -166.5t-258.5 -60.5q-153 0 -243.5 61t-101.5 166q-1 18 11.5 32.5t31.5 21.5q14 6 27 6q12 0 21.5 -5t13.5 -15q26 -66 86.5 -94.5t164.5 -28.5q105 0 173.5 28.5t113.5 94.5q14 20 45 20q18 0 33 -6q16 -6 26 -17z" />
    <glyph glyph-name="abreve" unicode="&#x103;" 
d="M1117 1335q10 -11 10 -24q0 -5 -3 -13q-44 -106 -150.5 -166.5t-258.5 -60.5q-153 0 -243.5 61t-101.5 166q-1 18 11.5 32.5t31.5 21.5q14 6 27 6q12 0 21.5 -5t13.5 -15q26 -66 86.5 -94.5t164.5 -28.5q105 0 173.5 28.5t113.5 94.5q14 20 45 20q18 0 33 -6
q16 -6 26 -17zM1118.5 133q12.5 -11 12.5 -36q0 -15 -2 -25q-8 -39 -25 -55.5t-51 -16.5h-11q-80 0 -129 46.5t-53 131.5q-72 -99 -160 -149.5t-198 -50.5q-104 0 -186 47.5t-128.5 135.5t-46.5 205q0 137 58 271t173.5 221.5t278.5 87.5q93 0 166 -48t119 -132l19 103
q6 36 22.5 50.5t55.5 14.5h2q33 0 47.5 -10.5t14.5 -33.5q0 -5 -2 -21l-104 -590q-4 -19 -4 -40q0 -47 23 -71t63 -24h5q28 0 40.5 -11zM705.5 186.5q81.5 60.5 128 156.5t46.5 198q0 121 -63.5 189t-171.5 68q-105 0 -184 -61t-121 -158.5t-42 -203.5q0 -114 59 -181.5
t167 -67.5q100 0 181.5 60.5z" />
    <glyph glyph-name="Aogonek" unicode="&#x104;" 
d="M837.5 1171.5q21.5 -15.5 27.5 -49.5l179 -986h64q28 0 40.5 -10t12.5 -34q0 -15 -2 -24q-6 -37 -23 -52.5t-51 -15.5h-50q-111 -88 -163.5 -155.5t-52.5 -121.5q0 -29 17 -44t48 -15q51 0 111 10l8 1q40 0 40 -66q0 -20 -9 -32.5t-28 -19.5q-38 -13 -85 -21t-94 -8
q-79 0 -123.5 44.5t-44.5 117.5q0 80 51.5 155.5t152.5 154.5h-132q-28 0 -41 10.5t-13 34.5q0 7 2 23q7 37 24 52.5t51 15.5h140l-40 238h-485l-125 -238h116q28 0 40.5 -10t12.5 -34q0 -15 -2 -24q-6 -37 -23 -52.5t-51 -15.5h-334q-28 0 -41 10.5t-13 34.5q0 7 2 23
q7 37 24 52.5t51 15.5h53l493 915h-184q-28 0 -40.5 10t-12.5 34q0 15 2 24q7 37 24 52.5t51 15.5h364q40 0 61.5 -15.5zM723 1051l-283 -541h392l-90 541h-19z" />
    <glyph glyph-name="aogonek" unicode="&#x105;" 
d="M1118.5 133q12.5 -11 12.5 -36q0 -15 -2 -25q-6 -31 -18.5 -48t-34.5 -22q-112 -89 -165.5 -157t-53.5 -122q0 -29 17 -44t48 -15q51 0 111 10l8 1q40 0 40 -66q0 -20 -9 -32.5t-28 -19.5q-38 -13 -85 -21t-94 -8q-79 0 -123.5 44.5t-44.5 117.5q0 87 61 169t180 168
q-72 45 -78 151q-72 -99 -160 -149.5t-198 -50.5q-104 0 -186 47.5t-128.5 135.5t-46.5 205q0 137 58 271t173.5 221.5t278.5 87.5q93 0 166 -48t119 -132l19 103q6 36 22.5 50.5t55.5 14.5h2q33 0 47.5 -10.5t14.5 -33.5q0 -5 -2 -21l-104 -590q-4 -19 -4 -40q0 -47 23 -71
t63 -24h5q28 0 40.5 -11zM705.5 186.5q81.5 60.5 128 156.5t46.5 198q0 121 -63.5 189t-171.5 68q-105 0 -184 -61t-121 -158.5t-42 -203.5q0 -114 59 -181.5t167 -67.5q100 0 181.5 60.5z" />
    <glyph glyph-name="Cacute" unicode="&#x106;" 
d="M1192 1198.5q15 -10.5 15 -34.5q0 -4 -2 -20l-58 -330q-6 -35 -25.5 -50t-60.5 -15q-35 0 -50.5 10.5t-15.5 34.5q0 6 2 20q4 21 4 49q0 88 -60 143t-180 55q-138 0 -243.5 -86.5t-162.5 -225t-57 -288.5q0 -158 76 -246.5t212 -88.5q97 0 191.5 30.5t178.5 85.5
q14 10 31 10q35 0 58 -45q14 -28 14 -48q0 -30 -36 -53q-216 -128 -448 -128q-133 0 -231.5 58.5t-151 166t-52.5 250.5q0 196 79 370t223 280t330 106q95 0 163.5 -34t108.5 -95l11 64q6 35 25.5 50t61.5 15q35 0 50 -10.5zM1043 1644q16 0 32.5 -15t35.5 -50
q25 -44 25 -72q0 -27 -25 -35l-481 -163q-8 -2 -12 -2q-14 0 -26 9.5t-17 24.5q-4 9 -4 22q0 27 23 40l416 230q19 11 33 11z" />
    <glyph glyph-name="cacute" unicode="&#x107;" 
d="M983 1374q16 0 32.5 -15t35.5 -50q25 -44 25 -72q0 -27 -25 -35l-481 -163q-8 -2 -12 -2q-14 0 -26 9.5t-17 24.5q-4 9 -4 22q0 27 23 40l416 230q19 11 33 11zM1120.5 935.5q15.5 -10.5 15.5 -34.5q0 -6 -2 -20l-51 -290q-6 -35 -24.5 -50t-59.5 -15q-36 0 -51.5 11
t-15.5 36q0 4 2 18q2 11 2 32q0 81 -63 128t-184 47q-112 0 -203 -56t-143.5 -150t-52.5 -201q0 -78 32.5 -138t93.5 -93.5t145 -33.5q91 0 180 28.5t170 83.5q19 13 37 13q33 0 56 -40q14 -25 14 -45q0 -36 -39 -61q-93 -59 -207 -93t-227 -34q-126 0 -219.5 52
t-143.5 143.5t-50 206.5q0 147 72 277.5t201.5 209.5t294.5 79q90 0 160.5 -36t110.5 -99l13 70q7 35 26 50t60 15q35 0 50.5 -10.5z" />
    <glyph glyph-name="Ccircumflex" unicode="&#x108;" 
d="M1192 1198.5q15 -10.5 15 -34.5q0 -4 -2 -20l-58 -330q-6 -35 -25.5 -50t-60.5 -15q-35 0 -50.5 10.5t-15.5 34.5q0 6 2 20q4 21 4 49q0 88 -60 143t-180 55q-138 0 -243.5 -86.5t-162.5 -225t-57 -288.5q0 -158 76 -246.5t212 -88.5q97 0 191.5 30.5t178.5 85.5
q14 10 31 10q35 0 58 -45q14 -28 14 -48q0 -30 -36 -53q-216 -128 -448 -128q-133 0 -231.5 58.5t-151 166t-52.5 250.5q0 196 79 370t223 280t330 106q95 0 163.5 -34t108.5 -95l11 64q6 35 25.5 50t61.5 15q35 0 50 -10.5zM888 1628l246 -232q11 -11 11 -29q0 -20 -11 -37
q-8 -12 -19 -19.5t-22 -7.5q-9 0 -18 6l-252 159l-306 -159q-12 -5 -20 -5q-13 0 -24 7.5t-17 19.5t-6 26q0 23 20 39l308 232q26 18 58 18q33 0 52 -18z" />
    <glyph glyph-name="ccircumflex" unicode="&#x109;" 
d="M1120.5 935.5q15.5 -10.5 15.5 -34.5q0 -6 -2 -20l-51 -290q-6 -35 -24.5 -50t-59.5 -15q-36 0 -51.5 11t-15.5 36q0 4 2 18q2 11 2 32q0 81 -63 128t-184 47q-112 0 -203 -56t-143.5 -150t-52.5 -201q0 -78 32.5 -138t93.5 -93.5t145 -33.5q91 0 180 28.5t170 83.5
q19 13 37 13q33 0 56 -40q14 -25 14 -45q0 -36 -39 -61q-93 -59 -207 -93t-227 -34q-126 0 -219.5 52t-143.5 143.5t-50 206.5q0 147 72 277.5t201.5 209.5t294.5 79q90 0 160.5 -36t110.5 -99l13 70q7 35 26 50t60 15q35 0 50.5 -10.5zM818 1358l246 -232q11 -11 11 -29
q0 -20 -11 -37q-8 -12 -19 -19.5t-22 -7.5q-9 0 -18 6l-252 159l-306 -159q-12 -5 -20 -5q-13 0 -24 7.5t-17 19.5t-6 26q0 23 20 39l308 232q26 18 58 18q33 0 52 -18z" />
    <glyph glyph-name="Cdotaccent" unicode="&#x10a;" 
d="M1192 1198.5q15 -10.5 15 -34.5q0 -4 -2 -20l-58 -330q-6 -35 -25.5 -50t-60.5 -15q-35 0 -50.5 10.5t-15.5 34.5q0 6 2 20q4 21 4 49q0 88 -60 143t-180 55q-138 0 -243.5 -86.5t-162.5 -225t-57 -288.5q0 -158 76 -246.5t212 -88.5q97 0 191.5 30.5t178.5 85.5
q14 10 31 10q35 0 58 -45q14 -28 14 -48q0 -30 -36 -53q-216 -128 -448 -128q-133 0 -231.5 58.5t-151 166t-52.5 250.5q0 196 79 370t223 280t330 106q95 0 163.5 -34t108.5 -95l11 64q6 35 25.5 50t61.5 15q35 0 50 -10.5zM906.5 1596q34.5 -35 34.5 -85q0 -44 -23 -81
t-61 -59t-80 -22q-53 0 -87.5 35t-34.5 86q0 43 23.5 80t61.5 59t80 22q52 0 86.5 -35z" />
    <glyph glyph-name="cdotaccent" unicode="&#x10b;" 
d="M1120.5 935.5q15.5 -10.5 15.5 -34.5q0 -6 -2 -20l-51 -290q-6 -35 -24.5 -50t-59.5 -15q-36 0 -51.5 11t-15.5 36q0 4 2 18q2 11 2 32q0 81 -63 128t-184 47q-112 0 -203 -56t-143.5 -150t-52.5 -201q0 -78 32.5 -138t93.5 -93.5t145 -33.5q91 0 180 28.5t170 83.5
q19 13 37 13q33 0 56 -40q14 -25 14 -45q0 -36 -39 -61q-93 -59 -207 -93t-227 -34q-126 0 -219.5 52t-143.5 143.5t-50 206.5q0 147 72 277.5t201.5 209.5t294.5 79q90 0 160.5 -36t110.5 -99l13 70q7 35 26 50t60 15q35 0 50.5 -10.5zM856.5 1326q34.5 -35 34.5 -85
q0 -44 -23 -81t-61 -59t-80 -22q-53 0 -87.5 35t-34.5 86q0 43 23.5 80t61.5 59t80 22q52 0 86.5 -35z" />
    <glyph glyph-name="Ccaron" unicode="&#x10c;" 
d="M1192 1198.5q15 -10.5 15 -34.5q0 -4 -2 -20l-58 -330q-6 -35 -25.5 -50t-60.5 -15q-35 0 -50.5 10.5t-15.5 34.5q0 6 2 20q4 21 4 49q0 88 -60 143t-180 55q-138 0 -243.5 -86.5t-162.5 -225t-57 -288.5q0 -158 76 -246.5t212 -88.5q97 0 191.5 30.5t178.5 85.5
q14 10 31 10q35 0 58 -45q14 -28 14 -48q0 -30 -36 -53q-216 -128 -448 -128q-133 0 -231.5 58.5t-151 166t-52.5 250.5q0 196 79 370t223 280t330 106q95 0 163.5 -34t108.5 -95l11 64q6 35 25.5 50t61.5 15q35 0 50 -10.5zM1125 1649q13 0 24 -7.5t17 -19.5t6 -26
q0 -23 -20 -39l-308 -232q-25 -18 -58 -18q-32 0 -52 18l-246 232q-11 11 -11 29q0 20 11 37q8 12 19 19.5t22 7.5q9 0 18 -6l252 -159l306 159q12 5 20 5z" />
    <glyph glyph-name="ccaron" unicode="&#x10d;" 
d="M1055 1389q13 0 24 -7.5t17 -19.5t6 -26q0 -23 -20 -39l-308 -232q-25 -18 -58 -18q-32 0 -52 18l-246 232q-11 11 -11 29q0 20 11 37q8 12 19 19.5t22 7.5q9 0 18 -6l252 -159l306 159q12 5 20 5zM1120.5 935.5q15.5 -10.5 15.5 -34.5q0 -6 -2 -20l-51 -290
q-6 -35 -24.5 -50t-59.5 -15q-36 0 -51.5 11t-15.5 36q0 4 2 18q2 11 2 32q0 81 -63 128t-184 47q-112 0 -203 -56t-143.5 -150t-52.5 -201q0 -78 32.5 -138t93.5 -93.5t145 -33.5q91 0 180 28.5t170 83.5q19 13 37 13q33 0 56 -40q14 -25 14 -45q0 -36 -39 -61
q-93 -59 -207 -93t-227 -34q-126 0 -219.5 52t-143.5 143.5t-50 206.5q0 147 72 277.5t201.5 209.5t294.5 79q90 0 160.5 -36t110.5 -99l13 70q7 35 26 50t60 15q35 0 50.5 -10.5z" />
    <glyph glyph-name="Dcaron" unicode="&#x10e;" 
d="M975 1131q101 -56 155.5 -160.5t54.5 -246.5q0 -157 -63.5 -324.5t-204.5 -283.5t-358 -116h-486q-28 0 -41 10.5t-13 34.5q0 7 2 23q7 37 24 52.5t51 15.5h112l162 915h-112q-28 0 -40.5 10t-12.5 34q0 15 2 24q7 37 24 52.5t51 15.5h456q136 0 237 -56zM358 136h186
q168 0 276.5 92t158 226.5t49.5 264.5q0 161 -84.5 246.5t-237.5 85.5h-186zM1075 1639q13 0 24 -7.5t17 -19.5t6 -26q0 -23 -20 -39l-308 -232q-25 -18 -58 -18q-32 0 -52 18l-246 232q-11 11 -11 29q0 20 11 37q8 12 19 19.5t22 7.5q9 0 18 -6l252 -159l306 159q12 5 20 5
z" />
    <glyph glyph-name="dcaron" unicode="&#x10f;" 
d="M1056.5 1302q12.5 -10 12.5 -34q0 -15 -2 -24l-196 -1108h82q28 0 40.5 -10t12.5 -34q0 -15 -2 -24q-6 -37 -23 -52.5t-51 -15.5h-159q-28 0 -41 10t-13 34q0 15 2 24l12 65q-60 -72 -131.5 -113.5t-162.5 -41.5q-93 0 -164 47.5t-110.5 134.5t-39.5 203
q0 143 52.5 277.5t155.5 220t246 85.5q95 0 160.5 -41.5t100.5 -114.5l67 386h-162q-28 0 -40.5 10t-12.5 34q0 15 2 24q7 37 24 52.5t51 15.5h249q28 0 40.5 -10zM1503.5 1306.5q6.5 -5.5 6.5 -15.5q0 -15 -11 -30l-246 -364q-24 -35 -68 -35q-22 0 -34 9t-12 26q0 10 4 21
l141 362q12 32 48 32h153q12 0 18.5 -5.5zM415.5 733q-68.5 -65 -102.5 -164t-34 -200q0 -113 48 -178t146 -65q102 0 173.5 65.5t107 163.5t35.5 196q0 117 -55 182t-153 65q-97 0 -165.5 -65z" />
    <glyph glyph-name="Dcroat" unicode="&#x110;" 
d="M975 1131q101 -56 155.5 -160.5t54.5 -246.5q0 -157 -63.5 -324.5t-204.5 -283.5t-358 -116h-486q-28 0 -41 10.5t-13 34.5q0 7 2 23q7 37 24 52.5t51 15.5h112l74 416h-136q-28 0 -40.5 10t-12.5 34q0 15 2 24q7 37 24 52.5t51 15.5h136l64 363h-112q-28 0 -40.5 10
t-12.5 34q0 15 2 24q7 37 24 52.5t51 15.5h456q136 0 237 -56zM820.5 228q108.5 92 158 226.5t49.5 264.5q0 161 -84.5 246.5t-237.5 85.5h-186l-64 -363h276q28 0 40.5 -10t12.5 -34q0 -15 -2 -24q-7 -37 -24 -52.5t-51 -15.5h-276l-74 -416h186q168 0 276.5 92z" />
    <glyph glyph-name="dcroat" unicode="&#x111;" 
d="M1280.5 1095.5q12.5 -10.5 12.5 -34.5q0 -5 -2 -23q-7 -37 -24 -52.5t-51 -15.5h-109l-148 -834h82q28 0 40.5 -10t12.5 -34q0 -15 -2 -24q-6 -37 -23 -52.5t-51 -15.5h-159q-28 0 -41 10t-13 34q0 15 2 24l12 64q-72 -75 -154 -114.5t-170 -39.5q-102 0 -180.5 43.5
t-122.5 125.5t-44 193q0 144 58.5 269.5t167 201t252.5 75.5q96 0 168 -42.5t119 -119.5l43 246h-302q-28 0 -40.5 10t-12.5 34q0 15 2 24q6 37 23.5 52.5t51.5 15.5h303l12 70h-162q-28 0 -40.5 10.5t-12.5 34.5q0 5 2 23q7 37 24 52.5t51 15.5h249q28 0 40.5 -10t12.5 -34
q0 -15 -2 -24l-24 -138h109q28 0 40.5 -10.5zM706.5 182.5q81.5 56.5 122 144.5t40.5 179q0 109 -67.5 170.5t-181.5 61.5q-97 0 -169 -55.5t-109 -144t-37 -186.5q0 -103 54 -164.5t152 -61.5q114 0 195.5 56.5z" />
    <glyph glyph-name="Emacron" unicode="&#x112;" 
d="M1196.5 1177q12.5 -10 12.5 -34q0 -15 -2 -24l-45 -254q-6 -35 -25.5 -50t-60.5 -15q-35 0 -50.5 10.5t-15.5 34.5q0 6 2 20l33 186h-535l-66 -371h250l16 91q7 35 26.5 50t60.5 15q34 0 49.5 -10.5t15.5 -33.5q0 -13 -2 -21l-56 -318q-6 -35 -25.5 -50t-60.5 -15
q-35 0 -50.5 10.5t-15.5 34.5q0 6 2 20l16 91h-250l-72 -408h555l41 229q6 35 25.5 50t60.5 15q35 0 50.5 -10.5t15.5 -34.5q0 -6 -2 -20l-53 -297q-6 -37 -23 -52.5t-51 -15.5h-894q-28 0 -41 10.5t-13 34.5q0 7 2 23q7 37 24 52.5t51 15.5h102l162 915h-102
q-28 0 -40.5 10t-12.5 34q0 15 2 24q7 37 24 52.5t51 15.5h874q28 0 40.5 -10zM1134.5 1506q12.5 -10 12.5 -34q0 -15 -2 -24q-7 -37 -24 -52.5t-51 -15.5h-562q-28 0 -40.5 10t-12.5 34q0 15 2 24q7 37 24 52.5t51 15.5h562q28 0 40.5 -10z" />
    <glyph glyph-name="emacron" unicode="&#x113;" 
d="M857 411l-549 -57q4 -231 250 -231q96 0 195 25.5t180 66.5q16 7 25 7q38 0 56 -56q6 -21 6 -36q0 -23 -11.5 -38t-35.5 -26q-89 -39 -203.5 -63.5t-226.5 -24.5q-124 0 -212 45.5t-133.5 130t-45.5 200.5q0 164 72 299.5t202.5 214t296.5 78.5q109 0 190.5 -38
t125.5 -104t44 -149q0 -220 -226 -244zM826 550q55 6 77 30t22 70q0 66 -56 108.5t-161 42.5q-101 0 -180 -39.5t-131 -109t-74 -160.5zM1074.5 1236q12.5 -10 12.5 -34q0 -15 -2 -24q-7 -37 -24 -52.5t-51 -15.5h-562q-28 0 -40.5 10t-12.5 34q0 15 2 24q7 37 24 52.5
t51 15.5h562q28 0 40.5 -10z" />
    <glyph glyph-name="Ebreve" unicode="&#x114;" 
d="M1196.5 1177q12.5 -10 12.5 -34q0 -15 -2 -24l-45 -254q-6 -35 -25.5 -50t-60.5 -15q-35 0 -50.5 10.5t-15.5 34.5q0 6 2 20l33 186h-535l-66 -371h250l16 91q7 35 26.5 50t60.5 15q34 0 49.5 -10.5t15.5 -33.5q0 -13 -2 -21l-56 -318q-6 -35 -25.5 -50t-60.5 -15
q-35 0 -50.5 10.5t-15.5 34.5q0 6 2 20l16 91h-250l-72 -408h555l41 229q6 35 25.5 50t60.5 15q35 0 50.5 -10.5t15.5 -34.5q0 -6 -2 -20l-53 -297q-6 -37 -23 -52.5t-51 -15.5h-894q-28 0 -41 10.5t-13 34.5q0 7 2 23q7 37 24 52.5t51 15.5h102l162 915h-102
q-28 0 -40.5 10t-12.5 34q0 15 2 24q7 37 24 52.5t51 15.5h874q28 0 40.5 -10zM1167 1605q10 -11 10 -24q0 -5 -3 -13q-44 -106 -150.5 -166.5t-258.5 -60.5q-153 0 -243.5 61t-101.5 166q-1 18 11.5 32.5t31.5 21.5q14 6 27 6q12 0 21.5 -5t13.5 -15q26 -66 86.5 -94.5
t164.5 -28.5q105 0 173.5 28.5t113.5 94.5q14 20 45 20q18 0 33 -6q16 -6 26 -17z" />
    <glyph glyph-name="ebreve" unicode="&#x115;" 
d="M1127 1335q10 -11 10 -24q0 -5 -3 -13q-44 -106 -150.5 -166.5t-258.5 -60.5q-153 0 -243.5 61t-101.5 166q-1 18 11.5 32.5t31.5 21.5q14 6 27 6q12 0 21.5 -5t13.5 -15q26 -66 86.5 -94.5t164.5 -28.5q105 0 173.5 28.5t113.5 94.5q14 20 45 20q18 0 33 -6
q16 -6 26 -17zM857 411l-549 -57q4 -231 250 -231q96 0 195 25.5t180 66.5q16 7 25 7q38 0 56 -56q6 -21 6 -36q0 -23 -11.5 -38t-35.5 -26q-89 -39 -203.5 -63.5t-226.5 -24.5q-124 0 -212 45.5t-133.5 130t-45.5 200.5q0 164 72 299.5t202.5 214t296.5 78.5
q109 0 190.5 -38t125.5 -104t44 -149q0 -220 -226 -244zM826 550q55 6 77 30t22 70q0 66 -56 108.5t-161 42.5q-101 0 -180 -39.5t-131 -109t-74 -160.5z" />
    <glyph glyph-name="Edotaccent" unicode="&#x116;" 
d="M1196.5 1177q12.5 -10 12.5 -34q0 -15 -2 -24l-45 -254q-6 -35 -25.5 -50t-60.5 -15q-35 0 -50.5 10.5t-15.5 34.5q0 6 2 20l33 186h-535l-66 -371h250l16 91q7 35 26.5 50t60.5 15q34 0 49.5 -10.5t15.5 -33.5q0 -13 -2 -21l-56 -318q-6 -35 -25.5 -50t-60.5 -15
q-35 0 -50.5 10.5t-15.5 34.5q0 6 2 20l16 91h-250l-72 -408h555l41 229q6 35 25.5 50t60.5 15q35 0 50.5 -10.5t15.5 -34.5q0 -6 -2 -20l-53 -297q-6 -37 -23 -52.5t-51 -15.5h-894q-28 0 -41 10.5t-13 34.5q0 7 2 23q7 37 24 52.5t51 15.5h102l162 915h-102
q-28 0 -40.5 10t-12.5 34q0 15 2 24q7 37 24 52.5t51 15.5h874q28 0 40.5 -10zM886.5 1596q34.5 -35 34.5 -85q0 -44 -23 -81t-61 -59t-80 -22q-53 0 -87.5 35t-34.5 86q0 43 23.5 80t61.5 59t80 22q52 0 86.5 -35z" />
    <glyph glyph-name="edotaccent" unicode="&#x117;" 
d="M857 411l-549 -57q4 -231 250 -231q96 0 195 25.5t180 66.5q16 7 25 7q38 0 56 -56q6 -21 6 -36q0 -23 -11.5 -38t-35.5 -26q-89 -39 -203.5 -63.5t-226.5 -24.5q-124 0 -212 45.5t-133.5 130t-45.5 200.5q0 164 72 299.5t202.5 214t296.5 78.5q109 0 190.5 -38
t125.5 -104t44 -149q0 -220 -226 -244zM826 550q55 6 77 30t22 70q0 66 -56 108.5t-161 42.5q-101 0 -180 -39.5t-131 -109t-74 -160.5zM846.5 1326q34.5 -35 34.5 -85q0 -44 -23 -81t-61 -59t-80 -22q-53 0 -87.5 35t-34.5 86q0 43 23.5 80t61.5 59t80 22q52 0 86.5 -35z
" />
    <glyph glyph-name="Eogonek" unicode="&#x118;" 
d="M1196.5 1177q12.5 -10 12.5 -34q0 -15 -2 -24l-45 -254q-6 -35 -25.5 -50t-60.5 -15q-35 0 -50.5 10.5t-15.5 34.5q0 6 2 20l33 186h-535l-66 -371h250l16 91q7 35 26.5 50t60.5 15q34 0 49.5 -10.5t15.5 -33.5q0 -13 -2 -21l-56 -318q-6 -35 -25.5 -50t-60.5 -15
q-35 0 -50.5 10.5t-15.5 34.5q0 6 2 20l16 91h-250l-72 -408h555l41 229q6 35 25.5 50t60.5 15q35 0 50.5 -10.5t15.5 -34.5q0 -6 -2 -20l-53 -297q-6 -37 -23 -52.5t-51 -15.5h-12q-111 -88 -163.5 -156t-52.5 -121q0 -29 17 -44t48 -15q51 0 111 10l8 1q40 0 40 -66
q0 -20 -9 -32.5t-28 -19.5q-38 -13 -85 -21t-94 -8q-79 0 -123.5 44.5t-44.5 117.5q0 80 52 155.5t153 154.5h-711q-28 0 -41 10.5t-13 34.5q0 7 2 23q7 37 24 52.5t51 15.5h102l162 915h-102q-28 0 -40.5 10t-12.5 34q0 15 2 24q7 37 24 52.5t51 15.5h874q28 0 40.5 -10z
" />
    <glyph glyph-name="eogonek" unicode="&#x119;" 
d="M857 411l-549 -57q4 -231 250 -231q96 0 195 25.5t180 66.5q16 7 25 7q38 0 56 -56q6 -21 6 -36q0 -23 -11.5 -38t-35.5 -26q-19 -8 -45.5 -27.5t-80.5 -64.5q-94 -78 -139 -139.5t-45 -111.5q0 -29 17 -44t48 -15q51 0 111 10l8 1q40 0 40 -66q0 -20 -9 -32.5t-28 -19.5
q-38 -13 -85 -21t-94 -8q-79 0 -123.5 44.5t-44.5 117.5q0 77 48 150.5t142 148.5q-77 -11 -150 -11q-124 0 -212 45.5t-133.5 130t-45.5 200.5q0 164 72 299.5t202.5 214t296.5 78.5q109 0 190.5 -38t125.5 -104t44 -149q0 -220 -226 -244zM826 550q55 6 77 30t22 70
q0 66 -56 108.5t-161 42.5q-101 0 -180 -39.5t-131 -109t-74 -160.5z" />
    <glyph glyph-name="Ecaron" unicode="&#x11a;" 
d="M1196.5 1177q12.5 -10 12.5 -34q0 -15 -2 -24l-45 -254q-6 -35 -25.5 -50t-60.5 -15q-35 0 -50.5 10.5t-15.5 34.5q0 6 2 20l33 186h-535l-66 -371h250l16 91q7 35 26.5 50t60.5 15q34 0 49.5 -10.5t15.5 -33.5q0 -13 -2 -21l-56 -318q-6 -35 -25.5 -50t-60.5 -15
q-35 0 -50.5 10.5t-15.5 34.5q0 6 2 20l16 91h-250l-72 -408h555l41 229q6 35 25.5 50t60.5 15q35 0 50.5 -10.5t15.5 -34.5q0 -6 -2 -20l-53 -297q-6 -37 -23 -52.5t-51 -15.5h-894q-28 0 -41 10.5t-13 34.5q0 7 2 23q7 37 24 52.5t51 15.5h102l162 915h-102
q-28 0 -40.5 10t-12.5 34q0 15 2 24q7 37 24 52.5t51 15.5h874q28 0 40.5 -10zM1095 1639q13 0 24 -7.5t17 -19.5t6 -26q0 -23 -20 -39l-308 -232q-25 -18 -58 -18q-32 0 -52 18l-246 232q-11 11 -11 29q0 20 11 37q8 12 19 19.5t22 7.5q9 0 18 -6l252 -159l306 159
q12 5 20 5z" />
    <glyph glyph-name="ecaron" unicode="&#x11b;" 
d="M1055 1389q13 0 24 -7.5t17 -19.5t6 -26q0 -23 -20 -39l-308 -232q-25 -18 -58 -18q-32 0 -52 18l-246 232q-11 11 -11 29q0 20 11 37q8 12 19 19.5t22 7.5q9 0 18 -6l252 -159l306 159q12 5 20 5zM857 411l-549 -57q4 -231 250 -231q96 0 195 25.5t180 66.5q16 7 25 7
q38 0 56 -56q6 -21 6 -36q0 -23 -11.5 -38t-35.5 -26q-89 -39 -203.5 -63.5t-226.5 -24.5q-124 0 -212 45.5t-133.5 130t-45.5 200.5q0 164 72 299.5t202.5 214t296.5 78.5q109 0 190.5 -38t125.5 -104t44 -149q0 -220 -226 -244zM826 550q55 6 77 30t22 70q0 66 -56 108.5
t-161 42.5q-101 0 -180 -39.5t-131 -109t-74 -160.5z" />
    <glyph glyph-name="Gcircumflex" unicode="&#x11c;" 
d="M1180 1198.5q15 -10.5 15 -34.5q0 -4 -2 -20l-51 -290q-6 -35 -25.5 -50t-60.5 -15q-35 0 -50.5 10.5t-15.5 34.5q0 6 2 20q3 18 3 35q0 79 -63 125.5t-181 46.5q-145 0 -252.5 -88t-164 -225.5t-56.5 -282.5q0 -105 35.5 -181.5t102.5 -117t160 -40.5q175 0 309 57
l40 227h-247q-28 0 -40.5 10t-12.5 34q0 15 2 24q7 37 24 52.5t51 15.5h429q28 0 40.5 -10t12.5 -34q0 -15 -2 -24q-7 -37 -24 -52.5t-51 -15.5h-32l-49 -276q-5 -24 -17 -42t-31 -27q-178 -87 -413 -87q-134 0 -234.5 59.5t-155 168.5t-54.5 254q0 194 81.5 366.5
t227.5 277.5t332 105q95 0 163 -31.5t109 -87.5l9 54q6 35 25.5 50t61.5 15q35 0 50 -10.5zM868 1628l246 -232q11 -11 11 -29q0 -20 -11 -37q-8 -12 -19 -19.5t-22 -7.5q-9 0 -18 6l-252 159l-306 -159q-12 -5 -20 -5q-13 0 -24 7.5t-17 19.5t-6 26q0 23 20 39l308 232
q26 18 58 18q33 0 52 -18z" />
    <glyph glyph-name="gcircumflex" unicode="&#x11d;" 
d="M818 1358l246 -232q11 -11 11 -29q0 -20 -11 -37q-8 -12 -19 -19.5t-22 -7.5q-9 0 -18 6l-252 159l-306 -159q-12 -5 -20 -5q-13 0 -24 7.5t-17 19.5t-6 26q0 23 20 39l308 232q26 18 58 18q33 0 52 -18zM844 899q75 -47 121 -133l19 103q6 36 23 50.5t58 14.5
q34 0 47.5 -10t13.5 -32q0 -5 -2 -23l-161 -909q-32 -179 -154.5 -274.5t-323.5 -95.5t-368 70q-36 14 -36 51q0 19 9 43q21 55 58 55q14 0 24 -5q73 -32 159 -49t170 -17q135 0 216.5 66t100.5 179l33 191q-74 -73 -156 -109.5t-177 -36.5q-108 0 -191 45.5t-129 130
t-46 196.5q0 145 62.5 270t180 200.5t275.5 75.5q99 0 174 -47zM468.5 742.5q-78.5 -55.5 -119 -144t-40.5 -186.5q0 -108 61 -172t175 -64q118 0 201 56.5t125 144.5t42 179q0 114 -70.5 178t-188.5 64q-107 0 -185.5 -55.5z" />
    <glyph glyph-name="Gbreve" unicode="&#x11e;" 
d="M1180 1198.5q15 -10.5 15 -34.5q0 -4 -2 -20l-51 -290q-6 -35 -25.5 -50t-60.5 -15q-35 0 -50.5 10.5t-15.5 34.5q0 6 2 20q3 18 3 35q0 79 -63 125.5t-181 46.5q-145 0 -252.5 -88t-164 -225.5t-56.5 -282.5q0 -105 35.5 -181.5t102.5 -117t160 -40.5q175 0 309 57
l40 227h-247q-28 0 -40.5 10t-12.5 34q0 15 2 24q7 37 24 52.5t51 15.5h429q28 0 40.5 -10t12.5 -34q0 -15 -2 -24q-7 -37 -24 -52.5t-51 -15.5h-32l-49 -276q-5 -24 -17 -42t-31 -27q-178 -87 -413 -87q-134 0 -234.5 59.5t-155 168.5t-54.5 254q0 194 81.5 366.5
t227.5 277.5t332 105q95 0 163 -31.5t109 -87.5l9 54q6 35 25.5 50t61.5 15q35 0 50 -10.5zM1167 1605q10 -11 10 -24q0 -5 -3 -13q-44 -106 -150.5 -166.5t-258.5 -60.5q-153 0 -243.5 61t-101.5 166q-1 18 11.5 32.5t31.5 21.5q14 6 27 6q12 0 21.5 -5t13.5 -15
q26 -66 86.5 -94.5t164.5 -28.5q105 0 173.5 28.5t113.5 94.5q14 20 45 20q18 0 33 -6q16 -6 26 -17z" />
    <glyph glyph-name="gbreve" unicode="&#x11f;" 
d="M1127 1335q10 -11 10 -24q0 -5 -3 -13q-44 -106 -150.5 -166.5t-258.5 -60.5q-153 0 -243.5 61t-101.5 166q-1 18 11.5 32.5t31.5 21.5q14 6 27 6q12 0 21.5 -5t13.5 -15q26 -66 86.5 -94.5t164.5 -28.5q105 0 173.5 28.5t113.5 94.5q14 20 45 20q18 0 33 -6
q16 -6 26 -17zM844 899q75 -47 121 -133l19 103q6 36 23 50.5t58 14.5q34 0 47.5 -10t13.5 -32q0 -5 -2 -23l-161 -909q-32 -179 -154.5 -274.5t-323.5 -95.5t-368 70q-36 14 -36 51q0 19 9 43q21 55 58 55q14 0 24 -5q73 -32 159 -49t170 -17q135 0 216.5 66t100.5 179
l33 191q-74 -73 -156 -109.5t-177 -36.5q-108 0 -191 45.5t-129 130t-46 196.5q0 145 62.5 270t180 200.5t275.5 75.5q99 0 174 -47zM468.5 742.5q-78.5 -55.5 -119 -144t-40.5 -186.5q0 -108 61 -172t175 -64q118 0 201 56.5t125 144.5t42 179q0 114 -70.5 178t-188.5 64
q-107 0 -185.5 -55.5z" />
    <glyph glyph-name="Gdotaccent" unicode="&#x120;" 
d="M1180 1198.5q15 -10.5 15 -34.5q0 -4 -2 -20l-51 -290q-6 -35 -25.5 -50t-60.5 -15q-35 0 -50.5 10.5t-15.5 34.5q0 6 2 20q3 18 3 35q0 79 -63 125.5t-181 46.5q-145 0 -252.5 -88t-164 -225.5t-56.5 -282.5q0 -105 35.5 -181.5t102.5 -117t160 -40.5q175 0 309 57
l40 227h-247q-28 0 -40.5 10t-12.5 34q0 15 2 24q7 37 24 52.5t51 15.5h429q28 0 40.5 -10t12.5 -34q0 -15 -2 -24q-7 -37 -24 -52.5t-51 -15.5h-32l-49 -276q-5 -24 -17 -42t-31 -27q-178 -87 -413 -87q-134 0 -234.5 59.5t-155 168.5t-54.5 254q0 194 81.5 366.5
t227.5 277.5t332 105q95 0 163 -31.5t109 -87.5l9 54q6 35 25.5 50t61.5 15q35 0 50 -10.5zM886.5 1596q34.5 -35 34.5 -85q0 -44 -23 -81t-61 -59t-80 -22q-53 0 -87.5 35t-34.5 86q0 43 23.5 80t61.5 59t80 22q52 0 86.5 -35z" />
    <glyph glyph-name="gdotaccent" unicode="&#x121;" 
d="M844 899q75 -47 121 -133l19 103q6 36 23 50.5t58 14.5q34 0 47.5 -10t13.5 -32q0 -5 -2 -23l-161 -909q-32 -179 -154.5 -274.5t-323.5 -95.5t-368 70q-36 14 -36 51q0 19 9 43q21 55 58 55q14 0 24 -5q73 -32 159 -49t170 -17q135 0 216.5 66t100.5 179l33 191
q-74 -73 -156 -109.5t-177 -36.5q-108 0 -191 45.5t-129 130t-46 196.5q0 145 62.5 270t180 200.5t275.5 75.5q99 0 174 -47zM468.5 742.5q-78.5 -55.5 -119 -144t-40.5 -186.5q0 -108 61 -172t175 -64q118 0 201 56.5t125 144.5t42 179q0 114 -70.5 178t-188.5 64
q-107 0 -185.5 -55.5zM856.5 1326q34.5 -35 34.5 -85q0 -44 -23 -81t-61 -59t-80 -22q-53 0 -87.5 35t-34.5 86q0 43 23.5 80t61.5 59t80 22q52 0 86.5 -35z" />
    <glyph glyph-name="uni0122" unicode="&#x122;" 
d="M1180 1198.5q15 -10.5 15 -34.5q0 -4 -2 -20l-51 -290q-6 -35 -25.5 -50t-60.5 -15q-35 0 -50.5 10.5t-15.5 34.5q0 6 2 20q3 18 3 35q0 79 -63 125.5t-181 46.5q-145 0 -252.5 -88t-164 -225.5t-56.5 -282.5q0 -105 35.5 -181.5t102.5 -117t160 -40.5q175 0 309 57
l40 227h-247q-28 0 -40.5 10t-12.5 34q0 15 2 24q7 37 24 52.5t51 15.5h429q28 0 40.5 -10t12.5 -34q0 -15 -2 -24q-7 -37 -24 -52.5t-51 -15.5h-32l-49 -276q-5 -24 -17 -42t-31 -27q-178 -87 -413 -87q-134 0 -234.5 59.5t-155 168.5t-54.5 254q0 194 81.5 366.5
t227.5 277.5t332 105q95 0 163 -31.5t109 -87.5l9 54q6 35 25.5 50t61.5 15q35 0 50 -10.5zM654 -167q0 -15 -11 -30l-198 -291q-11 -17 -31 -27t-43 -10q-22 0 -33.5 9t-11.5 26q0 10 4 21l110 291q6 16 18.5 24t29.5 8h142q24 0 24 -21z" />
    <glyph glyph-name="uni0123" unicode="&#x123;" 
d="M595 1085q0 15 11 30l198 291q11 17 31 27t43 10q22 0 33.5 -9t11.5 -26q0 -10 -4 -21l-110 -291q-6 -16 -18.5 -24t-29.5 -8h-142q-24 0 -24 21zM844 899q75 -47 121 -133l19 103q6 36 23 50.5t58 14.5q34 0 47.5 -10t13.5 -32q0 -5 -2 -23l-161 -909
q-32 -179 -154.5 -274.5t-323.5 -95.5t-368 70q-36 14 -36 51q0 19 9 43q21 55 58 55q14 0 24 -5q73 -32 159 -49t170 -17q135 0 216.5 66t100.5 179l33 191q-74 -73 -156 -109.5t-177 -36.5q-108 0 -191 45.5t-129 130t-46 196.5q0 145 62.5 270t180 200.5t275.5 75.5
q99 0 174 -47zM468.5 742.5q-78.5 -55.5 -119 -144t-40.5 -186.5q0 -108 61 -172t175 -64q118 0 201 56.5t125 144.5t42 179q0 114 -70.5 178t-188.5 64q-107 0 -185.5 -55.5z" />
    <glyph glyph-name="Hcircumflex" unicode="&#x124;" 
d="M1264.5 1177q12.5 -10 12.5 -34q0 -15 -2 -24q-7 -37 -24 -52.5t-51 -15.5h-72l-162 -915h72q28 0 40.5 -10t12.5 -34q0 -15 -2 -24q-6 -37 -23 -52.5t-51 -15.5h-314q-28 0 -41 10.5t-13 34.5q0 7 2 23q7 37 24 52.5t51 15.5h92l72 408h-498l-72 -408h92q28 0 40.5 -10
t12.5 -34q0 -15 -2 -24q-6 -37 -23 -52.5t-51 -15.5h-314q-28 0 -41 10.5t-13 34.5q0 7 2 23q7 37 24 52.5t51 15.5h72l162 915h-72q-28 0 -40.5 10t-12.5 34q0 15 2 24q7 37 24 52.5t51 15.5h314q28 0 40.5 -10t12.5 -34q0 -15 -2 -24q-7 -37 -24 -52.5t-51 -15.5h-92
l-66 -371h498l66 371h-92q-28 0 -40.5 10t-12.5 34q0 15 2 24q7 37 24 52.5t51 15.5h314q28 0 40.5 -10zM858 1628l246 -232q11 -11 11 -29q0 -20 -11 -37q-8 -12 -19 -19.5t-22 -7.5q-9 0 -18 6l-252 159l-306 -159q-12 -5 -20 -5q-13 0 -24 7.5t-17 19.5t-6 26q0 23 20 39
l308 232q26 18 58 18q33 0 52 -18z" />
    <glyph glyph-name="hcircumflex" unicode="&#x125;" 
d="M858 1728l246 -232q11 -11 11 -29q0 -20 -11 -37q-8 -12 -19 -19.5t-22 -7.5q-9 0 -18 6l-252 159l-306 -159q-12 -5 -20 -5q-13 0 -24 7.5t-17 19.5t-6 26q0 23 20 39l308 232q26 18 58 18q33 0 52 -18zM520.5 1302q12.5 -10 12.5 -34q0 -15 -2 -24l-87 -494
q82 96 173.5 146t185.5 50q79 0 136.5 -32t88 -90.5t30.5 -136.5q0 -39 -7 -77l-84 -474h82q28 0 40.5 -10t12.5 -34q0 -15 -2 -24q-6 -37 -23 -52.5t-51 -15.5h-169q-28 0 -41 10t-13 34q0 15 2 24l95 537q5 32 5 53q0 66 -33.5 103t-99.5 37q-84 0 -167.5 -53.5
t-143.5 -144.5t-79 -198l-61 -347q-6 -35 -25.5 -50t-59.5 -15h-2q-35 0 -50 10.5t-15 34.5q0 4 2 20l198 1121h-92q-28 0 -40.5 10t-12.5 34q0 15 2 24q7 37 24 52.5t51 15.5h179q28 0 40.5 -10z" />
    <glyph glyph-name="Hbar" unicode="&#x126;" 
d="M1264.5 1177q12.5 -10 12.5 -34q0 -15 -2 -24q-7 -37 -24 -52.5t-51 -15.5h-72l-23 -127h122q28 0 40.5 -10t12.5 -34q0 -15 -2 -24q-6 -37 -23.5 -52.5t-51.5 -15.5h-122l-115 -652h72q28 0 40.5 -10t12.5 -34q0 -15 -2 -24q-6 -37 -23 -52.5t-51 -15.5h-314
q-28 0 -41 10.5t-13 34.5q0 7 2 23q7 37 24 52.5t51 15.5h92l72 408h-498l-72 -408h92q28 0 40.5 -10t12.5 -34q0 -15 -2 -24q-6 -37 -23 -52.5t-51 -15.5h-314q-28 0 -41 10.5t-13 34.5q0 7 2 23q7 37 24 52.5t51 15.5h72l115 652h-122q-28 0 -40.5 10.5t-12.5 34.5
q0 5 2 23q7 37 24 52.5t51 15.5h122l23 127h-72q-28 0 -40.5 10t-12.5 34q0 15 2 24q7 37 24 52.5t51 15.5h314q28 0 40.5 -10t12.5 -34q0 -15 -2 -24q-7 -37 -24 -52.5t-51 -15.5h-92l-23 -127h498l23 127h-92q-28 0 -40.5 10t-12.5 34q0 15 2 24q7 37 24 52.5t51 15.5h314
q28 0 40.5 -10zM433 788l-19 -108h498l19 108h-498z" />
    <glyph glyph-name="hbar" unicode="&#x127;" 
d="M1089.5 126q12.5 -10 12.5 -34q0 -15 -2 -24q-6 -37 -23 -52.5t-51 -15.5h-169q-28 0 -41 10t-13 34q0 15 2 24l84 477q5 32 5 53q0 66 -33.5 103t-99.5 37q-84 0 -167.5 -53.5t-143.5 -144.5t-79 -198l-50 -287q-6 -35 -25.5 -50t-59.5 -15h-2q-35 0 -50 10.5t-15 34.5
q0 4 2 20l162 915h-149q-28 0 -40.5 10t-12.5 34q0 15 2 24q7 37 24 52.5t51 15.5h149l12 70h-92q-28 0 -40.5 10.5t-12.5 34.5q0 5 2 23q7 37 24 52.5t51 15.5h179q28 0 40.5 -10t12.5 -34q0 -15 -2 -24l-24 -138h243q28 0 40.5 -10t12.5 -34q0 -15 -2 -24
q-7 -37 -24 -52.5t-51 -15.5h-243l-50 -280q82 96 173.5 146t185.5 50q79 0 136.5 -32t88 -90.5t30.5 -136.5q0 -39 -7 -77l-73 -414h82q28 0 40.5 -10z" />
    <glyph glyph-name="Itilde" unicode="&#x128;" 
d="M1114.5 1177q12.5 -10 12.5 -34q0 -15 -2 -24q-7 -37 -24 -52.5t-51 -15.5h-246l-162 -915h286q28 0 40.5 -10t12.5 -34q0 -15 -2 -24q-6 -37 -23 -52.5t-51 -15.5h-702q-28 0 -41 10.5t-13 34.5q0 7 2 23q7 37 24 52.5t51 15.5h266l162 915h-266q-28 0 -40.5 10
t-12.5 34q0 15 2 24q7 37 24 52.5t51 15.5h662q28 0 40.5 -10zM706.5 1549q29.5 -8 77.5 -25q45 -16 72 -23t56 -7q65 0 135 42q11 6 20 6q23 0 42 -31q11 -18 11 -37q0 -24 -17 -37q-109 -91 -200 -91q-34 0 -63.5 8t-77.5 25q-45 16 -72 23t-56 7q-64 0 -135 -42
q-10 -6 -20 -6q-23 0 -42 31q-11 18 -11 37q0 24 17 37q109 91 200 91q34 0 63.5 -8z" />
    <glyph glyph-name="itilde" unicode="&#x129;" 
d="M586.5 1289q29.5 -8 77.5 -25q45 -16 72 -23t56 -7q65 0 135 42q11 6 20 6q23 0 42 -31q11 -18 11 -37q0 -24 -17 -37q-109 -91 -200 -91q-34 0 -63.5 8t-77.5 25q-45 16 -72 23t-56 7q-64 0 -135 -42q-10 -6 -20 -6q-23 0 -42 31q-11 18 -11 37q0 24 17 37
q109 91 200 91q34 0 63.5 -8zM702.5 914q12.5 -10 12.5 -34q0 -15 -2 -24l-96 -546q-7 -42 -7 -66q0 -63 32 -91.5t102 -28.5q57 0 113.5 18.5t118.5 57.5q15 9 30 9q16 0 30 -12t23 -36q8 -20 8 -40q0 -35 -38 -56q-153 -87 -300 -87q-129 0 -199 66.5t-70 184.5q0 40 7 78
l84 481h-253q-28 0 -40.5 10.5t-12.5 34.5q0 5 2 23q7 37 24 52.5t51 15.5h340q28 0 40.5 -10z" />
    <glyph glyph-name="Imacron" unicode="&#x12a;" 
d="M1114.5 1177q12.5 -10 12.5 -34q0 -15 -2 -24q-7 -37 -24 -52.5t-51 -15.5h-246l-162 -915h286q28 0 40.5 -10t12.5 -34q0 -15 -2 -24q-6 -37 -23 -52.5t-51 -15.5h-702q-28 0 -41 10.5t-13 34.5q0 7 2 23q7 37 24 52.5t51 15.5h266l162 915h-266q-28 0 -40.5 10
t-12.5 34q0 15 2 24q7 37 24 52.5t51 15.5h662q28 0 40.5 -10zM1109.5 1506q12.5 -10 12.5 -34q0 -15 -2 -24q-7 -37 -24 -52.5t-51 -15.5h-562q-28 0 -40.5 10t-12.5 34q0 15 2 24q7 37 24 52.5t51 15.5h562q28 0 40.5 -10z" />
    <glyph glyph-name="imacron" unicode="&#x12b;" 
d="M702.5 914q12.5 -10 12.5 -34q0 -15 -2 -24l-96 -546q-7 -42 -7 -66q0 -63 32 -91.5t102 -28.5q57 0 113.5 18.5t118.5 57.5q15 9 30 9q16 0 30 -12t23 -36q8 -20 8 -40q0 -35 -38 -56q-153 -87 -300 -87q-129 0 -199 66.5t-70 184.5q0 40 7 78l84 481h-253
q-28 0 -40.5 10.5t-12.5 34.5q0 5 2 23q7 37 24 52.5t51 15.5h340q28 0 40.5 -10zM954.5 1236q12.5 -10 12.5 -34q0 -15 -2 -24q-7 -37 -24 -52.5t-51 -15.5h-562q-28 0 -40.5 10t-12.5 34q0 15 2 24q7 37 24 52.5t51 15.5h562q28 0 40.5 -10z" />
    <glyph glyph-name="Ibreve" unicode="&#x12c;" 
d="M1114.5 1177q12.5 -10 12.5 -34q0 -15 -2 -24q-7 -37 -24 -52.5t-51 -15.5h-246l-162 -915h286q28 0 40.5 -10t12.5 -34q0 -15 -2 -24q-6 -37 -23 -52.5t-51 -15.5h-702q-28 0 -41 10.5t-13 34.5q0 7 2 23q7 37 24 52.5t51 15.5h266l162 915h-266q-28 0 -40.5 10
t-12.5 34q0 15 2 24q7 37 24 52.5t51 15.5h662q28 0 40.5 -10zM1167 1605q10 -11 10 -24q0 -5 -3 -13q-44 -106 -150.5 -166.5t-258.5 -60.5q-153 0 -243.5 61t-101.5 166q-1 18 11.5 32.5t31.5 21.5q14 6 27 6q12 0 21.5 -5t13.5 -15q26 -66 86.5 -94.5t164.5 -28.5
q105 0 173.5 28.5t113.5 94.5q14 20 45 20q18 0 33 -6q16 -6 26 -17z" />
    <glyph glyph-name="ibreve" unicode="&#x12d;" 
d="M702.5 914q12.5 -10 12.5 -34q0 -15 -2 -24l-96 -546q-7 -42 -7 -66q0 -63 32 -91.5t102 -28.5q57 0 113.5 18.5t118.5 57.5q15 9 30 9q16 0 30 -12t23 -36q8 -20 8 -40q0 -35 -38 -56q-153 -87 -300 -87q-129 0 -199 66.5t-70 184.5q0 40 7 78l84 481h-253
q-28 0 -40.5 10.5t-12.5 34.5q0 5 2 23q7 37 24 52.5t51 15.5h340q28 0 40.5 -10zM1007 1335q10 -11 10 -24q0 -5 -3 -13q-44 -106 -150.5 -166.5t-258.5 -60.5q-153 0 -243.5 61t-101.5 166q-1 18 11.5 32.5t31.5 21.5q14 6 27 6q12 0 21.5 -5t13.5 -15q26 -66 86.5 -94.5
t164.5 -28.5q105 0 173.5 28.5t113.5 94.5q14 20 45 20q18 0 33 -6q16 -6 26 -17z" />
    <glyph glyph-name="Iogonek" unicode="&#x12e;" 
d="M1114.5 1177q12.5 -10 12.5 -34q0 -15 -2 -24q-7 -37 -24 -52.5t-51 -15.5h-246l-162 -915h286q28 0 40.5 -10t12.5 -34q0 -15 -2 -24q-6 -37 -23 -52.5t-51 -15.5h-280q-111 -88 -163.5 -156t-52.5 -121q0 -29 17 -44t48 -15q51 0 111 10l8 1q40 0 40 -66
q0 -20 -9 -32.5t-28 -19.5q-38 -13 -85 -21t-94 -8q-79 0 -123.5 44.5t-44.5 117.5q0 80 52 155.5t153 154.5h-251q-28 0 -41 10.5t-13 34.5q0 7 2 23q7 37 24 52.5t51 15.5h266l162 915h-266q-28 0 -40.5 10t-12.5 34q0 15 2 24q7 37 24 52.5t51 15.5h662q28 0 40.5 -10z
" />
    <glyph glyph-name="iogonek" unicode="&#x12f;" 
d="M595 1113.5q-19 10.5 -19 35.5q0 5 2 19l23 130q6 36 29 50.5t78 14.5q47 0 66 -10.5t19 -35.5q0 -5 -2 -19l-23 -130q-6 -36 -28.5 -50.5t-77.5 -14.5q-48 0 -67 10.5zM1067 121q0 -35 -38 -56q-126 -72 -248 -84q-98 -81 -145 -144t-47 -114q0 -29 17 -44t48 -15
q51 0 111 10l8 1q40 0 40 -66q0 -20 -9 -32.5t-28 -19.5q-38 -13 -85 -21t-94 -8q-79 0 -123.5 44.5t-44.5 117.5q0 78 49.5 152t145.5 150q-79 24 -121.5 85t-42.5 152q0 40 7 78l84 481h-253q-28 0 -40.5 10.5t-12.5 34.5q0 5 2 23q7 37 24 52.5t51 15.5h340
q28 0 40.5 -10t12.5 -34q0 -15 -2 -24l-96 -546q-7 -42 -7 -66q0 -63 32 -91.5t102 -28.5q57 0 113.5 18.5t118.5 57.5q15 9 30 9q16 0 30 -12t23 -36q8 -20 8 -40z" />
    <glyph glyph-name="Idotaccent" unicode="&#x130;" 
d="M1114.5 1177q12.5 -10 12.5 -34q0 -15 -2 -24q-7 -37 -24 -52.5t-51 -15.5h-246l-162 -915h286q28 0 40.5 -10t12.5 -34q0 -15 -2 -24q-6 -37 -23 -52.5t-51 -15.5h-702q-28 0 -41 10.5t-13 34.5q0 7 2 23q7 37 24 52.5t51 15.5h266l162 915h-266q-28 0 -40.5 10
t-12.5 34q0 15 2 24q7 37 24 52.5t51 15.5h662q28 0 40.5 -10zM896.5 1596q34.5 -35 34.5 -85q0 -44 -23 -81t-61 -59t-80 -22q-53 0 -87.5 35t-34.5 86q0 43 23.5 80t61.5 59t80 22q52 0 86.5 -35z" />
    <glyph glyph-name="dotlessi" unicode="&#x131;" 
d="M702.5 914q12.5 -10 12.5 -34q0 -15 -2 -24l-96 -546q-7 -42 -7 -66q0 -63 32 -91.5t102 -28.5q57 0 113.5 18.5t118.5 57.5q15 9 30 9q16 0 30 -12t23 -36q8 -20 8 -40q0 -35 -38 -56q-153 -87 -300 -87q-129 0 -199 66.5t-70 184.5q0 40 7 78l84 481h-253
q-28 0 -40.5 10.5t-12.5 34.5q0 5 2 23q7 37 24 52.5t51 15.5h340q28 0 40.5 -10z" />
    <glyph glyph-name="IJ" unicode="&#x132;" 
d="M584.5 1177q12.5 -10 12.5 -34q0 -15 -2 -24q-7 -37 -24 -52.5t-51 -15.5h-76l-162 -915h96q28 0 40.5 -10t12.5 -34q0 -15 -2 -24q-6 -37 -23 -52.5t-51 -15.5h-332q-28 0 -41 10.5t-13 34.5q0 7 2 23q7 37 24 52.5t51 15.5h86l162 915h-86q-28 0 -40.5 10t-12.5 34
q0 15 2 24q7 37 24 52.5t51 15.5h312q28 0 40.5 -10zM1324.5 1177q12.5 -10 12.5 -34q0 -15 -2 -24q-7 -37 -24 -52.5t-51 -15.5h-71l-144 -818q-22 -124 -95 -189.5t-210 -65.5q-67 0 -128.5 27.5t-97.5 73.5q-9 11 -9 31q0 6 2 20l51 285q6 35 25.5 50t60.5 15
q35 0 50.5 -10.5t15.5 -34.5q0 -6 -2 -20l-45 -254q31 -35 94 -35q62 0 96 32.5t47 104.5l139 788h-141q-28 0 -40.5 10t-12.5 34q0 15 2 24q7 37 24 52.5t51 15.5h362q28 0 40.5 -10z" />
    <glyph glyph-name="ij" unicode="&#x133;" 
d="M554 1352.5q19 -10.5 19 -35.5q0 -5 -2 -19l-23 -130q-6 -36 -28.5 -50.5t-77.5 -14.5q-48 0 -67 10.5t-19 35.5q0 5 2 19l23 130q6 36 29 50.5t78 14.5q47 0 66 -10.5zM1214 1352.5q19 -10.5 19 -35.5q0 -5 -2 -19l-23 -130q-6 -36 -28.5 -50.5t-77.5 -14.5
q-48 0 -67 10.5t-19 35.5q0 5 2 19l23 130q6 36 29 50.5t78 14.5q47 0 66 -10.5zM482.5 914q12.5 -10 12.5 -34q0 -15 -2 -24l-106 -606q-4 -20 -4 -40q0 -86 91 -86q59 0 121 20q14 4 20 4q19 0 30 -15.5t16 -48.5q1 -7 1 -20q0 -27 -12 -42.5t-37 -22.5q-80 -21 -154 -21
q-107 0 -167 58.5t-60 156.5q0 30 5 58l94 537h-123q-28 0 -40.5 10.5t-12.5 34.5q0 5 2 23q7 37 24 52.5t51 15.5h210q28 0 40.5 -10zM1142.5 914q12.5 -10 12.5 -34q0 -15 -2 -24l-162 -923q-31 -176 -119.5 -259.5t-258.5 -83.5q-77 0 -151.5 20t-130.5 53q-29 17 -29 46
q0 20 15 50q27 51 60 51q15 0 28 -9q104 -65 224 -65q98 0 147 53t69 167l146 832h-223q-28 0 -40.5 10.5t-12.5 34.5q0 5 2 23q7 37 24 52.5t51 15.5h310q28 0 40.5 -10z" />
    <glyph glyph-name="Jcircumflex" unicode="&#x134;" 
d="M1274.5 1177q12.5 -10 12.5 -34q0 -15 -2 -24q-7 -37 -24 -52.5t-51 -15.5h-201l-127 -718q-62 -355 -447 -355q-114 0 -206.5 43.5t-144.5 113.5q-9 12 -9 32q0 5 2 19l49 279q7 35 26.5 50t60.5 15q34 0 49.5 -10.5t15.5 -33.5q0 -13 -2 -21l-46 -264q70 -75 217 -75
q131 0 200.5 58t90.5 179l121 688h-341q-28 0 -40.5 10t-12.5 34q0 15 2 24q7 37 24 52.5t51 15.5h692q28 0 40.5 -10zM1008 1628l246 -232q11 -11 11 -29q0 -20 -11 -37q-8 -12 -19 -19.5t-22 -7.5q-9 0 -18 6l-252 159l-306 -159q-12 -5 -20 -5q-13 0 -24 7.5t-17 19.5
t-6 26q0 23 20 39l308 232q26 18 58 18q33 0 52 -18z" />
    <glyph glyph-name="jcircumflex" unicode="&#x135;" 
d="M972.5 914q12.5 -10 12.5 -34q0 -15 -2 -24l-160 -913q-31 -177 -121 -265t-259 -88q-83 0 -172.5 31.5t-159.5 81.5q-28 20 -28 47q0 21 17 51q26 44 58 44q18 0 33 -12q62 -44 131.5 -70.5t136.5 -26.5q98 0 147 53t69 167l146 832h-423q-28 0 -40.5 10.5t-12.5 34.5
q0 5 2 23q7 37 24 52.5t51 15.5h510q28 0 40.5 -10zM918 1358l246 -232q11 -11 11 -29q0 -20 -11 -37q-8 -12 -19 -19.5t-22 -7.5q-9 0 -18 6l-252 159l-306 -159q-12 -5 -20 -5q-13 0 -24 7.5t-17 19.5t-6 26q0 23 20 39l308 232q26 18 58 18q33 0 52 -18z" />
    <glyph glyph-name="uni0136" unicode="&#x136;" 
d="M1274.5 1177q12.5 -10 12.5 -34q0 -15 -2 -24q-7 -37 -24 -52.5t-51 -15.5h-52l-495 -405q8 1 24 1q61 0 105.5 -23.5t76.5 -76.5q24 -41 38.5 -91.5t29.5 -124.5q2 -11 11 -53t20 -70q13 -35 31.5 -53.5t45.5 -18.5h33q28 0 40.5 -10t12.5 -34q0 -15 -2 -24
q-6 -37 -23 -52.5t-51 -15.5h-77q-47 0 -85.5 33t-62.5 106q-13 38 -22.5 83.5t-11.5 54.5q-14 67 -24.5 105.5t-27.5 71.5q-18 34 -52.5 52t-82.5 18q-43 0 -85.5 -15t-77.5 -44l-35 -29l-53 -300h162q28 0 40.5 -10t12.5 -34q0 -15 -2 -24q-6 -37 -23 -52.5t-51 -15.5
h-424q-28 0 -41 10.5t-13 34.5q0 7 2 23q7 37 24 52.5t51 15.5h112l162 915h-112q-28 0 -40.5 10t-12.5 34q0 15 2 24q7 37 24 52.5t51 15.5h354q28 0 40.5 -10t12.5 -34q0 -15 -2 -24q-7 -37 -24 -52.5t-51 -15.5h-92l-73 -416l502 416h-63q-28 0 -40.5 10t-12.5 34
q0 15 2 24q7 37 24 52.5t51 15.5h324q28 0 40.5 -10zM674 -167q0 -15 -11 -30l-198 -291q-11 -17 -31 -27t-43 -10q-22 0 -33.5 9t-11.5 26q0 10 4 21l110 291q6 16 18.5 24t29.5 8h142q24 0 24 -21z" />
    <glyph glyph-name="uni0137" unicode="&#x137;" 
d="M549.5 1302q12.5 -10 12.5 -34q0 -15 -2 -24l-132 -747l395 291h-54q-28 0 -40.5 10.5t-12.5 34.5q0 5 2 23q7 37 24 52.5t51 15.5h334q28 0 40.5 -10t12.5 -34q0 -15 -2 -24q-6 -37 -23.5 -52.5t-51.5 -15.5h-55l-414 -302q18 3 34 3q78 0 137 -65q27 -29 44.5 -64
t37.5 -88q16 -41 27 -64.5t26 -40.5q26 -31 65 -31h24q28 0 40.5 -10t12.5 -34q0 -15 -2 -24q-6 -37 -23 -52.5t-51 -15.5h-43q-75 0 -115 40q-33 33 -53.5 72t-42.5 98q-18 46 -29.5 70.5t-28.5 44.5q-24 27 -57.5 40.5t-72.5 13.5q-37 0 -78.5 -12t-70.5 -33l-18 -13
l-47 -266q-6 -35 -25.5 -50t-59.5 -15h-2q-35 0 -50 10.5t-15 34.5q0 4 2 20l198 1121h-131q-28 0 -40.5 10t-12.5 34q0 15 2 24q7 37 24 52.5t51 15.5h218q28 0 40.5 -10zM664 -167q0 -15 -11 -30l-198 -291q-11 -17 -31 -27t-43 -10q-22 0 -33.5 9t-11.5 26q0 10 4 21
l110 291q6 16 18.5 24t29.5 8h142q24 0 24 -21z" />
    <glyph glyph-name="Lacute" unicode="&#x139;" 
d="M876.5 1177q12.5 -10 12.5 -34q0 -15 -2 -24q-7 -37 -24 -52.5t-51 -15.5h-242l-162 -915h495l58 329q7 35 26.5 50t60.5 15q34 0 49.5 -10.5t15.5 -33.5q0 -13 -2 -21l-70 -397q-6 -37 -23 -52.5t-51 -15.5h-894q-28 0 -41 10.5t-13 34.5q0 7 2 23q7 37 24 52.5t51 15.5
h162l162 915h-162q-28 0 -40.5 10t-12.5 34q0 15 2 24q7 37 24 52.5t51 15.5h554q28 0 40.5 -10zM823 1644q16 0 32.5 -15t35.5 -50q25 -44 25 -72q0 -27 -25 -35l-481 -163q-8 -2 -12 -2q-14 0 -26 9.5t-17 24.5q-4 9 -4 22q0 27 23 40l416 230q19 11 33 11z" />
    <glyph glyph-name="lacute" unicode="&#x13a;" 
d="M943 1744q16 0 32.5 -15t35.5 -50q25 -44 25 -72q0 -27 -25 -35l-481 -163q-8 -2 -12 -2q-14 0 -26 9.5t-17 24.5q-4 9 -4 22q0 27 23 40l416 230q19 11 33 11zM751.5 1302q12.5 -10 12.5 -34q0 -15 -2 -24l-165 -934q-7 -44 -7 -67q0 -62 32.5 -90.5t101.5 -28.5
q57 0 113.5 18.5t118.5 57.5q15 9 30 9q16 0 30 -12t23 -36q8 -20 8 -40q0 -35 -38 -56q-153 -87 -300 -87q-129 0 -199 66.5t-70 184.5q0 40 7 78l153 869h-273q-28 0 -40.5 10t-12.5 34q0 15 2 24q7 37 24 52.5t51 15.5h360q28 0 40.5 -10z" />
    <glyph glyph-name="uni013B" unicode="&#x13b;" 
d="M876.5 1177q12.5 -10 12.5 -34q0 -15 -2 -24q-7 -37 -24 -52.5t-51 -15.5h-242l-162 -915h495l58 329q7 35 26.5 50t60.5 15q34 0 49.5 -10.5t15.5 -33.5q0 -13 -2 -21l-70 -397q-6 -37 -23 -52.5t-51 -15.5h-894q-28 0 -41 10.5t-13 34.5q0 7 2 23q7 37 24 52.5t51 15.5
h162l162 915h-162q-28 0 -40.5 10t-12.5 34q0 15 2 24q7 37 24 52.5t51 15.5h554q28 0 40.5 -10zM654 -167q0 -15 -11 -30l-198 -291q-11 -17 -31 -27t-43 -10q-22 0 -33.5 9t-11.5 26q0 10 4 21l110 291q6 16 18.5 24t29.5 8h142q24 0 24 -21z" />
    <glyph glyph-name="uni013C" unicode="&#x13c;" 
d="M751.5 1302q12.5 -10 12.5 -34q0 -15 -2 -24l-165 -934q-7 -44 -7 -67q0 -62 32.5 -90.5t101.5 -28.5q57 0 113.5 18.5t118.5 57.5q15 9 30 9q16 0 30 -12t23 -36q8 -20 8 -40q0 -35 -38 -56q-153 -87 -300 -87q-129 0 -199 66.5t-70 184.5q0 40 7 78l153 869h-273
q-28 0 -40.5 10t-12.5 34q0 15 2 24q7 37 24 52.5t51 15.5h360q28 0 40.5 -10zM734 -167q0 -15 -11 -30l-198 -291q-11 -17 -31 -27t-43 -10q-22 0 -33.5 9t-11.5 26q0 10 4 21l110 291q6 16 18.5 24t29.5 8h142q24 0 24 -21z" />
    <glyph glyph-name="Lcaron" unicode="&#x13d;" 
d="M876.5 1177q12.5 -10 12.5 -34q0 -15 -2 -24q-7 -37 -24 -52.5t-51 -15.5h-242l-162 -915h495l58 329q7 35 26.5 50t60.5 15q34 0 49.5 -10.5t15.5 -33.5q0 -13 -2 -21l-70 -397q-6 -37 -23 -52.5t-51 -15.5h-894q-28 0 -41 10.5t-13 34.5q0 7 2 23q7 37 24 52.5t51 15.5
h162l162 915h-162q-28 0 -40.5 10t-12.5 34q0 15 2 24q7 37 24 52.5t51 15.5h554q28 0 40.5 -10zM1299.5 1181.5q6.5 -5.5 6.5 -15.5q0 -15 -11 -30l-246 -364q-24 -35 -68 -35q-22 0 -34 9t-12 26q0 10 4 21l141 362q12 32 48 32h153q12 0 18.5 -5.5z" />
    <glyph glyph-name="lcaron" unicode="&#x13e;" 
d="M721.5 1302q12.5 -10 12.5 -34q0 -15 -2 -24l-165 -934q-7 -44 -7 -67q0 -62 32.5 -90.5t101.5 -28.5q57 0 113.5 18.5t118.5 57.5q15 9 30 9q16 0 30 -12t23 -36q8 -20 8 -40q0 -35 -38 -56q-153 -87 -300 -87q-129 0 -199 66.5t-70 184.5q0 40 7 78l153 869h-273
q-28 0 -40.5 10t-12.5 34q0 15 2 24q7 37 24 52.5t51 15.5h360q28 0 40.5 -10zM1251.5 1306.5q6.5 -5.5 6.5 -15.5q0 -15 -11 -30l-246 -364q-24 -35 -68 -35q-22 0 -34 9t-12 26q0 10 4 21l141 362q12 32 48 32h153q12 0 18.5 -5.5z" />
    <glyph glyph-name="Ldot" unicode="&#x13f;" 
d="M876.5 1177q12.5 -10 12.5 -34q0 -15 -2 -24q-7 -37 -24 -52.5t-51 -15.5h-242l-162 -915h495l58 329q7 35 26.5 50t60.5 15q34 0 49.5 -10.5t15.5 -33.5q0 -13 -2 -21l-70 -397q-6 -37 -23 -52.5t-51 -15.5h-894q-28 0 -41 10.5t-13 34.5q0 7 2 23q7 37 24 52.5t51 15.5
h162l162 915h-162q-28 0 -40.5 10t-12.5 34q0 15 2 24q7 37 24 52.5t51 15.5h554q28 0 40.5 -10zM907.5 816q34.5 -35 34.5 -85q0 -44 -23 -81t-61 -59t-80 -22q-53 0 -87.5 35t-34.5 86q0 43 23.5 80t61.5 59t80 22q52 0 86.5 -35z" />
    <glyph glyph-name="ldot" unicode="&#x140;" 
d="M1068.5 826q34.5 -35 34.5 -85q0 -44 -23 -81t-61 -59t-80 -22q-53 0 -87.5 35t-34.5 86q0 43 23.5 80t61.5 59t80 22q52 0 86.5 -35zM721.5 1302q12.5 -10 12.5 -34q0 -15 -2 -24l-165 -934q-7 -44 -7 -67q0 -62 32.5 -90.5t101.5 -28.5q57 0 113.5 18.5t118.5 57.5
q15 9 30 9q16 0 30 -12t23 -36q8 -20 8 -40q0 -35 -38 -56q-153 -87 -300 -87q-129 0 -199 66.5t-70 184.5q0 40 7 78l153 869h-273q-28 0 -40.5 10t-12.5 34q0 15 2 24q7 37 24 52.5t51 15.5h360q28 0 40.5 -10z" />
    <glyph glyph-name="Lslash" unicode="&#x141;" 
d="M876.5 1177q12.5 -10 12.5 -34q0 -15 -2 -24q-7 -37 -24 -52.5t-51 -15.5h-242l-55 -307l164 111q24 16 40 16q26 0 51 -37q18 -27 18 -45q0 -25 -32 -46l-274 -186l-74 -421h495l58 329q7 35 26.5 50t60.5 15q34 0 49.5 -10.5t15.5 -33.5q0 -13 -2 -21l-70 -397
q-7 -37 -23.5 -52.5t-50.5 -15.5h-894q-28 0 -41 10.5t-13 34.5q0 7 2 23q7 37 24 52.5t51 15.5h162l54 305l-125 -85q-24 -16 -40 -16q-26 0 -51 37q-18 27 -18 45q0 25 32 46l235 160l75 423h-162q-28 0 -40.5 10t-12.5 34q0 15 2 24q7 37 24 52.5t51 15.5h554
q28 0 40.5 -10z" />
    <glyph glyph-name="lslash" unicode="&#x142;" 
d="M751.5 1302q12.5 -10 12.5 -34q0 -15 -2 -24l-72 -407l147 100q24 16 40 16q26 0 51 -37q18 -27 18 -45q0 -25 -32 -46l-257 -175l-60 -340q-7 -44 -7 -67q0 -62 32.5 -90.5t101.5 -28.5q57 0 113.5 18.5t118.5 57.5q15 9 30 9q16 0 30 -12t23 -36q8 -20 8 -40
q0 -35 -38 -56q-153 -87 -300 -87q-129 0 -199 66.5t-70 184.5q0 40 7 78l40 227l-142 -96q-24 -16 -40 -16q-26 0 -51 37q-18 27 -18 45q0 25 32 46l252 171l80 455h-273q-28 0 -40.5 10t-12.5 34q0 15 2 24q7 37 24 52.5t51 15.5h360q28 0 40.5 -10z" />
    <glyph glyph-name="Nacute" unicode="&#x143;" 
d="M1274.5 1177q12.5 -10 12.5 -34q0 -15 -2 -24q-7 -37 -24 -52.5t-51 -15.5h-57l-179 -1014q-5 -27 -26 -43t-59 -16q-55 0 -75 55l-353 940h-4l-148 -837h141q28 0 40.5 -10t12.5 -34q0 -15 -2 -24q-6 -37 -23 -52.5t-51 -15.5h-354q-28 0 -41 10.5t-13 34.5q0 7 2 23
q7 37 24 52.5t51 15.5h67l162 915h-77q-28 0 -40.5 10t-12.5 34q0 15 2 24q7 37 24 52.5t51 15.5h224q42 0 52 -28l322 -861h4l133 753h-121q-28 0 -40.5 10t-12.5 34q0 15 2 24q7 37 24 52.5t51 15.5h324q28 0 40.5 -10zM1023 1644q16 0 32.5 -15t35.5 -50q25 -44 25 -72
q0 -27 -25 -35l-481 -163q-8 -2 -12 -2q-14 0 -26 9.5t-17 24.5q-4 9 -4 22q0 27 23 40l416 230q19 11 33 11z" />
    <glyph glyph-name="nacute" unicode="&#x144;" 
d="M983 1374q16 0 32.5 -15t35.5 -50q25 -44 25 -72q0 -27 -25 -35l-481 -163q-8 -2 -12 -2q-14 0 -26 9.5t-17 24.5q-4 9 -4 22q0 27 23 40l416 230q19 11 33 11zM1000 875.5q68 -70.5 68 -189.5q0 -38 -7 -76l-84 -474h82q28 0 40.5 -10t12.5 -34q0 -15 -2 -24
q-6 -37 -23 -52.5t-51 -15.5h-169q-28 0 -41 10t-13 34q0 15 2 24l95 537q5 32 5 54q0 66 -33 102.5t-100 36.5q-84 0 -167.5 -53.5t-143.5 -144.5t-79 -198l-61 -347q-6 -35 -25.5 -50t-59.5 -15h-2q-35 0 -50 10.5t-15 34.5q0 4 2 20l129 733h-102q-28 0 -40.5 10.5
t-12.5 34.5q0 5 2 23q7 37 24 52.5t51 15.5h179q28 0 40.5 -10t12.5 -34q0 -15 -2 -24l-21 -120q84 102 179 156t193 54q119 0 187 -70.5z" />
    <glyph glyph-name="uni0145" unicode="&#x145;" 
d="M1274.5 1177q12.5 -10 12.5 -34q0 -15 -2 -24q-7 -37 -24 -52.5t-51 -15.5h-57l-179 -1014q-5 -27 -26 -43t-59 -16q-55 0 -75 55l-353 940h-4l-148 -837h141q28 0 40.5 -10t12.5 -34q0 -15 -2 -24q-6 -37 -23 -52.5t-51 -15.5h-354q-28 0 -41 10.5t-13 34.5q0 7 2 23
q7 37 24 52.5t51 15.5h67l162 915h-77q-28 0 -40.5 10t-12.5 34q0 15 2 24q7 37 24 52.5t51 15.5h224q42 0 52 -28l322 -861h4l133 753h-121q-28 0 -40.5 10t-12.5 34q0 15 2 24q7 37 24 52.5t51 15.5h324q28 0 40.5 -10zM644 -167q0 -15 -11 -30l-198 -291q-11 -17 -31 -27
t-43 -10q-22 0 -33.5 9t-11.5 26q0 10 4 21l110 291q6 16 18.5 24t29.5 8h142q24 0 24 -21z" />
    <glyph glyph-name="uni0146" unicode="&#x146;" 
d="M1000 875.5q68 -70.5 68 -189.5q0 -38 -7 -76l-84 -474h82q28 0 40.5 -10t12.5 -34q0 -15 -2 -24q-6 -37 -23 -52.5t-51 -15.5h-169q-28 0 -41 10t-13 34q0 15 2 24l95 537q5 32 5 54q0 66 -33 102.5t-100 36.5q-84 0 -167.5 -53.5t-143.5 -144.5t-79 -198l-61 -347
q-6 -35 -25.5 -50t-59.5 -15h-2q-35 0 -50 10.5t-15 34.5q0 4 2 20l129 733h-102q-28 0 -40.5 10.5t-12.5 34.5q0 5 2 23q7 37 24 52.5t51 15.5h179q28 0 40.5 -10t12.5 -34q0 -15 -2 -24l-21 -120q84 102 179 156t193 54q119 0 187 -70.5zM654 -167q0 -15 -11 -30
l-198 -291q-11 -17 -31 -27t-43 -10q-22 0 -33.5 9t-11.5 26q0 10 4 21l110 291q6 16 18.5 24t29.5 8h142q24 0 24 -21z" />
    <glyph glyph-name="Ncaron" unicode="&#x147;" 
d="M1274.5 1177q12.5 -10 12.5 -34q0 -15 -2 -24q-7 -37 -24 -52.5t-51 -15.5h-57l-179 -1014q-5 -27 -26 -43t-59 -16q-55 0 -75 55l-353 940h-4l-148 -837h141q28 0 40.5 -10t12.5 -34q0 -15 -2 -24q-6 -37 -23 -52.5t-51 -15.5h-354q-28 0 -41 10.5t-13 34.5q0 7 2 23
q7 37 24 52.5t51 15.5h67l162 915h-77q-28 0 -40.5 10t-12.5 34q0 15 2 24q7 37 24 52.5t51 15.5h224q42 0 52 -28l322 -861h4l133 753h-121q-28 0 -40.5 10t-12.5 34q0 15 2 24q7 37 24 52.5t51 15.5h324q28 0 40.5 -10zM1105 1639q13 0 24 -7.5t17 -19.5t6 -26
q0 -23 -20 -39l-308 -232q-25 -18 -58 -18q-32 0 -52 18l-246 232q-11 11 -11 29q0 20 11 37q8 12 19 19.5t22 7.5q9 0 18 -6l252 -159l306 159q12 5 20 5z" />
    <glyph glyph-name="ncaron" unicode="&#x148;" 
d="M1055 1389q13 0 24 -7.5t17 -19.5t6 -26q0 -23 -20 -39l-308 -232q-25 -18 -58 -18q-32 0 -52 18l-246 232q-11 11 -11 29q0 20 11 37q8 12 19 19.5t22 7.5q9 0 18 -6l252 -159l306 159q12 5 20 5zM1000 875.5q68 -70.5 68 -189.5q0 -38 -7 -76l-84 -474h82
q28 0 40.5 -10t12.5 -34q0 -15 -2 -24q-6 -37 -23 -52.5t-51 -15.5h-169q-28 0 -41 10t-13 34q0 15 2 24l95 537q5 32 5 54q0 66 -33 102.5t-100 36.5q-84 0 -167.5 -53.5t-143.5 -144.5t-79 -198l-61 -347q-6 -35 -25.5 -50t-59.5 -15h-2q-35 0 -50 10.5t-15 34.5q0 4 2 20
l129 733h-102q-28 0 -40.5 10.5t-12.5 34.5q0 5 2 23q7 37 24 52.5t51 15.5h179q28 0 40.5 -10t12.5 -34q0 -15 -2 -24l-21 -120q84 102 179 156t193 54q119 0 187 -70.5z" />
    <glyph glyph-name="Eng" unicode="&#x14a;" 
d="M1274.5 1177q12.5 -10 12.5 -34q0 -15 -2 -24q-7 -37 -24 -52.5t-51 -15.5h-57l-210 -1186q-24 -135 -102.5 -205t-209.5 -70q-58 0 -115.5 13.5t-106.5 36.5q-33 16 -33 46q0 21 13 48q22 47 60 47q11 0 23 -5q89 -40 170 -40q64 0 102.5 37.5t53.5 119.5l22 124
l-359 956h-4l-148 -837h141q28 0 40.5 -10t12.5 -34q0 -15 -2 -24q-6 -37 -23 -52.5t-51 -15.5h-354q-28 0 -41 10.5t-13 34.5q0 7 2 23q7 37 24 52.5t51 15.5h67l162 915h-77q-28 0 -40.5 10t-12.5 34q0 15 2 24q7 37 24 52.5t51 15.5h224q42 0 52 -28l322 -861h4l133 753
h-121q-28 0 -40.5 10t-12.5 34q0 15 2 24q7 37 24 52.5t51 15.5h324q28 0 40.5 -10z" />
    <glyph glyph-name="eng" unicode="&#x14b;" 
d="M1004 875.5q68 -70.5 68 -189.5q0 -38 -7 -76l-132 -745q-24 -135 -102.5 -205t-209.5 -70q-58 0 -115.5 13.5t-106.5 36.5q-33 16 -33 46q0 21 13 48q22 47 60 47q11 0 23 -5q89 -40 170 -40q64 0 102.5 37.5t53.5 119.5l126 712q5 32 5 54q0 66 -33 102.5t-100 36.5
q-84 0 -167.5 -53.5t-143.5 -144.5t-79 -198l-61 -347q-6 -35 -25.5 -50t-59.5 -15h-2q-35 0 -50 10.5t-15 34.5q0 4 2 20l129 733h-102q-28 0 -40.5 10.5t-12.5 34.5q0 5 2 23q7 37 24 52.5t51 15.5h179q28 0 40.5 -10t12.5 -34q0 -15 -2 -24l-21 -120q84 102 179 156
t193 54q119 0 187 -70.5z" />
    <glyph glyph-name="Omacron" unicode="&#x14c;" 
d="M976.5 1149.5q100.5 -59.5 154.5 -168.5t54 -253q0 -135 -40 -265.5t-116 -236.5q-83 -116 -203.5 -182t-270.5 -66q-134 0 -234.5 59.5t-154.5 168.5t-54 253q0 135 40 265.5t116 236.5q83 116 203.5 182t270.5 66q134 0 234.5 -59.5zM542 1012q-85 -49 -146 -134
q-62 -86 -94.5 -195t-32.5 -218q0 -105 35.5 -181.5t102 -117t159.5 -40.5q104 0 189 49t146 134q62 86 94.5 195t32.5 218q0 105 -35.5 181.5t-102 117t-159.5 40.5q-104 0 -189 -49zM1114.5 1506q12.5 -10 12.5 -34q0 -15 -2 -24q-7 -37 -24 -52.5t-51 -15.5h-562
q-28 0 -40.5 10t-12.5 34q0 15 2 24q7 37 24 52.5t51 15.5h562q28 0 40.5 -10z" />
    <glyph glyph-name="omacron" unicode="&#x14d;" 
d="M910 893.5q96 -52.5 149 -145.5t53 -210q0 -147 -70 -276t-196 -206.5t-286 -77.5q-124 0 -220 52.5t-149 145.5t-53 210q0 147 70 276t196 206.5t286 77.5q124 0 220 -52.5zM479 742q-87 -56 -135.5 -149t-48.5 -199q0 -80 33 -140.5t96.5 -94t151.5 -33.5q108 0 195 56
t135.5 149t48.5 199q0 80 -33 140.5t-96.5 94t-151.5 33.5q-108 0 -195 -56zM1064.5 1236q12.5 -10 12.5 -34q0 -15 -2 -24q-7 -37 -24 -52.5t-51 -15.5h-562q-28 0 -40.5 10t-12.5 34q0 15 2 24q7 37 24 52.5t51 15.5h562q28 0 40.5 -10z" />
    <glyph glyph-name="Obreve" unicode="&#x14e;" 
d="M976.5 1149.5q100.5 -59.5 154.5 -168.5t54 -253q0 -135 -40 -265.5t-116 -236.5q-83 -116 -203.5 -182t-270.5 -66q-134 0 -234.5 59.5t-154.5 168.5t-54 253q0 135 40 265.5t116 236.5q83 116 203.5 182t270.5 66q134 0 234.5 -59.5zM542 1012q-85 -49 -146 -134
q-62 -86 -94.5 -195t-32.5 -218q0 -105 35.5 -181.5t102 -117t159.5 -40.5q104 0 189 49t146 134q62 86 94.5 195t32.5 218q0 105 -35.5 181.5t-102 117t-159.5 40.5q-104 0 -189 -49zM1177 1605q10 -11 10 -24q0 -5 -3 -13q-44 -106 -150.5 -166.5t-258.5 -60.5
q-153 0 -243.5 61t-101.5 166q-1 18 11.5 32.5t31.5 21.5q14 6 27 6q12 0 21.5 -5t13.5 -15q26 -66 86.5 -94.5t164.5 -28.5q105 0 173.5 28.5t113.5 94.5q14 20 45 20q18 0 33 -6q16 -6 26 -17z" />
    <glyph glyph-name="obreve" unicode="&#x14f;" 
d="M1127 1335q10 -11 10 -24q0 -5 -3 -13q-44 -106 -150.5 -166.5t-258.5 -60.5q-153 0 -243.5 61t-101.5 166q-1 18 11.5 32.5t31.5 21.5q14 6 27 6q12 0 21.5 -5t13.5 -15q26 -66 86.5 -94.5t164.5 -28.5q105 0 173.5 28.5t113.5 94.5q14 20 45 20q18 0 33 -6
q16 -6 26 -17zM910 893.5q96 -52.5 149 -145.5t53 -210q0 -147 -70 -276t-196 -206.5t-286 -77.5q-124 0 -220 52.5t-149 145.5t-53 210q0 147 70 276t196 206.5t286 77.5q124 0 220 -52.5zM479 742q-87 -56 -135.5 -149t-48.5 -199q0 -80 33 -140.5t96.5 -94t151.5 -33.5
q108 0 195 56t135.5 149t48.5 199q0 80 -33 140.5t-96.5 94t-151.5 33.5q-108 0 -195 -56z" />
    <glyph glyph-name="Ohungarumlaut" unicode="&#x150;" 
d="M976.5 1149.5q100.5 -59.5 154.5 -168.5t54 -253q0 -135 -40 -265.5t-116 -236.5q-83 -116 -203.5 -182t-270.5 -66q-134 0 -234.5 59.5t-154.5 168.5t-54 253q0 135 40 265.5t116 236.5q83 116 203.5 182t270.5 66q134 0 234.5 -59.5zM542 1012q-85 -49 -146 -134
q-62 -86 -94.5 -195t-32.5 -218q0 -105 35.5 -181.5t102 -117t159.5 -40.5q104 0 189 49t146 134q62 86 94.5 195t32.5 218q0 105 -35.5 181.5t-102 117t-159.5 40.5q-104 0 -189 -49zM894 1574q0 -16 -18 -28l-301 -210q-20 -13 -40 -13q-22 0 -42 13q-22 13 -22 35
q0 15 14 29l241 233q24 22 54 22q29 0 63 -22q51 -33 51 -59zM1274 1574q0 -16 -18 -28l-301 -210q-19 -13 -40 -13q-22 0 -42 13q-22 13 -22 35q0 15 14 29l241 233q24 22 54 22q29 0 63 -22q51 -33 51 -59z" />
    <glyph glyph-name="ohungarumlaut" unicode="&#x151;" 
d="M910 893.5q96 -52.5 149 -145.5t53 -210q0 -147 -70 -276t-196 -206.5t-286 -77.5q-124 0 -220 52.5t-149 145.5t-53 210q0 147 70 276t196 206.5t286 77.5q124 0 220 -52.5zM479 742q-87 -56 -135.5 -149t-48.5 -199q0 -80 33 -140.5t96.5 -94t151.5 -33.5q108 0 195 56
t135.5 149t48.5 199q0 80 -33 140.5t-96.5 94t-151.5 33.5q-108 0 -195 -56zM844 1304q0 -16 -18 -28l-301 -210q-20 -13 -40 -13q-22 0 -42 13q-22 13 -22 35q0 15 14 29l241 233q24 22 54 22q29 0 63 -22q51 -33 51 -59zM1224 1304q0 -16 -18 -28l-301 -210
q-19 -13 -40 -13q-22 0 -42 13q-22 13 -22 35q0 15 14 29l241 233q24 22 54 22q29 0 63 -22q51 -33 51 -59z" />
    <glyph glyph-name="OE" unicode="&#x152;" 
d="M1242.5 1177q12.5 -10 12.5 -34q0 -15 -2 -24l-45 -254q-6 -35 -25.5 -50t-60.5 -15q-35 0 -50.5 10.5t-15.5 34.5q0 6 2 20l33 186h-260l-65 -366h192q28 0 40.5 -10t12.5 -34q0 -15 -2 -24q-7 -37 -24 -52.5t-51 -15.5h-192l-73 -413h272l41 229q6 35 25.5 50t60.5 15
q35 0 50.5 -10.5t15.5 -34.5q0 -6 -2 -20l-53 -297q-6 -37 -23 -52.5t-51 -15.5h-491q-132 0 -229 54.5t-149 157t-52 242.5q0 131 40.5 266.5t121.5 241.5q79 105 193.5 165t263.5 60h499q28 0 40.5 -10zM497.5 999.5q-80.5 -47.5 -136.5 -128.5q-59 -84 -89 -193t-30 -217
q0 -153 73 -236.5t204 -88.5l162 914q-103 -3 -183.5 -50.5z" />
    <glyph glyph-name="oe" unicode="&#x153;" 
d="M1122 868q59 -78 59 -221q0 -67 -12 -145q-5 -33 -22.5 -47.5t-51.5 -14.5h-399q-12 -76 -12 -132q0 -185 120 -185q48 0 91 18.5t93 59.5q20 17 42 17q14 0 27.5 -8t22.5 -23q13 -20 13 -40q0 -34 -37 -63q-65 -53 -131 -79.5t-136 -26.5q-159 0 -216 138
q-100 -138 -255 -138q-124 0 -188 83t-64 238q0 105 29 234t78 220q105 193 295 193q156 0 207 -140q55 71 122.5 105.5t141.5 34.5q124 0 183 -78zM806.5 749q-48.5 -52 -80.5 -169h300q5 42 5 69q0 74 -25 113t-80 39q-71 0 -119.5 -52zM289 656q-28 -67 -48 -174.5
t-20 -187.5q0 -86 28 -127t85 -41q52 0 92 34.5t70 107.5q28 67 48 174.5t20 187.5q0 86 -27.5 127t-84.5 41q-105 0 -163 -142z" />
    <glyph glyph-name="Racute" unicode="&#x154;" 
d="M968 1151.5q79 -35.5 120 -99t41 -146.5q0 -142 -92 -234.5t-241 -122.5q48 -23 78 -76q23 -40 37.5 -79.5t29.5 -94.5q17 -57 29 -91q14 -35 32 -53.5t45 -18.5h28q28 0 40.5 -10t12.5 -34q0 -15 -2 -24q-7 -37 -24 -52.5t-51 -15.5h-62q-60 0 -96 31.5t-61 107.5
q-17 51 -34 112q-16 59 -30 100t-35 79q-23 43 -62 64t-99 21h-137l-67 -379h130q28 0 40.5 -10t12.5 -34q0 -15 -2 -24q-6 -37 -23 -52.5t-51 -15.5h-402q-28 0 -41 10.5t-13 34.5q0 7 2 23q7 37 24 52.5t51 15.5h122l162 915h-122q-28 0 -40.5 10t-12.5 34q0 15 2 24
q7 37 24 52.5t51 15.5h496q111 0 190 -35.5zM459 651h203q179 0 256 89q53 61 53 151q0 77 -59 118.5t-169 41.5h-213zM1003 1644q16 0 32.5 -15t35.5 -50q25 -44 25 -72q0 -27 -25 -35l-481 -163q-8 -2 -12 -2q-14 0 -26 9.5t-17 24.5q-4 9 -4 22q0 27 23 40l416 230
q19 11 33 11z" />
    <glyph glyph-name="racute" unicode="&#x155;" 
d="M1033 1374q16 0 32.5 -15t35.5 -50q25 -44 25 -72q0 -27 -25 -35l-481 -163q-8 -2 -12 -2q-14 0 -26 9.5t-17 24.5q-4 9 -4 22q0 27 23 40l416 230q19 11 33 11zM1135 906q39 -25 39 -63q0 -24 -12 -45q-28 -54 -61 -54q-13 0 -28 9q-40 26 -96 26q-91 0 -194.5 -66
t-182 -174.5t-99.5 -228.5l-31 -174h337q28 0 40.5 -10t12.5 -34q0 -15 -2 -24q-6 -37 -23 -52.5t-51 -15.5h-644q-28 0 -41 10.5t-13 34.5q0 7 2 23q7 37 24 52.5t51 15.5h157l115 652h-127q-28 0 -40.5 10.5t-12.5 34.5q0 5 2 23q7 37 24 52.5t51 15.5h204q28 0 40.5 -10
t12.5 -34q0 -15 -2 -24l-35 -202q98 135 218 213.5t229 78.5q75 0 136 -40z" />
    <glyph glyph-name="uni0156" unicode="&#x156;" 
d="M968 1151.5q79 -35.5 120 -99t41 -146.5q0 -142 -92 -234.5t-241 -122.5q48 -23 78 -76q23 -40 37.5 -79.5t29.5 -94.5q17 -57 29 -91q14 -35 32 -53.5t45 -18.5h28q28 0 40.5 -10t12.5 -34q0 -15 -2 -24q-7 -37 -24 -52.5t-51 -15.5h-62q-60 0 -96 31.5t-61 107.5
q-17 51 -34 112q-16 59 -30 100t-35 79q-23 43 -62 64t-99 21h-137l-67 -379h130q28 0 40.5 -10t12.5 -34q0 -15 -2 -24q-6 -37 -23 -52.5t-51 -15.5h-402q-28 0 -41 10.5t-13 34.5q0 7 2 23q7 37 24 52.5t51 15.5h122l162 915h-122q-28 0 -40.5 10t-12.5 34q0 15 2 24
q7 37 24 52.5t51 15.5h496q111 0 190 -35.5zM459 651h203q179 0 256 89q53 61 53 151q0 77 -59 118.5t-169 41.5h-213zM674 -167q0 -15 -11 -30l-198 -291q-11 -17 -31 -27t-43 -10q-22 0 -33.5 9t-11.5 26q0 10 4 21l110 291q6 16 18.5 24t29.5 8h142q24 0 24 -21z" />
    <glyph glyph-name="uni0157" unicode="&#x157;" 
d="M1135 906q39 -25 39 -63q0 -24 -12 -45q-28 -54 -61 -54q-13 0 -28 9q-40 26 -96 26q-91 0 -194.5 -66t-182 -174.5t-99.5 -228.5l-31 -174h337q28 0 40.5 -10t12.5 -34q0 -15 -2 -24q-6 -37 -23 -52.5t-51 -15.5h-644q-28 0 -41 10.5t-13 34.5q0 7 2 23q7 37 24 52.5
t51 15.5h157l115 652h-127q-28 0 -40.5 10.5t-12.5 34.5q0 5 2 23q7 37 24 52.5t51 15.5h204q28 0 40.5 -10t12.5 -34q0 -15 -2 -24l-35 -202q98 135 218 213.5t229 78.5q75 0 136 -40zM544 -167q0 -15 -11 -30l-198 -291q-11 -17 -31 -27t-43 -10q-22 0 -33.5 9t-11.5 26
q0 10 4 21l110 291q6 16 18.5 24t29.5 8h142q24 0 24 -21z" />
    <glyph glyph-name="Rcaron" unicode="&#x158;" 
d="M968 1151.5q79 -35.5 120 -99t41 -146.5q0 -142 -92 -234.5t-241 -122.5q48 -23 78 -76q23 -40 37.5 -79.5t29.5 -94.5q17 -57 29 -91q14 -35 32 -53.5t45 -18.5h28q28 0 40.5 -10t12.5 -34q0 -15 -2 -24q-7 -37 -24 -52.5t-51 -15.5h-62q-60 0 -96 31.5t-61 107.5
q-17 51 -34 112q-16 59 -30 100t-35 79q-23 43 -62 64t-99 21h-137l-67 -379h130q28 0 40.5 -10t12.5 -34q0 -15 -2 -24q-6 -37 -23 -52.5t-51 -15.5h-402q-28 0 -41 10.5t-13 34.5q0 7 2 23q7 37 24 52.5t51 15.5h122l162 915h-122q-28 0 -40.5 10t-12.5 34q0 15 2 24
q7 37 24 52.5t51 15.5h496q111 0 190 -35.5zM459 651h203q179 0 256 89q53 61 53 151q0 77 -59 118.5t-169 41.5h-213zM1085 1639q13 0 24 -7.5t17 -19.5t6 -26q0 -23 -20 -39l-308 -232q-25 -18 -58 -18q-32 0 -52 18l-246 232q-11 11 -11 29q0 20 11 37q8 12 19 19.5
t22 7.5q9 0 18 -6l252 -159l306 159q12 5 20 5z" />
    <glyph glyph-name="rcaron" unicode="&#x159;" 
d="M1085 1389q13 0 24 -7.5t17 -19.5t6 -26q0 -23 -20 -39l-308 -232q-25 -18 -58 -18q-32 0 -52 18l-246 232q-11 11 -11 29q0 20 11 37q8 12 19 19.5t22 7.5q9 0 18 -6l252 -159l306 159q12 5 20 5zM1135 906q39 -25 39 -63q0 -24 -12 -45q-28 -54 -61 -54q-13 0 -28 9
q-40 26 -96 26q-91 0 -194.5 -66t-182 -174.5t-99.5 -228.5l-31 -174h337q28 0 40.5 -10t12.5 -34q0 -15 -2 -24q-6 -37 -23 -52.5t-51 -15.5h-644q-28 0 -41 10.5t-13 34.5q0 7 2 23q7 37 24 52.5t51 15.5h157l115 652h-127q-28 0 -40.5 10.5t-12.5 34.5q0 5 2 23
q7 37 24 52.5t51 15.5h204q28 0 40.5 -10t12.5 -34q0 -15 -2 -24l-35 -202q98 135 218 213.5t229 78.5q75 0 136 -40z" />
    <glyph glyph-name="Sacute" unicode="&#x15a;" 
d="M1136 1198.5q15 -10.5 15 -34.5q0 -4 -2 -20l-40 -230q-6 -35 -25.5 -50t-61.5 -15q-37 0 -47 26q-33 91 -111 138.5t-189 47.5q-88 0 -148 -32t-89.5 -80.5t-29.5 -99.5q0 -39 25.5 -64.5t73.5 -44.5q46 -18 158 -41q90 -20 147.5 -36t106.5 -43q66 -36 102 -90.5
t36 -137.5q0 -102 -47.5 -196.5t-156 -156t-278.5 -61.5q-101 0 -182.5 38.5t-132.5 109.5l-15 -83q-6 -35 -25.5 -50t-60.5 -15q-35 0 -50.5 10.5t-15.5 34.5q0 6 2 20l53 300q6 35 25.5 50t60.5 15q44 0 51 -42q20 -116 99 -178t210 -62q97 0 165.5 32t103 86t34.5 117
q0 46 -24 77t-68 54q-36 18 -82 31t-117 28q-76 17 -122 29t-87 31q-71 32 -110 82t-39 128q0 93 47.5 182t148 147.5t250.5 58.5q89 0 167 -36t126 -95l12 66q6 35 25.5 50t61.5 15q35 0 50 -10.5zM1003 1644q16 0 32.5 -15t35.5 -50q25 -44 25 -72q0 -27 -25 -35
l-481 -163q-8 -2 -12 -2q-14 0 -26 9.5t-17 24.5q-4 9 -4 22q0 27 23 40l416 230q19 11 33 11z" />
    <glyph glyph-name="sacute" unicode="&#x15b;" 
d="M973 1374q16 0 32.5 -15t35.5 -50q25 -44 25 -72q0 -27 -25 -35l-481 -163q-8 -2 -12 -2q-14 0 -26 9.5t-17 24.5q-4 9 -4 22q0 27 23 40l416 230q19 11 33 11zM1075.5 935.5q15.5 -10.5 15.5 -34.5q0 -6 -2 -20l-34 -190q-6 -35 -25.5 -50t-60.5 -15q-35 0 -44 26
q-28 82 -104 115.5t-202 33.5q-75 0 -127 -20.5t-77.5 -54t-25.5 -71.5q0 -33 28 -52t81 -30q58 -13 152 -22q74 -9 123 -17.5t97 -23.5q161 -53 161 -190q0 -77 -41.5 -155.5t-140.5 -132.5t-261 -54q-108 0 -184.5 30t-127.5 91l-10 -56q-6 -35 -25.5 -50t-60.5 -15
q-35 0 -50.5 10.5t-15.5 34.5q0 6 2 20l42 240q6 35 25.5 50t61.5 15q21 0 31.5 -9.5t15.5 -31.5q20 -96 95.5 -140t215.5 -44q98 0 158 27.5t85 66.5t25 76q0 35 -28 56t-80 33q-51 12 -159 24q-80 10 -126 17.5t-93 23.5q-74 25 -115 68t-41 114q0 85 45.5 157.5t137 116
t222.5 43.5q97 0 173 -29t124 -81l8 45q6 35 25.5 50t60.5 15q35 0 50.5 -10.5z" />
    <glyph glyph-name="Scircumflex" unicode="&#x15c;" 
d="M1136 1198.5q15 -10.5 15 -34.5q0 -4 -2 -20l-40 -230q-6 -35 -25.5 -50t-61.5 -15q-37 0 -47 26q-33 91 -111 138.5t-189 47.5q-88 0 -148 -32t-89.5 -80.5t-29.5 -99.5q0 -39 25.5 -64.5t73.5 -44.5q46 -18 158 -41q90 -20 147.5 -36t106.5 -43q66 -36 102 -90.5
t36 -137.5q0 -102 -47.5 -196.5t-156 -156t-278.5 -61.5q-101 0 -182.5 38.5t-132.5 109.5l-15 -83q-6 -35 -25.5 -50t-60.5 -15q-35 0 -50.5 10.5t-15.5 34.5q0 6 2 20l53 300q6 35 25.5 50t60.5 15q44 0 51 -42q20 -116 99 -178t210 -62q97 0 165.5 32t103 86t34.5 117
q0 46 -24 77t-68 54q-36 18 -82 31t-117 28q-76 17 -122 29t-87 31q-71 32 -110 82t-39 128q0 93 47.5 182t148 147.5t250.5 58.5q89 0 167 -36t126 -95l12 66q6 35 25.5 50t61.5 15q35 0 50 -10.5zM848 1628l246 -232q11 -11 11 -29q0 -20 -11 -37q-8 -12 -19 -19.5
t-22 -7.5q-9 0 -18 6l-252 159l-306 -159q-12 -5 -20 -5q-13 0 -24 7.5t-17 19.5t-6 26q0 23 20 39l308 232q26 18 58 18q33 0 52 -18z" />
    <glyph glyph-name="scircumflex" unicode="&#x15d;" 
d="M798 1358l246 -232q11 -11 11 -29q0 -20 -11 -37q-8 -12 -19 -19.5t-22 -7.5q-9 0 -18 6l-252 159l-306 -159q-12 -5 -20 -5q-13 0 -24 7.5t-17 19.5t-6 26q0 23 20 39l308 232q26 18 58 18q33 0 52 -18zM1075.5 935.5q15.5 -10.5 15.5 -34.5q0 -6 -2 -20l-34 -190
q-6 -35 -25.5 -50t-60.5 -15q-35 0 -44 26q-28 82 -104 115.5t-202 33.5q-75 0 -127 -20.5t-77.5 -54t-25.5 -71.5q0 -33 28 -52t81 -30q58 -13 152 -22q74 -9 123 -17.5t97 -23.5q161 -53 161 -190q0 -77 -41.5 -155.5t-140.5 -132.5t-261 -54q-108 0 -184.5 30t-127.5 91
l-10 -56q-6 -35 -25.5 -50t-60.5 -15q-35 0 -50.5 10.5t-15.5 34.5q0 6 2 20l42 240q6 35 25.5 50t61.5 15q21 0 31.5 -9.5t15.5 -31.5q20 -96 95.5 -140t215.5 -44q98 0 158 27.5t85 66.5t25 76q0 35 -28 56t-80 33q-51 12 -159 24q-80 10 -126 17.5t-93 23.5
q-74 25 -115 68t-41 114q0 85 45.5 157.5t137 116t222.5 43.5q97 0 173 -29t124 -81l8 45q6 35 25.5 50t60.5 15q35 0 50.5 -10.5z" />
    <glyph glyph-name="Scedilla" unicode="&#x15e;" 
d="M1136 1198.5q15 -10.5 15 -34.5q0 -4 -2 -20l-40 -230q-6 -35 -25.5 -50t-61.5 -15q-37 0 -47 26q-33 91 -111 138.5t-189 47.5q-88 0 -148 -32t-89.5 -80.5t-29.5 -99.5q0 -39 25.5 -64.5t73.5 -44.5q46 -18 158 -41q90 -20 147.5 -36t106.5 -43q66 -36 102 -90.5
t36 -137.5q0 -97 -43.5 -188t-141.5 -154t-253 -71l-16 -92q87 1 132.5 -39.5t45.5 -105.5q0 -34 -14 -73.5t-40 -66.5q-69 -74 -220 -74q-68 0 -130 12t-108 36q-17 8 -17 32q0 21 10 38q9 17 21.5 27.5t26.5 10.5q7 0 11 -2q38 -15 88 -24.5t99 -9.5q58 0 87 22.5t29 58.5
q0 55 -103 55l-35 -1q-29 0 -29 28q0 9 1 14l28 161q-72 14 -129.5 49.5t-96.5 90.5l-15 -83q-6 -35 -25.5 -50t-60.5 -15q-35 0 -50.5 10.5t-15.5 34.5q0 6 2 20l53 300q6 35 25.5 50t60.5 15q44 0 51 -42q20 -116 99 -178t210 -62q97 0 165.5 32t103 86t34.5 117
q0 46 -24 77t-68 54q-36 18 -82 31t-117 28q-76 17 -122 29t-87 31q-71 32 -110 82t-39 128q0 93 47.5 182t148 147.5t250.5 58.5q89 0 167 -36t126 -95l12 66q6 35 25.5 50t61.5 15q35 0 50 -10.5z" />
    <glyph glyph-name="scedilla" unicode="&#x15f;" 
d="M1075.5 935.5q15.5 -10.5 15.5 -34.5q0 -6 -2 -20l-34 -190q-6 -35 -25.5 -50t-60.5 -15q-35 0 -44 26q-28 82 -104 115.5t-202 33.5q-75 0 -127 -20.5t-77.5 -54t-25.5 -71.5q0 -33 28 -52t81 -30q58 -13 152 -22q74 -9 123 -17.5t97 -23.5q161 -53 161 -190
q0 -74 -38 -149t-128 -130t-236 -62l-16 -92q87 1 132.5 -39.5t45.5 -105.5q0 -34 -14 -73.5t-40 -66.5q-69 -74 -220 -74q-68 0 -130 12t-108 36q-17 8 -17 32q0 21 10 38q9 17 21.5 27.5t26.5 10.5q7 0 11 -2q38 -15 88 -24.5t99 -9.5q58 0 87 22.5t29 58.5q0 55 -103 55
l-35 -1q-29 0 -29 28q0 9 1 14l27 159q-140 20 -219 115l-10 -56q-6 -35 -25.5 -50t-60.5 -15q-35 0 -50.5 10.5t-15.5 34.5q0 6 2 20l42 240q6 35 25.5 50t61.5 15q21 0 31.5 -9.5t15.5 -31.5q20 -96 95.5 -140t215.5 -44q98 0 158 27.5t85 66.5t25 76q0 35 -28 56t-80 33
q-51 12 -159 24q-80 10 -126 17.5t-93 23.5q-74 25 -115 68t-41 114q0 85 45.5 157.5t137 116t222.5 43.5q97 0 173 -29t124 -81l8 45q6 35 25.5 50t60.5 15q35 0 50.5 -10.5z" />
    <glyph glyph-name="Scaron" unicode="&#x160;" 
d="M1136 1198.5q15 -10.5 15 -34.5q0 -4 -2 -20l-40 -230q-6 -35 -25.5 -50t-61.5 -15q-37 0 -47 26q-33 91 -111 138.5t-189 47.5q-88 0 -148 -32t-89.5 -80.5t-29.5 -99.5q0 -39 25.5 -64.5t73.5 -44.5q46 -18 158 -41q90 -20 147.5 -36t106.5 -43q66 -36 102 -90.5
t36 -137.5q0 -102 -47.5 -196.5t-156 -156t-278.5 -61.5q-101 0 -182.5 38.5t-132.5 109.5l-15 -83q-6 -35 -25.5 -50t-60.5 -15q-35 0 -50.5 10.5t-15.5 34.5q0 6 2 20l53 300q6 35 25.5 50t60.5 15q44 0 51 -42q20 -116 99 -178t210 -62q97 0 165.5 32t103 86t34.5 117
q0 46 -24 77t-68 54q-36 18 -82 31t-117 28q-76 17 -122 29t-87 31q-71 32 -110 82t-39 128q0 93 47.5 182t148 147.5t250.5 58.5q89 0 167 -36t126 -95l12 66q6 35 25.5 50t61.5 15q35 0 50 -10.5zM1085 1649q13 0 24 -7.5t17 -19.5t6 -26q0 -23 -20 -39l-308 -232
q-25 -18 -58 -18q-32 0 -52 18l-246 232q-11 11 -11 29q0 20 11 37q8 12 19 19.5t22 7.5q9 0 18 -6l252 -159l306 159q12 5 20 5z" />
    <glyph glyph-name="scaron" unicode="&#x161;" 
d="M1045 1389q13 0 24 -7.5t17 -19.5t6 -26q0 -23 -20 -39l-308 -232q-25 -18 -58 -18q-32 0 -52 18l-246 232q-11 11 -11 29q0 20 11 37q8 12 19 19.5t22 7.5q9 0 18 -6l252 -159l306 159q12 5 20 5zM1075.5 935.5q15.5 -10.5 15.5 -34.5q0 -6 -2 -20l-34 -190
q-6 -35 -25.5 -50t-60.5 -15q-35 0 -44 26q-28 82 -104 115.5t-202 33.5q-75 0 -127 -20.5t-77.5 -54t-25.5 -71.5q0 -33 28 -52t81 -30q58 -13 152 -22q74 -9 123 -17.5t97 -23.5q161 -53 161 -190q0 -77 -41.5 -155.5t-140.5 -132.5t-261 -54q-108 0 -184.5 30t-127.5 91
l-10 -56q-6 -35 -25.5 -50t-60.5 -15q-35 0 -50.5 10.5t-15.5 34.5q0 6 2 20l42 240q6 35 25.5 50t61.5 15q21 0 31.5 -9.5t15.5 -31.5q20 -96 95.5 -140t215.5 -44q98 0 158 27.5t85 66.5t25 76q0 35 -28 56t-80 33q-51 12 -159 24q-80 10 -126 17.5t-93 23.5
q-74 25 -115 68t-41 114q0 85 45.5 157.5t137 116t222.5 43.5q97 0 173 -29t124 -81l8 45q6 35 25.5 50t60.5 15q35 0 50.5 -10.5z" />
    <glyph glyph-name="uni0162" unicode="&#x162;" 
d="M1222.5 1177q12.5 -10 12.5 -34q0 -15 -2 -24l-67 -377q-6 -35 -25.5 -50t-60.5 -15q-35 0 -50.5 10.5t-15.5 34.5q0 6 2 20l55 309h-267l-162 -915h246q28 0 40.5 -10t12.5 -34q0 -15 -2 -24q-6 -37 -23 -52.5t-51 -15.5h-252l-20 -113q87 1 132.5 -39.5t45.5 -105.5
q0 -34 -14 -73.5t-40 -66.5q-69 -74 -220 -74q-68 0 -130 12t-108 36q-17 8 -17 32q0 21 10 38q9 17 21.5 27.5t26.5 10.5q7 0 11 -2q38 -15 88 -24.5t99 -9.5q58 0 87 22.5t29 58.5q0 55 -103 55l-35 -1q-29 0 -29 28q0 9 1 14l30 175h-235q-28 0 -41 10.5t-13 34.5
q0 7 2 23q7 37 24 52.5t51 15.5h226l162 915h-267l-55 -309q-6 -35 -25.5 -50t-60.5 -15q-35 0 -50.5 10.5t-15.5 34.5q0 6 2 20l67 377q7 37 24 52.5t51 15.5h858q28 0 40.5 -10z" />
    <glyph glyph-name="uni0163" unicode="&#x163;" 
d="M523 344q-9 -46 -9 -83q0 -70 34.5 -103.5t112.5 -33.5q66 0 144.5 27.5t156.5 73.5q15 9 30 9q16 0 30 -12t23 -36q8 -20 8 -40q0 -35 -38 -56q-88 -50 -186 -81t-183 -31h-6l-16 -91q87 1 132.5 -39.5t45.5 -105.5q0 -34 -14 -73.5t-40 -66.5q-69 -74 -220 -74
q-68 0 -130 12t-108 36q-17 8 -17 32q0 21 10 38q9 17 21.5 27.5t26.5 10.5q7 0 11 -2q38 -15 88 -24.5t99 -9.5q58 0 87 22.5t29 58.5q0 55 -103 55l-35 -1q-29 0 -29 28q0 9 1 14l30 174q-73 27 -109.5 87.5t-36.5 150.5q0 42 10 104l64 367h-203q-28 0 -40.5 10.5
t-12.5 34.5q0 5 2 23q7 37 24 52.5t51 15.5h203l53 300q6 35 25.5 50t61.5 15q35 0 50 -10.5t15 -34.5q0 -4 -2 -20l-53 -300h411q28 0 40.5 -10t12.5 -34q0 -15 -2 -24q-6 -37 -23.5 -52.5t-51.5 -15.5h-411z" />
    <glyph glyph-name="Tcaron" unicode="&#x164;" 
d="M1222.5 1177q12.5 -10 12.5 -34q0 -15 -2 -24l-67 -377q-6 -35 -25.5 -50t-60.5 -15q-35 0 -50.5 10.5t-15.5 34.5q0 6 2 20l55 309h-267l-162 -915h246q28 0 40.5 -10t12.5 -34q0 -15 -2 -24q-6 -37 -23 -52.5t-51 -15.5h-622q-28 0 -41 10.5t-13 34.5q0 7 2 23
q7 37 24 52.5t51 15.5h226l162 915h-267l-55 -309q-6 -35 -25.5 -50t-60.5 -15q-35 0 -50.5 10.5t-15.5 34.5q0 6 2 20l67 377q7 37 24 52.5t51 15.5h858q28 0 40.5 -10zM1105 1639q13 0 24 -7.5t17 -19.5t6 -26q0 -23 -20 -39l-308 -232q-25 -18 -58 -18q-32 0 -52 18
l-246 232q-11 11 -11 29q0 20 11 37q8 12 19 19.5t22 7.5q9 0 18 -6l252 -159l306 159q12 5 20 5z" />
    <glyph glyph-name="tcaron" unicode="&#x165;" 
d="M651 1198.5q15 -10.5 15 -34.5q0 -4 -2 -20l-53 -300h411q28 0 40.5 -10t12.5 -34q0 -15 -2 -24q-6 -37 -23.5 -52.5t-51.5 -15.5h-411l-64 -364q-9 -46 -9 -83q0 -70 34.5 -103.5t112.5 -33.5q66 0 144.5 27.5t156.5 73.5q15 9 30 9q16 0 30 -12t23 -36q8 -20 8 -40
q0 -35 -38 -56q-88 -50 -186 -81t-183 -31q-143 0 -213 66.5t-70 192.5q0 42 10 104l64 367h-203q-28 0 -40.5 10.5t-12.5 34.5q0 5 2 23q7 37 24 52.5t51 15.5h203l53 300q6 35 25.5 50t61.5 15q35 0 50 -10.5zM1182 1379q0 -15 -11 -30l-198 -291q-11 -17 -31 -27t-43 -10
q-22 0 -33.5 9t-11.5 26q0 10 4 21l110 291q6 16 18.5 24t29.5 8h142q24 0 24 -21z" />
    <glyph glyph-name="Tbar" unicode="&#x166;" 
d="M1222.5 1177q12.5 -10 12.5 -34q0 -15 -2 -24l-67 -377q-6 -35 -25.5 -50t-60.5 -15q-35 0 -50.5 10.5t-15.5 34.5q0 6 2 20l55 309h-267l-83 -465h207q28 0 40.5 -10t12.5 -34q0 -15 -2 -24q-7 -37 -24 -52.5t-51 -15.5h-207l-55 -314h246q28 0 40.5 -10t12.5 -34
q0 -15 -2 -24q-6 -37 -23 -52.5t-51 -15.5h-622q-28 0 -41 10.5t-13 34.5q0 7 2 23q7 37 24 52.5t51 15.5h226l55 314h-205q-28 0 -40.5 10t-12.5 34q0 15 2 24q7 37 24 52.5t51 15.5h205l83 465h-267l-55 -309q-6 -35 -25.5 -50t-60.5 -15q-35 0 -50.5 10.5t-15.5 34.5
q0 6 2 20l67 377q7 37 24 52.5t51 15.5h858q28 0 40.5 -10z" />
    <glyph glyph-name="tbar" unicode="&#x167;" 
d="M587 708l-23 -132h272q28 0 40.5 -10t12.5 -34q0 -15 -2 -24q-7 -37 -24 -52.5t-51 -15.5h-272l-17 -96q-9 -46 -9 -83q0 -70 34.5 -103.5t112.5 -33.5q66 0 144.5 27.5t156.5 73.5q15 9 30 9q16 0 30 -12t23 -36q8 -20 8 -40q0 -35 -38 -56q-88 -50 -186 -81t-183 -31
q-143 0 -213 66.5t-70 192.5q0 42 10 104l17 99h-140q-28 0 -40.5 10t-12.5 34q0 15 2 24q7 37 24 52.5t51 15.5h140l23 132h-203q-28 0 -40.5 10.5t-12.5 34.5q0 5 2 23q7 37 24 52.5t51 15.5h203l53 300q6 35 25.5 50t61.5 15q35 0 50 -10.5t15 -34.5q0 -4 -2 -20
l-53 -300h411q28 0 40.5 -10t12.5 -34q0 -15 -2 -24q-6 -37 -23.5 -52.5t-51.5 -15.5h-411z" />
    <glyph glyph-name="Utilde" unicode="&#x168;" 
d="M1274.5 1177q12.5 -10 12.5 -34q0 -15 -2 -24q-7 -37 -24 -52.5t-51 -15.5h-62l-118 -668q-37 -209 -156 -307t-319 -98q-173 0 -271 81.5t-98 239.5q0 42 10 104l114 648h-62q-28 0 -40.5 10t-12.5 34q0 15 2 24q7 37 24 52.5t51 15.5h324q28 0 40.5 -10t12.5 -34
q0 -15 -2 -24q-7 -37 -24 -52.5t-51 -15.5h-112l-113 -638q-9 -51 -9 -92q0 -103 56 -149t172 -46q139 0 215.5 67t103.5 220l113 638h-112q-28 0 -40.5 10t-12.5 34q0 15 2 24q7 37 24 52.5t51 15.5h324q28 0 40.5 -10zM716.5 1549q29.5 -8 77.5 -25q45 -16 72 -23t56 -7
q65 0 135 42q11 6 20 6q23 0 42 -31q11 -18 11 -37q0 -24 -17 -37q-109 -91 -200 -91q-34 0 -63.5 8t-77.5 25q-45 16 -72 23t-56 7q-64 0 -135 -42q-10 -6 -20 -6q-23 0 -42 31q-11 18 -11 37q0 24 17 37q109 91 200 91q34 0 63.5 -8z" />
    <glyph glyph-name="utilde" unicode="&#x169;" 
d="M636.5 1289q29.5 -8 77.5 -25q45 -16 72 -23t56 -7q65 0 135 42q11 6 20 6q23 0 42 -31q11 -18 11 -37q0 -24 -17 -37q-109 -91 -200 -91q-34 0 -63.5 8t-77.5 25q-45 16 -72 23t-56 7q-64 0 -135 -42q-10 -6 -20 -6q-23 0 -42 31q-11 18 -11 37q0 24 17 37
q109 91 200 91q34 0 63.5 -8zM1070.5 914q12.5 -10 12.5 -34q0 -15 -2 -24l-127 -720h82q28 0 40.5 -10t12.5 -34q0 -15 -2 -24q-6 -37 -23 -52.5t-51 -15.5h-160q-28 0 -40.5 10t-12.5 34q0 15 2 24l21 120q-84 -102 -179 -156t-193 -54q-119 0 -187 70.5t-68 189.5
q0 40 7 76l84 474h-82q-28 0 -40.5 10.5t-12.5 34.5q0 5 2 23q7 37 24 52.5t51 15.5h169q28 0 40.5 -10t12.5 -34q0 -15 -2 -24l-95 -537q-5 -32 -5 -54q0 -66 33 -102.5t100 -36.5q84 0 167.5 53.5t143.5 144.5t79 198l47 266h-142q-28 0 -40.5 10.5t-12.5 34.5q0 5 2 23
q7 37 24 52.5t51 15.5h229q28 0 40.5 -10z" />
    <glyph glyph-name="Umacron" unicode="&#x16a;" 
d="M1274.5 1177q12.5 -10 12.5 -34q0 -15 -2 -24q-7 -37 -24 -52.5t-51 -15.5h-62l-118 -668q-37 -209 -156 -307t-319 -98q-173 0 -271 81.5t-98 239.5q0 42 10 104l114 648h-62q-28 0 -40.5 10t-12.5 34q0 15 2 24q7 37 24 52.5t51 15.5h324q28 0 40.5 -10t12.5 -34
q0 -15 -2 -24q-7 -37 -24 -52.5t-51 -15.5h-112l-113 -638q-9 -51 -9 -92q0 -103 56 -149t172 -46q139 0 215.5 67t103.5 220l113 638h-112q-28 0 -40.5 10t-12.5 34q0 15 2 24q7 37 24 52.5t51 15.5h324q28 0 40.5 -10zM1114.5 1506q12.5 -10 12.5 -34q0 -15 -2 -24
q-7 -37 -24 -52.5t-51 -15.5h-562q-28 0 -40.5 10t-12.5 34q0 15 2 24q7 37 24 52.5t51 15.5h562q28 0 40.5 -10z" />
    <glyph glyph-name="umacron" unicode="&#x16b;" 
d="M1070.5 914q12.5 -10 12.5 -34q0 -15 -2 -24l-127 -720h82q28 0 40.5 -10t12.5 -34q0 -15 -2 -24q-6 -37 -23 -52.5t-51 -15.5h-160q-28 0 -40.5 10t-12.5 34q0 15 2 24l21 120q-84 -102 -179 -156t-193 -54q-119 0 -187 70.5t-68 189.5q0 40 7 76l84 474h-82
q-28 0 -40.5 10.5t-12.5 34.5q0 5 2 23q7 37 24 52.5t51 15.5h169q28 0 40.5 -10t12.5 -34q0 -15 -2 -24l-95 -537q-5 -32 -5 -54q0 -66 33 -102.5t100 -36.5q84 0 167.5 53.5t143.5 144.5t79 198l47 266h-142q-28 0 -40.5 10.5t-12.5 34.5q0 5 2 23q7 37 24 52.5t51 15.5
h229q28 0 40.5 -10zM1064.5 1236q12.5 -10 12.5 -34q0 -15 -2 -24q-7 -37 -24 -52.5t-51 -15.5h-562q-28 0 -40.5 10t-12.5 34q0 15 2 24q7 37 24 52.5t51 15.5h562q28 0 40.5 -10z" />
    <glyph glyph-name="Ubreve" unicode="&#x16c;" 
d="M1274.5 1177q12.5 -10 12.5 -34q0 -15 -2 -24q-7 -37 -24 -52.5t-51 -15.5h-62l-118 -668q-37 -209 -156 -307t-319 -98q-173 0 -271 81.5t-98 239.5q0 42 10 104l114 648h-62q-28 0 -40.5 10t-12.5 34q0 15 2 24q7 37 24 52.5t51 15.5h324q28 0 40.5 -10t12.5 -34
q0 -15 -2 -24q-7 -37 -24 -52.5t-51 -15.5h-112l-113 -638q-9 -51 -9 -92q0 -103 56 -149t172 -46q139 0 215.5 67t103.5 220l113 638h-112q-28 0 -40.5 10t-12.5 34q0 15 2 24q7 37 24 52.5t51 15.5h324q28 0 40.5 -10zM1167 1605q10 -11 10 -24q0 -5 -3 -13
q-44 -106 -150.5 -166.5t-258.5 -60.5q-153 0 -243.5 61t-101.5 166q-1 18 11.5 32.5t31.5 21.5q14 6 27 6q12 0 21.5 -5t13.5 -15q26 -66 86.5 -94.5t164.5 -28.5q105 0 173.5 28.5t113.5 94.5q14 20 45 20q18 0 33 -6q16 -6 26 -17z" />
    <glyph glyph-name="ubreve" unicode="&#x16d;" 
d="M1097 1335q10 -11 10 -24q0 -5 -3 -13q-44 -106 -150.5 -166.5t-258.5 -60.5q-153 0 -243.5 61t-101.5 166q-1 18 11.5 32.5t31.5 21.5q14 6 27 6q12 0 21.5 -5t13.5 -15q26 -66 86.5 -94.5t164.5 -28.5q105 0 173.5 28.5t113.5 94.5q14 20 45 20q18 0 33 -6
q16 -6 26 -17zM1070.5 914q12.5 -10 12.5 -34q0 -15 -2 -24l-127 -720h82q28 0 40.5 -10t12.5 -34q0 -15 -2 -24q-6 -37 -23 -52.5t-51 -15.5h-160q-28 0 -40.5 10t-12.5 34q0 15 2 24l21 120q-84 -102 -179 -156t-193 -54q-119 0 -187 70.5t-68 189.5q0 40 7 76l84 474h-82
q-28 0 -40.5 10.5t-12.5 34.5q0 5 2 23q7 37 24 52.5t51 15.5h169q28 0 40.5 -10t12.5 -34q0 -15 -2 -24l-95 -537q-5 -32 -5 -54q0 -66 33 -102.5t100 -36.5q84 0 167.5 53.5t143.5 144.5t79 198l47 266h-142q-28 0 -40.5 10.5t-12.5 34.5q0 5 2 23q7 37 24 52.5t51 15.5
h229q28 0 40.5 -10z" />
    <glyph glyph-name="Uring" unicode="&#x16e;" 
d="M1274.5 1177q12.5 -10 12.5 -34q0 -15 -2 -24q-7 -37 -24 -52.5t-51 -15.5h-62l-118 -668q-37 -209 -156 -307t-319 -98q-173 0 -271 81.5t-98 239.5q0 42 10 104l114 648h-62q-28 0 -40.5 10t-12.5 34q0 15 2 24q7 37 24 52.5t51 15.5h324q28 0 40.5 -10t12.5 -34
q0 -15 -2 -24q-7 -37 -24 -52.5t-51 -15.5h-112l-113 -638q-9 -51 -9 -92q0 -103 56 -149t172 -46q139 0 215.5 67t103.5 220l113 638h-112q-28 0 -40.5 10t-12.5 34q0 15 2 24q7 37 24 52.5t51 15.5h324q28 0 40.5 -10zM940 1768q49 -29 77 -78.5t28 -107.5q0 -69 -36 -133
t-100 -104t-145 -40q-60 0 -109 29t-77 78.5t-28 107.5q0 67 36 131.5t100 105t145 40.5q60 0 109 -29zM747 1656.5q-35 -20.5 -56 -55t-21 -73.5q0 -45 29.5 -74t75.5 -29q38 0 73 20.5t56.5 54.5t21.5 73q0 45 -30 74.5t-76 29.5q-38 0 -73 -20.5z" />
    <glyph glyph-name="uring" unicode="&#x16f;" 
d="M1070.5 914q12.5 -10 12.5 -34q0 -15 -2 -24l-127 -720h82q28 0 40.5 -10t12.5 -34q0 -15 -2 -24q-6 -37 -23 -52.5t-51 -15.5h-160q-28 0 -40.5 10t-12.5 34q0 15 2 24l21 120q-84 -102 -179 -156t-193 -54q-119 0 -187 70.5t-68 189.5q0 40 7 76l84 474h-82
q-28 0 -40.5 10.5t-12.5 34.5q0 5 2 23q7 37 24 52.5t51 15.5h169q28 0 40.5 -10t12.5 -34q0 -15 -2 -24l-95 -537q-5 -32 -5 -54q0 -66 33 -102.5t100 -36.5q84 0 167.5 53.5t143.5 144.5t79 198l47 266h-142q-28 0 -40.5 10.5t-12.5 34.5q0 5 2 23q7 37 24 52.5t51 15.5
h229q28 0 40.5 -10zM870 1528q49 -29 77 -78.5t28 -107.5q0 -69 -36 -133t-100 -104t-145 -40q-60 0 -109 29t-77 78.5t-28 107.5q0 67 36 131.5t100 105t145 40.5q60 0 109 -29zM677 1416.5q-35 -20.5 -56 -55t-21 -73.5q0 -45 29.5 -74t75.5 -29q38 0 73 20.5t56.5 54.5
t21.5 73q0 45 -30 74.5t-76 29.5q-38 0 -73 -20.5z" />
    <glyph glyph-name="Uhungarumlaut" unicode="&#x170;" 
d="M1274.5 1177q12.5 -10 12.5 -34q0 -15 -2 -24q-7 -37 -24 -52.5t-51 -15.5h-62l-118 -668q-37 -209 -156 -307t-319 -98q-173 0 -271 81.5t-98 239.5q0 42 10 104l114 648h-62q-28 0 -40.5 10t-12.5 34q0 15 2 24q7 37 24 52.5t51 15.5h324q28 0 40.5 -10t12.5 -34
q0 -15 -2 -24q-7 -37 -24 -52.5t-51 -15.5h-112l-113 -638q-9 -51 -9 -92q0 -103 56 -149t172 -46q139 0 215.5 67t103.5 220l113 638h-112q-28 0 -40.5 10t-12.5 34q0 15 2 24q7 37 24 52.5t51 15.5h324q28 0 40.5 -10zM884 1574q0 -16 -18 -28l-301 -210q-20 -13 -40 -13
q-22 0 -42 13q-22 13 -22 35q0 15 14 29l241 233q24 22 54 22q29 0 63 -22q51 -33 51 -59zM1264 1574q0 -16 -18 -28l-301 -210q-19 -13 -40 -13q-22 0 -42 13q-22 13 -22 35q0 15 14 29l241 233q24 22 54 22q29 0 63 -22q51 -33 51 -59z" />
    <glyph glyph-name="uhungarumlaut" unicode="&#x171;" 
d="M1070.5 914q12.5 -10 12.5 -34q0 -15 -2 -24l-127 -720h82q28 0 40.5 -10t12.5 -34q0 -15 -2 -24q-6 -37 -23 -52.5t-51 -15.5h-160q-28 0 -40.5 10t-12.5 34q0 15 2 24l21 120q-84 -102 -179 -156t-193 -54q-119 0 -187 70.5t-68 189.5q0 40 7 76l84 474h-82
q-28 0 -40.5 10.5t-12.5 34.5q0 5 2 23q7 37 24 52.5t51 15.5h169q28 0 40.5 -10t12.5 -34q0 -15 -2 -24l-95 -537q-5 -32 -5 -54q0 -66 33 -102.5t100 -36.5q84 0 167.5 53.5t143.5 144.5t79 198l47 266h-142q-28 0 -40.5 10.5t-12.5 34.5q0 5 2 23q7 37 24 52.5t51 15.5
h229q28 0 40.5 -10zM784 1304q0 -16 -18 -28l-301 -210q-20 -13 -40 -13q-22 0 -42 13q-22 13 -22 35q0 15 14 29l241 233q24 22 54 22q29 0 63 -22q51 -33 51 -59zM1164 1304q0 -16 -18 -28l-301 -210q-19 -13 -40 -13q-22 0 -42 13q-22 13 -22 35q0 15 14 29l241 233
q24 22 54 22q29 0 63 -22q51 -33 51 -59z" />
    <glyph glyph-name="Uogonek" unicode="&#x172;" 
d="M1274.5 1177q12.5 -10 12.5 -34q0 -15 -2 -24q-7 -37 -24 -52.5t-51 -15.5h-62l-118 -668q-25 -143 -88.5 -233t-164.5 -133q-122 -94 -180 -166t-58 -128q0 -29 17 -44t48 -15q51 0 111 10l8 1q40 0 40 -66q0 -20 -9 -32.5t-28 -19.5q-38 -13 -85 -21t-94 -8
q-79 0 -123.5 44.5t-44.5 117.5q0 74 44.5 144.5t132.5 143.5h-1q-173 0 -271 81.5t-98 239.5q0 42 10 104l114 648h-62q-28 0 -40.5 10t-12.5 34q0 15 2 24q7 37 24 52.5t51 15.5h324q28 0 40.5 -10t12.5 -34q0 -15 -2 -24q-7 -37 -24 -52.5t-51 -15.5h-112l-113 -638
q-9 -51 -9 -92q0 -103 56 -149t172 -46q139 0 215.5 67t103.5 220l113 638h-112q-28 0 -40.5 10t-12.5 34q0 15 2 24q7 37 24 52.5t51 15.5h324q28 0 40.5 -10z" />
    <glyph glyph-name="uogonek" unicode="&#x173;" 
d="M1076.5 126q12.5 -10 12.5 -34q0 -15 -2 -24q-6 -37 -23 -52.5t-51 -15.5h-6q-111 -88 -163.5 -156t-52.5 -121q0 -29 17 -44t48 -15q51 0 111 10l8 1q40 0 40 -66q0 -20 -9 -32.5t-28 -19.5q-38 -13 -85 -21t-94 -8q-79 0 -123.5 44.5t-44.5 117.5q0 80 52 156t154 155
q-20 2 -29 12.5t-9 29.5q0 12 3 25l21 120q-84 -102 -179 -156t-193 -54q-119 0 -187 70.5t-68 189.5q0 40 7 76l84 474h-82q-28 0 -40.5 10.5t-12.5 34.5q0 5 2 23q7 37 24 52.5t51 15.5h169q28 0 40.5 -10t12.5 -34q0 -15 -2 -24l-95 -537q-5 -32 -5 -54q0 -66 33 -102.5
t100 -36.5q84 0 167.5 53.5t143.5 144.5t79 198l47 266h-142q-28 0 -40.5 10.5t-12.5 34.5q0 5 2 23q7 37 24 52.5t51 15.5h229q28 0 40.5 -10t12.5 -34q0 -15 -2 -24l-127 -720h82q28 0 40.5 -10z" />
    <glyph glyph-name="Wcircumflex" unicode="&#x174;" 
d="M1354.5 1177q12.5 -10 12.5 -34q0 -15 -2 -24q-7 -37 -24 -52.5t-51 -15.5h-50l-316 -1008q-12 -36 -35 -50.5t-62 -14.5q-83 0 -91 65l-82 581l-290 -581q-32 -65 -115 -65q-39 0 -56.5 15t-16.5 50l45 1008h-53q-28 0 -40.5 10t-12.5 34q0 15 2 24q7 37 24 52.5
t51 15.5h344q28 0 40.5 -10t12.5 -34q0 -15 -2 -24q-7 -37 -24 -52.5t-51 -15.5h-146l-41 -797l289 584q24 47 81 47q32 0 47 -10t18 -30l84 -598l246 804h-124q-28 0 -40.5 10t-12.5 34q0 15 2 24q7 37 24 52.5t51 15.5h324q28 0 40.5 -10zM858 1628l246 -232
q11 -11 11 -29q0 -20 -11 -37q-8 -12 -19 -19.5t-22 -7.5q-9 0 -18 6l-252 159l-306 -159q-12 -5 -20 -5q-13 0 -24 7.5t-17 19.5t-6 26q0 23 20 39l308 232q26 18 58 18q33 0 52 -18z" />
    <glyph glyph-name="wcircumflex" unicode="&#x175;" 
d="M808 1358l246 -232q11 -11 11 -29q0 -20 -11 -37q-8 -12 -19 -19.5t-22 -7.5q-9 0 -18 6l-252 159l-306 -159q-12 -5 -20 -5q-13 0 -24 7.5t-17 19.5t-6 26q0 23 20 39l308 232q26 18 58 18q33 0 52 -18zM1307.5 914q12.5 -10 12.5 -34q0 -15 -2 -24q-6 -37 -23.5 -52.5
t-51.5 -15.5h-21l-328 -745q-16 -36 -38 -50.5t-60 -14.5q-43 0 -65 15.5t-28 49.5l-76 434l-232 -434q-18 -34 -46 -49.5t-71 -15.5q-38 0 -54.5 14.5t-19.5 50.5l-62 745h-21q-28 0 -40.5 10.5t-12.5 34.5q0 5 2 23q7 37 24 52.5t51 15.5h294q28 0 40.5 -10t12.5 -34
q0 -15 -2 -24q-6 -37 -23.5 -52.5t-51.5 -15.5h-126l42 -582l249 464q25 47 84 47q33 0 49.5 -10t20.5 -30l83 -471l250 582h-98q-28 0 -40.5 10.5t-12.5 34.5q0 5 2 23q7 37 24 52.5t51 15.5h274q28 0 40.5 -10z" />
    <glyph glyph-name="Ycircumflex" unicode="&#x176;" 
d="M1284.5 1177q12.5 -10 12.5 -34q0 -15 -2 -24q-7 -37 -24 -52.5t-51 -15.5h-64l-452 -565l-62 -350h236q28 0 40.5 -10t12.5 -34q0 -15 -2 -24q-6 -37 -23 -52.5t-51 -15.5h-602q-28 0 -41 10.5t-13 34.5q0 7 2 23q7 37 24 52.5t51 15.5h216l64 363l-244 552h-74
q-28 0 -40.5 10t-12.5 34q0 15 2 24q7 37 24 52.5t51 15.5h334q28 0 40.5 -10t12.5 -34q0 -15 -2 -24q-7 -37 -24 -52.5t-51 -15.5h-97l178 -409l324 409h-61q-28 0 -40.5 10t-12.5 34q0 15 2 24q7 37 24 52.5t51 15.5h304q28 0 40.5 -10zM868 1628l246 -232q11 -11 11 -29
q0 -20 -11 -37q-8 -12 -19 -19.5t-22 -7.5q-9 0 -18 6l-252 159l-306 -159q-12 -5 -20 -5q-13 0 -24 7.5t-17 19.5t-6 26q0 23 20 39l308 232q26 18 58 18q33 0 52 -18z" />
    <glyph glyph-name="ycircumflex" unicode="&#x177;" 
d="M1247.5 914q12.5 -10 12.5 -34q0 -15 -2 -24q-6 -37 -23.5 -52.5t-51.5 -15.5h-59l-556 -838q-90 -136 -163.5 -211t-154.5 -110t-193 -39q-71 -2 -71 67q0 42 16.5 62t45.5 22q96 5 158 33t122.5 95t155.5 209l-237 710h-66q-28 0 -40.5 10.5t-12.5 34.5q0 5 2 23
q7 37 24 52.5t51 15.5h354q28 0 40.5 -10t12.5 -34q0 -15 -2 -24q-6 -37 -23.5 -52.5t-51.5 -15.5h-132l183 -562l368 562h-85q-28 0 -40.5 10.5t-12.5 34.5q0 5 2 23q7 37 24 52.5t51 15.5h314q28 0 40.5 -10zM823 1358l246 -232q11 -11 11 -29q0 -20 -11 -37
q-8 -12 -19 -19.5t-22 -7.5q-9 0 -18 6l-252 159l-306 -159q-12 -5 -20 -5q-13 0 -24 7.5t-17 19.5t-6 26q0 23 20 39l308 232q26 18 58 18q33 0 52 -18z" />
    <glyph glyph-name="Ydieresis" unicode="&#x178;" 
d="M1284.5 1177q12.5 -10 12.5 -34q0 -15 -2 -24q-7 -37 -24 -52.5t-51 -15.5h-64l-452 -565l-62 -350h236q28 0 40.5 -10t12.5 -34q0 -15 -2 -24q-6 -37 -23 -52.5t-51 -15.5h-602q-28 0 -41 10.5t-13 34.5q0 7 2 23q7 37 24 52.5t51 15.5h216l64 363l-244 552h-74
q-28 0 -40.5 10t-12.5 34q0 15 2 24q7 37 24 52.5t51 15.5h334q28 0 40.5 -10t12.5 -34q0 -15 -2 -24q-7 -37 -24 -52.5t-51 -15.5h-97l178 -409l324 409h-61q-28 0 -40.5 10t-12.5 34q0 15 2 24q7 37 24 52.5t51 15.5h304q28 0 40.5 -10zM658 1559q30 -31 30 -76
q0 -39 -20.5 -72t-53.5 -52t-70 -19q-47 0 -77.5 31t-30.5 77q0 37 20.5 70t54 52.5t70.5 19.5q47 0 77 -31zM1098 1559q30 -31 30 -76q0 -39 -20.5 -72t-53.5 -52t-70 -19q-47 0 -77.5 31t-30.5 77q0 37 20.5 70t54 52.5t70.5 19.5q47 0 77 -31z" />
    <glyph glyph-name="Zacute" unicode="&#x179;" 
d="M1156.5 1177q12.5 -10 12.5 -34q0 -15 -2 -24q-5 -25 -17 -39l-800 -944h522l48 269q6 35 25.5 50t60.5 15q35 0 50.5 -10.5t15.5 -34.5q0 -6 -2 -20l-60 -337q-6 -37 -23 -52.5t-51 -15.5h-766q-28 0 -41 10.5t-13 34.5q0 7 2 23q5 23 22 43l795 940h-492l-44 -249
q-6 -35 -25.5 -50t-61.5 -15q-35 0 -50 10.5t-15 34.5q0 4 2 20l56 317q7 37 24 52.5t51 15.5h736q28 0 40.5 -10zM1013 1644q16 0 32.5 -15t35.5 -50q25 -44 25 -72q0 -27 -25 -35l-481 -163q-8 -2 -12 -2q-14 0 -26 9.5t-17 24.5q-4 9 -4 22q0 27 23 40l416 230
q19 11 33 11z" />
    <glyph glyph-name="zacute" unicode="&#x17a;" 
d="M973 1374q16 0 32.5 -15t35.5 -50q25 -44 25 -72q0 -27 -25 -35l-481 -163q-8 -2 -12 -2q-14 0 -26 9.5t-17 24.5q-4 9 -4 22q0 27 23 40l416 230q19 11 33 11zM1099.5 914q12.5 -10 12.5 -34q0 -15 -2 -24q-4 -29 -23 -46l-700 -674h476l31 172q6 35 25.5 50t60.5 15
q35 0 50.5 -10.5t15.5 -34.5q0 -6 -2 -20l-43 -240q-7 -37 -23.5 -52.5t-50.5 -15.5h-746q-28 0 -41 10.5t-13 34.5q0 7 2 23q5 29 22 45l701 675h-446l-26 -149q-6 -35 -25.5 -50t-60.5 -15q-35 0 -50.5 10.5t-15.5 34.5q0 6 2 20l38 217q7 37 24 52.5t51 15.5h716
q28 0 40.5 -10z" />
    <glyph glyph-name="Zdotaccent" unicode="&#x17b;" 
d="M1156.5 1177q12.5 -10 12.5 -34q0 -15 -2 -24q-5 -25 -17 -39l-800 -944h522l48 269q6 35 25.5 50t60.5 15q35 0 50.5 -10.5t15.5 -34.5q0 -6 -2 -20l-60 -337q-6 -37 -23 -52.5t-51 -15.5h-766q-28 0 -41 10.5t-13 34.5q0 7 2 23q5 23 22 43l795 940h-492l-44 -249
q-6 -35 -25.5 -50t-61.5 -15q-35 0 -50 10.5t-15 34.5q0 4 2 20l56 317q7 37 24 52.5t51 15.5h736q28 0 40.5 -10zM896.5 1596q34.5 -35 34.5 -85q0 -44 -23 -81t-61 -59t-80 -22q-53 0 -87.5 35t-34.5 86q0 43 23.5 80t61.5 59t80 22q52 0 86.5 -35z" />
    <glyph glyph-name="zdotaccent" unicode="&#x17c;" 
d="M1099.5 914q12.5 -10 12.5 -34q0 -15 -2 -24q-4 -29 -23 -46l-700 -674h476l31 172q6 35 25.5 50t60.5 15q35 0 50.5 -10.5t15.5 -34.5q0 -6 -2 -20l-43 -240q-7 -37 -23.5 -52.5t-50.5 -15.5h-746q-28 0 -41 10.5t-13 34.5q0 7 2 23q5 29 22 45l701 675h-446l-26 -149
q-6 -35 -25.5 -50t-60.5 -15q-35 0 -50.5 10.5t-15.5 34.5q0 6 2 20l38 217q7 37 24 52.5t51 15.5h716q28 0 40.5 -10zM853.5 1326q34.5 -35 34.5 -85q0 -44 -23 -81t-61 -59t-80 -22q-53 0 -87.5 35t-34.5 86q0 43 23.5 80t61.5 59t80 22q52 0 86.5 -35z" />
    <glyph glyph-name="Zcaron" unicode="&#x17d;" 
d="M1156.5 1177q12.5 -10 12.5 -34q0 -15 -2 -24q-5 -25 -17 -39l-800 -944h522l48 269q6 35 25.5 50t60.5 15q35 0 50.5 -10.5t15.5 -34.5q0 -6 -2 -20l-60 -337q-6 -37 -23 -52.5t-51 -15.5h-766q-28 0 -41 10.5t-13 34.5q0 7 2 23q5 23 22 43l795 940h-492l-44 -249
q-6 -35 -25.5 -50t-61.5 -15q-35 0 -50 10.5t-15 34.5q0 4 2 20l56 317q7 37 24 52.5t51 15.5h736q28 0 40.5 -10zM1105 1639q13 0 24 -7.5t17 -19.5t6 -26q0 -23 -20 -39l-308 -232q-25 -18 -58 -18q-32 0 -52 18l-246 232q-11 11 -11 29q0 20 11 37q8 12 19 19.5t22 7.5
q9 0 18 -6l252 -159l306 159q12 5 20 5z" />
    <glyph glyph-name="zcaron" unicode="&#x17e;" 
d="M1099.5 914q12.5 -10 12.5 -34q0 -15 -2 -24q-4 -29 -23 -46l-700 -674h476l31 172q6 35 25.5 50t60.5 15q35 0 50.5 -10.5t15.5 -34.5q0 -6 -2 -20l-43 -240q-7 -37 -23.5 -52.5t-50.5 -15.5h-746q-28 0 -41 10.5t-13 34.5q0 7 2 23q5 29 22 45l701 675h-446l-26 -149
q-6 -35 -25.5 -50t-60.5 -15q-35 0 -50.5 10.5t-15.5 34.5q0 6 2 20l38 217q7 37 24 52.5t51 15.5h716q28 0 40.5 -10zM1045 1379q13 0 24 -7.5t17 -19.5t6 -26q0 -23 -20 -39l-308 -232q-25 -18 -58 -18q-32 0 -52 18l-246 232q-11 11 -11 29q0 20 11 37q8 12 19 19.5
t22 7.5q9 0 18 -6l252 -159l306 159q12 5 20 5z" />
    <glyph glyph-name="florin" unicode="&#x192;" 
d="M1275.5 1268.5q9.5 -11.5 9.5 -30.5t-8 -40q-21 -60 -58 -60q-7 0 -21 4q-87 29 -177 29q-153 0 -204 -187l-39 -140h234q28 0 40.5 -10t12.5 -34q0 -15 -2 -24q-6 -37 -23.5 -52.5t-51.5 -15.5h-247l-188 -677q-86 -310 -368 -310q-113 0 -205 31q-37 13 -37 49
q0 18 7 39q20 60 58 60q7 0 21 -4q87 -29 177 -29q153 0 204 187l181 654h-197q-28 0 -40.5 10.5t-12.5 34.5q0 5 2 23q7 37 24 52.5t51 15.5h211l45 163q86 310 368 310q113 0 205 -31q19 -6 28.5 -17.5z" />
    <glyph glyph-name="uni0218" unicode="&#x218;" 
d="M1136 1198.5q15 -10.5 15 -34.5q0 -4 -2 -20l-40 -230q-6 -35 -25.5 -50t-61.5 -15q-37 0 -47 26q-33 91 -111 138.5t-189 47.5q-88 0 -148 -32t-89.5 -80.5t-29.5 -99.5q0 -39 25.5 -64.5t73.5 -44.5q46 -18 158 -41q90 -20 147.5 -36t106.5 -43q66 -36 102 -90.5
t36 -137.5q0 -102 -47.5 -196.5t-156 -156t-278.5 -61.5q-101 0 -182.5 38.5t-132.5 109.5l-15 -83q-6 -35 -25.5 -50t-60.5 -15q-35 0 -50.5 10.5t-15.5 34.5q0 6 2 20l53 300q6 35 25.5 50t60.5 15q44 0 51 -42q20 -116 99 -178t210 -62q97 0 165.5 32t103 86t34.5 117
q0 46 -24 77t-68 54q-36 18 -82 31t-117 28q-76 17 -122 29t-87 31q-71 32 -110 82t-39 128q0 93 47.5 182t148 147.5t250.5 58.5q89 0 167 -36t126 -95l12 66q6 35 25.5 50t61.5 15q35 0 50 -10.5zM654 -167q0 -15 -11 -30l-198 -291q-11 -17 -31 -27t-43 -10
q-22 0 -33.5 9t-11.5 26q0 10 4 21l110 291q6 16 18.5 24t29.5 8h142q24 0 24 -21z" />
    <glyph glyph-name="uni0219" unicode="&#x219;" 
d="M1075.5 935.5q15.5 -10.5 15.5 -34.5q0 -6 -2 -20l-34 -190q-6 -35 -25.5 -50t-60.5 -15q-35 0 -44 26q-28 82 -104 115.5t-202 33.5q-75 0 -127 -20.5t-77.5 -54t-25.5 -71.5q0 -33 28 -52t81 -30q58 -13 152 -22q74 -9 123 -17.5t97 -23.5q161 -53 161 -190
q0 -77 -41.5 -155.5t-140.5 -132.5t-261 -54q-108 0 -184.5 30t-127.5 91l-10 -56q-6 -35 -25.5 -50t-60.5 -15q-35 0 -50.5 10.5t-15.5 34.5q0 6 2 20l42 240q6 35 25.5 50t61.5 15q21 0 31.5 -9.5t15.5 -31.5q20 -96 95.5 -140t215.5 -44q98 0 158 27.5t85 66.5t25 76
q0 35 -28 56t-80 33q-51 12 -159 24q-80 10 -126 17.5t-93 23.5q-74 25 -115 68t-41 114q0 85 45.5 157.5t137 116t222.5 43.5q97 0 173 -29t124 -81l8 45q6 35 25.5 50t60.5 15q35 0 50.5 -10.5zM664 -167q0 -15 -11 -30l-198 -291q-11 -17 -31 -27t-43 -10q-22 0 -33.5 9
t-11.5 26q0 10 4 21l110 291q6 16 18.5 24t29.5 8h142q24 0 24 -21z" />
    <glyph glyph-name="uni021A" unicode="&#x21a;" 
d="M1222.5 1177q12.5 -10 12.5 -34q0 -15 -2 -24l-67 -377q-6 -35 -25.5 -50t-60.5 -15q-35 0 -50.5 10.5t-15.5 34.5q0 6 2 20l55 309h-267l-162 -915h246q28 0 40.5 -10t12.5 -34q0 -15 -2 -24q-6 -37 -23 -52.5t-51 -15.5h-622q-28 0 -41 10.5t-13 34.5q0 7 2 23
q7 37 24 52.5t51 15.5h226l162 915h-267l-55 -309q-6 -35 -25.5 -50t-60.5 -15q-35 0 -50.5 10.5t-15.5 34.5q0 6 2 20l67 377q7 37 24 52.5t51 15.5h858q28 0 40.5 -10zM634 -167q0 -15 -11 -30l-198 -291q-11 -17 -31 -27t-43 -10q-22 0 -33.5 9t-11.5 26q0 10 4 21
l110 291q6 16 18.5 24t29.5 8h142q24 0 24 -21z" />
    <glyph glyph-name="uni021B" unicode="&#x21b;" 
d="M651 1198.5q15 -10.5 15 -34.5q0 -4 -2 -20l-53 -300h411q28 0 40.5 -10t12.5 -34q0 -15 -2 -24q-6 -37 -23.5 -52.5t-51.5 -15.5h-411l-64 -364q-9 -46 -9 -83q0 -70 34.5 -103.5t112.5 -33.5q66 0 144.5 27.5t156.5 73.5q15 9 30 9q16 0 30 -12t23 -36q8 -20 8 -40
q0 -35 -38 -56q-88 -50 -186 -81t-183 -31q-143 0 -213 66.5t-70 192.5q0 42 10 104l64 367h-203q-28 0 -40.5 10.5t-12.5 34.5q0 5 2 23q7 37 24 52.5t51 15.5h203l53 300q6 35 25.5 50t61.5 15q35 0 50 -10.5zM714 -167q0 -15 -11 -30l-198 -291q-11 -17 -31 -27t-43 -10
q-22 0 -33.5 9t-11.5 26q0 10 4 21l110 291q6 16 18.5 24t29.5 8h142q24 0 24 -21z" />
    <glyph glyph-name="uni0237" unicode="&#x237;" 
d="M972.5 914q12.5 -10 12.5 -34q0 -15 -2 -24l-160 -913q-31 -177 -121 -265t-259 -88q-83 0 -172.5 31.5t-159.5 81.5q-28 20 -28 47q0 21 17 51q26 44 58 44q18 0 33 -12q62 -44 131.5 -70.5t136.5 -26.5q98 0 147 53t69 167l146 832h-423q-28 0 -40.5 10.5t-12.5 34.5
q0 5 2 23q7 37 24 52.5t51 15.5h510q28 0 40.5 -10z" />
    <glyph glyph-name="circumflex" unicode="&#x2c6;" 
d="M828 1358l246 -232q11 -11 11 -29q0 -20 -11 -37q-8 -12 -19 -19.5t-22 -7.5q-9 0 -18 6l-252 159l-306 -159q-12 -5 -20 -5q-13 0 -24 7.5t-17 19.5t-6 26q0 23 20 39l308 232q26 18 58 18q33 0 52 -18z" />
    <glyph glyph-name="caron" unicode="&#x2c7;" 
d="M1075 1379q13 0 24 -7.5t17 -19.5t6 -26q0 -23 -20 -39l-308 -232q-25 -18 -58 -18q-32 0 -52 18l-246 232q-11 11 -11 29q0 20 11 37q8 12 19 19.5t22 7.5q9 0 18 -6l252 -159l306 159q12 5 20 5z" />
    <glyph glyph-name="breve" unicode="&#x2d8;" 
d="M1147 1335q10 -11 10 -24q0 -5 -3 -13q-44 -106 -150.5 -166.5t-258.5 -60.5q-153 0 -243.5 61t-101.5 166q-1 18 11.5 32.5t31.5 21.5q14 6 27 6q12 0 21.5 -5t13.5 -15q26 -66 86.5 -94.5t164.5 -28.5q105 0 173.5 28.5t113.5 94.5q14 20 45 20q18 0 33 -6
q16 -6 26 -17z" />
    <glyph glyph-name="dotaccent" unicode="&#x2d9;" 
d="M866.5 1326q34.5 -35 34.5 -85q0 -44 -23 -81t-61 -59t-80 -22q-53 0 -87.5 35t-34.5 86q0 43 23.5 80t61.5 59t80 22q52 0 86.5 -35z" />
    <glyph glyph-name="ring" unicode="&#x2da;" 
d="M920 1528q49 -29 77 -78.5t28 -107.5q0 -69 -36 -133t-100 -104t-145 -40q-60 0 -109 29t-77 78.5t-28 107.5q0 67 36 131.5t100 105t145 40.5q60 0 109 -29zM727 1416.5q-35 -20.5 -56 -55t-21 -73.5q0 -45 29.5 -74t75.5 -29q38 0 73 20.5t56.5 54.5t21.5 73
q0 45 -30 74.5t-76 29.5q-38 0 -73 -20.5z" />
    <glyph glyph-name="ogonek" unicode="&#x2db;" 
d="M510 -145q-61 -74 -61 -132q0 -29 17 -44t48 -15q51 0 111 10l8 1q40 0 40 -66q0 -20 -9 -32.5t-28 -19.5q-38 -13 -85 -21t-94 -8q-79 0 -123.5 44.5t-44.5 117.5q0 87 61 169t181 169h170q-130 -99 -191 -173z" />
    <glyph glyph-name="tilde" unicode="&#x2dc;" 
d="M686.5 1289q29.5 -8 77.5 -25q45 -16 72 -23t56 -7q65 0 135 42q11 6 20 6q23 0 42 -31q11 -18 11 -37q0 -24 -17 -37q-109 -91 -200 -91q-34 0 -63.5 8t-77.5 25q-45 16 -72 23t-56 7q-64 0 -135 -42q-10 -6 -20 -6q-23 0 -42 31q-11 18 -11 37q0 24 17 37
q109 91 200 91q34 0 63.5 -8z" />
    <glyph glyph-name="hungarumlaut" unicode="&#x2dd;" 
d="M864 1304q0 -16 -18 -28l-301 -210q-20 -13 -40 -13q-22 0 -42 13q-22 13 -22 35q0 15 14 29l241 233q24 22 54 22q29 0 63 -22q51 -33 51 -59zM1244 1304q0 -16 -18 -28l-301 -210q-19 -13 -40 -13q-22 0 -42 13q-22 13 -22 35q0 15 14 29l241 233q24 22 54 22
q29 0 63 -22q51 -33 51 -59z" />
    <glyph glyph-name="uni0326" unicode="&#x326;" horiz-adv-x="0" 
d="M-594 -167q0 -15 -11 -30l-198 -291q-11 -17 -31 -27t-43 -10q-22 0 -33.5 9t-11.5 26q0 10 4 21l110 291q6 16 18.5 24t29.5 8h142q24 0 24 -21z" />
    </font>
</defs>
</svg>
