<?xml version="1.0" standalone="no"?>
<!DOCTYPE svg PUBLIC "-//W3C//DTD SVG 1.1//EN" "http://www.w3.org/Graphics/SVG/1.1/DTD/svg11.dtd" >
<svg xmlns="http://www.w3.org/2000/svg" xmlns:xlink="http://www.w3.org/1999/xlink" version="1.1">
<metadata>
Created by FontForge 20170731 at Thu Nov 17 03:46:19 2011
 By Aleksey,,,
Copyright (c) John Hudson, Tiro Typeworks, 2003 &#38; 2009. All rights reserved. This font software may not be reproduced, modified, disclosed or transferred, other than in accordance with the accompanying license agreement, without the express written approval of the copyright holder.

Hebrew OpenType Layout logic copyright (c) 2003 &#38; 2007, Ralph Hancock &#38; John Hudson. This layout logic for Biblical Hebrew is open source software under the MIT License; see accompanying license agreement for details or contact copyright holders at &#60;license@tiro.com&#62;.
</metadata>
<defs>
<font id="SBLBibLit" horiz-adv-x="0" >
  <font-face 
    font-family="SBL BibLit"
    font-weight="400"
    font-stretch="normal"
    units-per-em="2048"
    panose-1="2 0 0 0 0 0 0 0 0 0"
    ascent="1528"
    descent="-520"
    x-height="919"
    cap-height="1388"
    bbox="-1841 -943 2826.5 2170"
    underline-thickness="102"
    underline-position="-307"
    unicode-range="U+000D-1D537"
  />
<missing-glyph horiz-adv-x="909" 
d="M387 230v131h111v-131h-111zM393 460l-3 34q0 107 25.5 158.5t90.5 115.5q63 63 80.5 94.5t17.5 69.5q0 71 -44.5 119.5t-104.5 48.5q-62 0 -106.5 -44t-55.5 -143l-98 16q13 140 85.5 205t179.5 65q104 0 174.5 -71.5t70.5 -187.5q0 -62 -25 -114.5t-99 -121.5
q-73 -65 -85.5 -102.5t-12.5 -141.5h-90zM860 98v1215h-811v-1215h811zM958 1412v-1412h-1007v1412h1007z" />
    <glyph glyph-name="f_f" unicode="ff" horiz-adv-x="1224" 
d="M966 901h255q6 -45 0 -88h-254v-593q0 -56 5 -87t23 -46.5t53.5 -20t97.5 -7.5q5 -29 0 -60q-64 0 -129 2t-140 2q-66 0 -120 -2t-112 -2q-5 28 0 59q49 3 78 8t44 19t19.5 41t4.5 74v613h-404v-593q0 -56 4 -87t18 -46.5t42 -20t76 -7.5q4 -29 0 -60q-55 0 -110.5 2
t-119.5 2q-66 0 -120 -2t-112 -2q-4 28 0 59q49 3 78 8t44 19t19.5 41t4.5 74v613h-161q-5 27 0 51q60 12 92.5 20.5t47.5 17.5q15 11 18 22q3 12 6 63q10 237 135.5 367.5t325.5 130.5q184 0 244 -113q118 129 304 129q98 0 164 -42t66 -110q0 -43 -26.5 -70.5t-67.5 -27.5
q-57 0 -96.5 45.5t-39.5 109.5q-26 11 -66 11q-99 0 -145 -85.5t-46 -278.5v-152zM386 901h403l3 81q7 155 50 263q-76 0 -112 43.5t-36 102.5q-32 11 -86 11q-109 0 -165.5 -85.5t-56.5 -279.5v-136z" />
    <glyph glyph-name="f_i" unicode="fi" horiz-adv-x="1155" 
d="M1105 -1q-55 0 -110.5 2t-119.5 2t-118.5 -2t-112.5 -2q-5 29 0 59q49 3 78 8t44 19t19.5 41t4.5 74v522q0 57 -19.5 74t-70.5 17h-313v-593q0 -56 4 -87t18 -46.5t42 -20t76 -7.5q4 -29 0 -60q-55 0 -110.5 2t-119.5 2q-66 0 -120 -2t-112 -2q-4 28 0 59q49 3 78 8
t44 19t19.5 41t4.5 74v613h-161q-5 27 0 51q60 12 92.5 20.5t47.5 18t18 21.5t6 79q10 236 141.5 367t342.5 131q114 0 186.5 -41t72.5 -109q0 -48 -29 -73.5t-68 -25.5q-56 0 -93.5 46t-37.5 108q-35 12 -96 12q-122 0 -184.5 -85.5t-62.5 -279.5v-152h352q48 0 97 13
t114 40l20 -8q-4 -119 -4 -211v-515q0 -56 4 -87t18 -46.5t42 -20t76 -7.5q4 -30 0 -60z" />
    <glyph glyph-name="f_l" unicode="fl" horiz-adv-x="1155" 
d="M1106 -1q-55 0 -110.5 2t-119.5 2q-66 0 -120 -2t-112 -2q-5 30 0 59q49 3 78 8t44 19t19.5 41t4.5 74v1051q0 98 -29 133t-105 35q-142 0 -206 -83.5t-64 -282.5v-152h255q6 -44 0 -88h-254v-593q0 -56 4 -87t18 -46.5t42 -20t76 -7.5q4 -30 0 -60q-55 0 -110.5 2
t-119.5 2q-66 0 -120 -2t-112 -2q-5 28 0 59q49 3 78 8t44 19t19.5 41t4.5 74v613h-161q-5 27 0 51q60 12 92.5 20.5t47.5 18t18 21.5t6 79q10 236 141.5 367t332.5 131q87 0 156 -26q57 18 106 40l20 -8q-2 -43 -3 -95.5t-1 -115.5v-1076q0 -56 4 -87t18 -46.5t42 -20
t76 -7.5q4 -30 0 -60z" />
    <glyph glyph-name="f_f_i" unicode="ffi" horiz-adv-x="1735" 
d="M791 200v613h-404v-593q0 -56 4 -87t18 -46.5t42 -20t76 -7.5q4 -29 0 -60q-55 0 -110.5 2t-119.5 2q-66 0 -120 -2t-112 -2q-4 28 0 59q49 3 78 8t44 19t19.5 41t4.5 74v613h-161q-5 27 0 51q60 12 92.5 20.5t47.5 17.5q15 11 18 22q3 12 6 63q10 237 138.5 367.5
t332.5 130.5q189 0 250 -116v1q132 131 343 131q114 0 186.5 -41t72.5 -109q0 -48 -29 -73.5t-68 -25.5q-54 0 -92.5 46t-38.5 108q-35 12 -96 12q-122 0 -184.5 -85.5t-62.5 -279.5v-152h352q48 0 97 13t114 40l20 -8q-4 -119 -4 -211v-515q0 -56 4 -87t18 -46.5t42 -20
t76 -7.5q4 -30 0 -60q-55 0 -110.5 2t-119.5 2t-118.5 -2t-112.5 -2q-5 29 0 59q49 3 78 8t44 19t19.5 41t4.5 74v522q0 57 -19.5 74t-70.5 17h-313v-593q0 -56 4 -87t18 -46.5t42 -20t76 -7.5q4 -29 0 -60q-55 0 -110.5 2t-119.5 2q-66 0 -120 -2t-112 -2q-4 28 0 59
q49 3 78 8t44 19t19.5 41t4.5 74zM386 901h403l5 102q6 139 53 241q-62 0 -100 44t-38 103q-34 11 -90 11q-115 0 -174 -85.5t-59 -279.5v-136z" />
    <glyph glyph-name="f_f_l" unicode="ffl" horiz-adv-x="1736" 
d="M935 1370q132 131 333 131q87 0 156 -26q57 18 106 40l20 -8q-2 -43 -3 -95.5t-1 -115.5v-1076q0 -56 4 -87t18 -46.5t42 -20t76 -7.5q4 -30 0 -60q-55 0 -110.5 2t-119.5 2q-66 0 -120 -2t-112 -2q-5 30 0 59q49 3 78 8t44 19t19.5 41t4.5 74v1051q0 98 -29 133t-105 35
q-142 0 -206 -83.5t-64 -282.5v-152h255q6 -44 0 -88h-254v-593q0 -56 4 -87t18 -46.5t42 -20t76 -7.5q4 -30 0 -60q-55 0 -110.5 2t-119.5 2q-66 0 -120 -2t-112 -2q-5 28 0 59q49 3 78 8t44 19t19.5 41t4.5 74v613h-404v-593q0 -56 4 -87t18 -46.5t42 -20t76 -7.5
q4 -29 0 -60q-55 0 -110.5 2t-119.5 2q-66 0 -120 -2t-112 -2q-4 28 0 59q49 3 78 8t44 19t19.5 41t4.5 74v613h-161q-5 27 0 51q60 12 92.5 20.5t47.5 17.5q15 11 18 22q3 12 6 63q10 237 138.5 367.5t332.5 130.5q188 0 250 -115zM386 901h403l5 102q6 139 54 242
q-67 0 -103 43.5t-36 102.5q-34 11 -90 11q-115 0 -174 -85.5t-59 -279.5v-136z" />
    <glyph glyph-name="uniFB4F" unicode="&#x5d0;&#x200d;&#x5dc;" horiz-adv-x="1073" 
d="M663 562q32 34 54.5 60.5t37 46.5t21 36t6.5 31q0 23 -15.5 43.5t-52.5 52.5q-30 26 -49 44t-29.5 32.5t-14 26.5t-3.5 26q0 24 29.5 67.5t101.5 109.5q8 2 21 -2t23 -9q-1 -10 -1.5 -17t-0.5 -13q0 -11 3 -20t12 -19.5t25 -25.5t42 -38q58 -52 81 -82.5t23 -55.5
q0 -19 -8.5 -47t-35.5 -69.5t-76.5 -99.5t-131.5 -137q43 -39 73.5 -67.5t52.5 -49.5t37.5 -36t28.5 -27q39 -36 60 -65t21 -52q0 -18 -8 -37q-20 -46 -38 -90t-37 -93q-25 -2 -44 3q-15 40 -35.5 74t-44 64t-49.5 57t-52 53q-66 65 -133 128t-130.5 122t-122.5 112.5
t-109 99.5q-45 42 -73.5 74t-44.5 64t-21.5 68t-5.5 87q0 53 1.5 91.5t5 68t10.5 52.5t17.5 44t26 43t35.5 50q5 7 5.5 10t0.5 5q0 10 -11 19.5t-33 26.5q-38 30 -63 56t-25 53q0 15 11 35t28.5 42.5t40 46.5t45.5 47q9 0 21 -4t20 -9q-4 -19 -3 -31.5t8.5 -24t23 -24
t41.5 -32.5q42 -32 59 -51t17 -38q0 -15 -9 -32.5t-23 -35.5t-31.5 -37t-34.5 -37t-27.5 -35t-17 -36.5t-9 -43t-2.5 -54.5q0 -29 4.5 -55t16 -53.5t32.5 -57.5t54 -66q42 -46 89.5 -93t96.5 -93.5t98 -91t94 -85.5z" />
    <glyph glyph-name="f_b" unicode="fb" horiz-adv-x="1723" 
d="M964 1296v-483q144 133 312 133q161 0 268 -128.5t107 -318.5q0 -217 -137 -367t-347 -150q-148 0 -286 72q-29 -31 -51 -67q-27 2 -44 8q4 67 4 225v1031q0 98 -29 133t-105 35q-142 0 -206 -83.5t-64 -282.5v-152h255q6 -44 0 -88h-254v-593q0 -56 4 -87t18 -46.5
t42 -20t76 -7.5q4 -30 0 -60q-55 0 -110.5 2t-119.5 2q-66 0 -120 -2t-112 -2q-5 28 0 59q49 3 78 8t44 19t19.5 41t4.5 74v613h-161q-5 27 0 51q60 12 92.5 20.5t47.5 18t18 21.5t6 79q10 236 141.5 367t332.5 131q87 0 156 -26q55 18 104 40l20 -8q-2 -43 -3 -95.5
t-1 -115.5zM962 156q91 -97 223 -97q141 0 213.5 102t72.5 266q0 177 -74 288t-212 111q-125 0 -223 -94v-576z" />
    <glyph glyph-name="f_uni0180" unicode="f&#x180;" horiz-adv-x="1723" 
d="M786 -5q4 67 4 225v884h-149q-5 40 0 82h149v65q0 98 -29 133t-105 35q-142 0 -206 -83.5t-64 -282.5v-152h250q6 -44 0 -88h-249v-593q0 -56 4 -87t18 -46.5t42 -20t76 -7.5q4 -30 0 -60q-55 0 -110.5 2t-119.5 2q-66 0 -120 -2t-112 -2q-5 28 0 59q49 3 78 8t44 19
t19.5 41t4.5 74v613h-161q-5 27 0 51q60 12 92.5 20.5t47.5 18t18 21.5t6 79q10 236 141.5 367t332.5 131q87 0 156 -26q55 18 104 40l20 -8q-2 -43 -3 -95.5t-1 -115.5v-110h356q6 -40 0 -82h-356v-311q144 133 312 133q161 0 268 -126t107 -312q0 -212 -137 -359
t-347 -147q-148 0 -286 72q-29 -31 -51 -67q-27 2 -44 8zM962 153q91 -94 223 -94q141 0 213.5 99.5t72.5 258.5q0 173 -74 281t-212 108q-125 0 -223 -92v-561z" />
    <glyph glyph-name="f_f_b" unicode="ffb" horiz-adv-x="2303" 
d="M1544 1296v-483q144 133 312 133q161 0 268 -128.5t107 -318.5q0 -217 -137 -367t-347 -150q-148 0 -286 72q-29 -31 -51 -67q-27 2 -44 8q4 67 4 225v1031q0 98 -29 133t-105 35q-142 0 -206 -83.5t-64 -282.5v-152h255q6 -44 0 -88h-254v-593q0 -56 4 -87t18 -46.5
t42 -20t76 -7.5q4 -30 0 -60q-55 0 -110.5 2t-119.5 2q-66 0 -120 -2t-112 -2q-5 28 0 59q49 3 78 8t44 19t19.5 41t4.5 74v613h-404v-593q0 -56 4 -87t18 -46.5t42 -20t76 -7.5q4 -29 0 -60q-55 0 -110.5 2t-119.5 2q-66 0 -120 -2t-112 -2q-4 28 0 59q49 3 78 8t44 19
t19.5 41t4.5 74v613h-161q-5 27 0 51q60 12 92.5 20.5t47.5 17.5q15 11 18 22q3 12 6 63q10 237 138.5 367.5t332.5 130.5q188 0 250 -115q132 131 333 131q87 0 156 -26q57 18 104 40l20 -8q-2 -43 -3 -95.5t-1 -115.5zM1542 156q91 -97 223 -97q141 0 213.5 102t72.5 266
q0 177 -74 288t-212 111q-125 0 -223 -94v-576zM386 901h403l5 102q6 139 54 242q-67 0 -103 43.5t-36 102.5q-34 11 -90 11q-115 0 -174 -85.5t-59 -279.5v-136z" />
    <glyph glyph-name="f_f_uni0180" unicode="ff&#x180;" horiz-adv-x="2303" 
d="M1366 -5q4 67 4 225v884h-149q-5 40 0 82h149v65q0 98 -29 133t-105 35q-142 0 -206 -83.5t-64 -282.5v-152h250q6 -44 0 -88h-249v-593q0 -56 4 -87t18 -46.5t42 -20t76 -7.5q4 -30 0 -60q-55 0 -110.5 2t-119.5 2q-66 0 -120 -2t-112 -2q-5 28 0 59q49 3 78 8t44 19
t19.5 41t4.5 74v613h-404v-593q0 -56 4 -87t18 -46.5t42 -20t76 -7.5q4 -29 0 -60q-55 0 -110.5 2t-119.5 2q-66 0 -120 -2t-112 -2q-4 28 0 59q49 3 78 8t44 19t19.5 41t4.5 74v613h-161q-5 27 0 51q60 12 92.5 20.5t47.5 17.5q15 11 18 22q3 12 6 63q10 237 138.5 367.5
t332.5 130.5q188 0 250 -115q132 131 333 131q87 0 156 -26q57 18 104 40l20 -8q-2 -43 -3 -95.5t-1 -115.5v-110h356q6 -40 0 -82h-356v-311q144 133 312 133q161 0 268 -126t107 -312q0 -212 -137 -359t-347 -147q-148 0 -286 72q-29 -31 -51 -67q-27 2 -44 8zM1542 153
q91 -94 223 -94q141 0 213.5 99.5t72.5 258.5q0 173 -74 281t-212 108q-125 0 -223 -92v-561zM386 901h403l5 102q6 139 54 242q-67 0 -103 43.5t-36 102.5q-34 11 -90 11q-115 0 -174 -85.5t-59 -279.5v-136z" />
    <glyph glyph-name="f_f_h" unicode="ffh" horiz-adv-x="2325" 
d="M1370 200v1051q0 98 -29 133t-105 35q-142 0 -206 -83.5t-64 -282.5v-152h255q6 -44 0 -88h-254v-593q0 -56 4 -87t18 -46.5t42 -20t76 -7.5q4 -30 0 -60q-55 0 -110.5 2t-119.5 2q-66 0 -120 -2t-112 -2q-5 28 0 59q49 3 78 8t44 19t19.5 41t4.5 74v613h-404v-593
q0 -56 4 -87t18 -46.5t42 -20t76 -7.5q4 -29 0 -60q-55 0 -110.5 2t-119.5 2q-66 0 -120 -2t-112 -2q-4 28 0 59q49 3 78 8t44 19t19.5 41t4.5 74v613h-161q-5 27 0 51q60 12 92.5 20.5t47.5 17.5q15 11 18 22q3 12 6 63q10 237 138.5 367.5t332.5 130.5q188 0 250 -115
q132 131 333 131q87 0 156 -26q57 18 106 40l20 -8q-2 -43 -3 -95.5t-1 -115.5v-498q162 148 335 148q130 0 197 -75t67 -215v-436q0 -56 4 -87t18 -46.5t40 -20t75 -7.5q4 -30 0 -60q-56 0 -109.5 2t-117.5 2q-65 0 -117.5 -2t-104.5 -2q-4 29 0 59q44 3 70.5 8t41.5 19
t19.5 40.5t4.5 74.5v388q0 135 -47.5 182.5t-141.5 47.5q-132 0 -234 -99v-499q0 -56 4 -87t18 -46.5t41 -20t72 -7.5q4 -30 0 -60q-50 0 -105.5 2t-119.5 2q-66 0 -120 -2t-112 -2q-5 29 0 59q49 3 78 8t44 19t19.5 41t4.5 74zM386 901h403l5 102q6 139 54 242
q-67 0 -103 43.5t-36 102.5q-34 11 -90 11q-115 0 -174 -85.5t-59 -279.5v-136z" />
    <glyph glyph-name="f_f_hcircumflex" unicode="ff&#x125;" horiz-adv-x="2325" 
d="M1370 200v1051q0 98 -29 133t-105 35q-142 0 -206 -83.5t-64 -282.5v-152h255q6 -44 0 -88h-254v-593q0 -56 4 -87t18 -46.5t42 -20t76 -7.5q4 -30 0 -60q-55 0 -110.5 2t-119.5 2q-66 0 -120 -2t-112 -2q-5 28 0 59q49 3 78 8t44 19t19.5 41t4.5 74v613h-404v-593
q0 -56 4 -87t18 -46.5t42 -20t76 -7.5q4 -29 0 -60q-55 0 -110.5 2t-119.5 2q-66 0 -120 -2t-112 -2q-4 28 0 59q49 3 78 8t44 19t19.5 41t4.5 74v613h-161q-5 27 0 51q60 12 92.5 20.5t47.5 17.5q15 11 18 22q3 12 6 63q10 237 138.5 367.5t332.5 130.5q188 0 250 -115
q132 131 333 131q87 0 156 -26q57 18 106 40l20 -8q-2 -43 -3 -95.5t-1 -115.5v-498q162 148 335 148q130 0 197 -75t67 -215v-436q0 -56 4 -87t18 -46.5t40 -20t75 -7.5q4 -30 0 -60q-56 0 -109.5 2t-117.5 2q-65 0 -117.5 -2t-104.5 -2q-4 29 0 59q44 3 70.5 8t41.5 19
t19.5 40.5t4.5 74.5v388q0 135 -47.5 182.5t-141.5 47.5q-132 0 -234 -99v-499q0 -56 4 -87t18 -46.5t41 -20t72 -7.5q4 -30 0 -60q-50 0 -105.5 2t-119.5 2q-66 0 -120 -2t-112 -2q-5 29 0 59q49 3 78 8t44 19t19.5 41t4.5 74zM386 901h403l5 102q6 139 54 242
q-67 0 -103 43.5t-36 102.5q-34 11 -90 11q-115 0 -174 -85.5t-59 -279.5v-136zM1461 1730q-125 -96 -276 -189q-28 4 -54 23q30 31 64.5 71t70 81.5t68 82t58.5 72.5q29 7 71 7q37 0 71 -7q25 -32 57.5 -72.5t68 -82t70.5 -81.5t65 -71q-26 -19 -54 -23q-152 92 -280 189z
" />
    <glyph glyph-name="f_f_uni1E96" unicode="ff&#x1e96;" horiz-adv-x="2325" 
d="M1370 200v1051q0 98 -29 133t-105 35q-142 0 -206 -83.5t-64 -282.5v-152h255q6 -44 0 -88h-254v-593q0 -56 4 -87t18 -46.5t42 -20t76 -7.5q4 -30 0 -60q-55 0 -110.5 2t-119.5 2q-66 0 -120 -2t-112 -2q-5 28 0 59q49 3 78 8t44 19t19.5 41t4.5 74v613h-404v-593
q0 -56 4 -87t18 -46.5t42 -20t76 -7.5q4 -29 0 -60q-55 0 -110.5 2t-119.5 2q-66 0 -120 -2t-112 -2q-4 28 0 59q49 3 78 8t44 19t19.5 41t4.5 74v613h-161q-5 27 0 51q60 12 92.5 20.5t47.5 17.5q15 11 18 22q3 12 6 63q10 237 138.5 367.5t332.5 130.5q188 0 250 -115
q132 131 333 131q87 0 156 -26q57 18 106 40l20 -8q-2 -43 -3 -95.5t-1 -115.5v-498q162 148 335 148q130 0 197 -75t67 -215v-436q0 -56 4 -87t18 -46.5t40 -20t75 -7.5q4 -30 0 -60q-56 0 -109.5 2t-117.5 2q-65 0 -117.5 -2t-104.5 -2q-4 29 0 59q44 3 70.5 8t41.5 19
t19.5 40.5t4.5 74.5v388q0 135 -47.5 182.5t-141.5 47.5q-132 0 -234 -99v-499q0 -56 4 -87t18 -46.5t41 -20t72 -7.5q4 -30 0 -60q-50 0 -105.5 2t-119.5 2q-66 0 -120 -2t-112 -2q-5 29 0 59q49 3 78 8t44 19t19.5 41t4.5 74zM386 901h403l5 102q6 139 54 242
q-67 0 -103 43.5t-36 102.5q-34 11 -90 11q-115 0 -174 -85.5t-59 -279.5v-136zM2029 -192q6 -48 0 -96h-548q-6 48 0 96h548z" />
    <glyph glyph-name="f_f_uni1E2B" unicode="ff&#x1e2b;" horiz-adv-x="2325" 
d="M1370 200v1051q0 98 -29 133t-105 35q-142 0 -206 -83.5t-64 -282.5v-152h255q6 -44 0 -88h-254v-593q0 -56 4 -87t18 -46.5t42 -20t76 -7.5q4 -30 0 -60q-55 0 -110.5 2t-119.5 2q-66 0 -120 -2t-112 -2q-5 28 0 59q49 3 78 8t44 19t19.5 41t4.5 74v613h-404v-593
q0 -56 4 -87t18 -46.5t42 -20t76 -7.5q4 -29 0 -60q-55 0 -110.5 2t-119.5 2q-66 0 -120 -2t-112 -2q-4 28 0 59q49 3 78 8t44 19t19.5 41t4.5 74v613h-161q-5 27 0 51q60 12 92.5 20.5t47.5 17.5q15 11 18 22q3 12 6 63q10 237 138.5 367.5t332.5 130.5q188 0 250 -115
q132 131 333 131q87 0 156 -26q57 18 106 40l20 -8q-2 -43 -3 -95.5t-1 -115.5v-498q162 148 335 148q130 0 197 -75t67 -215v-436q0 -56 4 -87t18 -46.5t40 -20t75 -7.5q4 -30 0 -60q-56 0 -109.5 2t-117.5 2q-65 0 -117.5 -2t-104.5 -2q-4 29 0 59q44 3 70.5 8t41.5 19
t19.5 40.5t4.5 74.5v388q0 135 -47.5 182.5t-141.5 47.5q-132 0 -234 -99v-499q0 -56 4 -87t18 -46.5t41 -20t72 -7.5q4 -30 0 -60q-50 0 -105.5 2t-119.5 2q-66 0 -120 -2t-112 -2q-5 29 0 59q49 3 78 8t44 19t19.5 41t4.5 74zM386 901h403l5 102q6 139 54 242
q-67 0 -103 43.5t-36 102.5q-34 11 -90 11q-115 0 -174 -85.5t-59 -279.5v-136zM1988 -111q31 -3 60 -12q-14 -169 -92 -253t-203 -84t-201 84t-90 253q28 9 60 12q23 -106 82.5 -157.5t150.5 -51.5q93 0 152.5 53t80.5 156z" />
    <glyph glyph-name="f_f_uni1E25" unicode="ff&#x1e25;" horiz-adv-x="2325" 
d="M1370 200v1051q0 98 -29 133t-105 35q-142 0 -206 -83.5t-64 -282.5v-152h255q6 -44 0 -88h-254v-593q0 -56 4 -87t18 -46.5t42 -20t76 -7.5q4 -30 0 -60q-55 0 -110.5 2t-119.5 2q-66 0 -120 -2t-112 -2q-5 28 0 59q49 3 78 8t44 19t19.5 41t4.5 74v613h-404v-593
q0 -56 4 -87t18 -46.5t42 -20t76 -7.5q4 -29 0 -60q-55 0 -110.5 2t-119.5 2q-66 0 -120 -2t-112 -2q-4 28 0 59q49 3 78 8t44 19t19.5 41t4.5 74v613h-161q-5 27 0 51q60 12 92.5 20.5t47.5 17.5q15 11 18 22q3 12 6 63q10 237 138.5 367.5t332.5 130.5q188 0 250 -115
q132 131 333 131q87 0 156 -26q57 18 106 40l20 -8q-2 -43 -3 -95.5t-1 -115.5v-498q162 148 335 148q130 0 197 -75t67 -215v-436q0 -56 4 -87t18 -46.5t40 -20t75 -7.5q4 -30 0 -60q-56 0 -109.5 2t-117.5 2q-65 0 -117.5 -2t-104.5 -2q-4 29 0 59q44 3 70.5 8t41.5 19
t19.5 40.5t4.5 74.5v388q0 135 -47.5 182.5t-141.5 47.5q-132 0 -234 -99v-499q0 -56 4 -87t18 -46.5t41 -20t72 -7.5q4 -30 0 -60q-50 0 -105.5 2t-119.5 2q-66 0 -120 -2t-112 -2q-5 29 0 59q49 3 78 8t44 19t19.5 41t4.5 74zM386 901h403l5 102q6 139 54 242
q-67 0 -103 43.5t-36 102.5q-34 11 -90 11q-115 0 -174 -85.5t-59 -279.5v-136zM1637 -298q0 47 33 81.5t84 34.5q52 0 85.5 -34.5t33.5 -81.5q0 -46 -33.5 -80.5t-85.5 -34.5q-51 0 -84 34.5t-33 80.5z" />
    <glyph glyph-name="f_f_hbar" unicode="ff&#x127;" horiz-adv-x="2325" 
d="M1900 1186q6 -40 0 -82h-354v-326q162 148 335 148q130 0 197 -75t67 -215v-416q0 -56 4 -87t18 -46.5t40 -20t75 -7.5q4 -30 0 -60q-56 0 -109.5 2t-117.5 2q-65 0 -117.5 -2t-104.5 -2q-4 29 0 59q44 3 70.5 8t41.5 19t19.5 40.5t4.5 74.5v368q0 135 -47.5 182.5
t-141.5 47.5q-132 0 -234 -99v-479q0 -56 4 -87t18 -46.5t41 -20t72 -7.5q4 -30 0 -60q-50 0 -105.5 2t-119.5 2q-66 0 -120 -2t-112 -2q-5 29 0 59q49 3 78 8t44 19t19.5 41t4.5 74v904h-149q-5 40 0 82h149v65q0 98 -29 133t-105 35q-142 0 -206 -83.5t-64 -282.5v-152
h250q6 -44 0 -88h-249v-593q0 -56 4 -87t18 -46.5t42 -20t76 -7.5q4 -30 0 -60q-55 0 -110.5 2t-119.5 2q-66 0 -120 -2t-112 -2q-5 28 0 59q49 3 78 8t44 19t19.5 41t4.5 74v613h-404v-593q0 -56 4 -87t18 -46.5t42 -20t76 -7.5q4 -29 0 -60q-55 0 -110.5 2t-119.5 2
q-66 0 -120 -2t-112 -2q-4 28 0 59q49 3 78 8t44 19t19.5 41t4.5 74v613h-161q-5 27 0 51q60 12 92.5 20.5t47.5 17.5q15 11 18 22q3 12 6 63q10 237 138.5 367.5t332.5 130.5q188 0 250 -115q132 131 333 131q87 0 156 -26q57 18 106 40l20 -8q-2 -43 -3 -95.5t-1 -115.5
v-110h354zM386 901h403l5 102q6 139 54 242q-67 0 -103 43.5t-36 102.5q-34 11 -90 11q-115 0 -174 -85.5t-59 -279.5v-136z" />
    <glyph glyph-name="f_f_iogonek" unicode="ff&#x12f;" horiz-adv-x="1735" 
d="M1545 735v-515q0 -56 4 -87t18 -46.5t42 -20t76 -7.5q4 -30 0 -60q-49 0 -98 1q-150 -130 -150 -266q0 -60 36 -89.5t100 -29.5q35 0 67 7q13 -19 17 -42q-95 -70 -188 -70q-88 0 -143.5 49t-55.5 132q0 173 243 312h-58q-64 0 -118.5 -2t-112.5 -2q-4 29 0 59q49 3 78 8
t44 19t19.5 40.5t4.5 74.5v522q0 57 -19.5 74t-70.5 17h-313v-593q0 -56 4 -87t18 -46.5t42 -20t76 -7.5q4 -29 0 -60q-55 0 -110.5 2t-119.5 2q-66 0 -120 -2t-112 -2q-4 28 0 59q49 3 78 8t44 19t19.5 41t4.5 74v613h-404v-593q0 -56 4 -87t18 -46.5t42 -20t76 -7.5
q4 -29 0 -60q-55 0 -110.5 2t-119.5 2q-66 0 -120 -2t-112 -2q-4 28 0 59q49 3 78 8t44 19t19.5 41t4.5 74v613h-161q-5 27 0 51q60 12 92.5 20.5t47.5 17.5q15 11 18 22q3 12 6 63q10 237 138.5 367.5t332.5 130.5q189 0 250 -116v1q132 131 343 131q114 0 186.5 -41
t72.5 -109q0 -48 -29 -73.5t-68 -25.5q-54 0 -92.5 46t-38.5 108q-35 12 -96 12q-122 0 -184.5 -85.5t-62.5 -279.5v-152h352q48 0 97 13t114 40l20 -8q-4 -119 -4 -211zM386 901h403l5 102q6 139 53 241q-62 0 -100 44t-38 103q-34 11 -90 11q-115 0 -174 -85.5t-59 -279.5
v-136z" />
    <glyph glyph-name="f_f_uni0268" unicode="ff&#x268;" horiz-adv-x="1755" 
d="M791 200v613h-404v-593q0 -56 4 -87t18 -46.5t42 -20t76 -7.5q4 -29 0 -60q-55 0 -110.5 2t-119.5 2q-66 0 -120 -2t-112 -2q-4 28 0 59q49 3 78 8t44 19t19.5 41t4.5 74v613h-161q-5 27 0 51q60 12 92.5 20.5t47.5 17.5q15 11 18 22q3 12 6 63q10 237 138.5 367.5
t332.5 130.5q189 0 250 -116v1q132 131 343 131q114 0 186.5 -41t72.5 -109q0 -48 -29 -73.5t-68 -25.5q-54 0 -92.5 46t-38.5 108q-35 12 -96 12q-122 0 -184.5 -85.5t-62.5 -279.5v-152h352q48 0 97 13t114 40l20 -8q-4 -119 -4 -211v-195h184q5 -40 0 -82h-184v-238
q0 -56 4 -87t18 -46.5t42 -20t76 -7.5q4 -30 0 -60q-55 0 -110.5 2t-119.5 2t-118.5 -2t-112.5 -2q-5 29 0 59q49 3 78 8t44 19t19.5 41t4.5 74v258h-185q-5 40 0 82h185v182q0 57 -19.5 74t-70.5 17h-313v-593q0 -56 4 -87t18 -46.5t42 -20t76 -7.5q4 -29 0 -60
q-55 0 -110.5 2t-119.5 2q-66 0 -120 -2t-112 -2q-4 28 0 59q49 3 78 8t44 19t19.5 41t4.5 74zM386 901h403l5 102q6 139 53 241q-62 0 -100 44t-38 103q-34 11 -90 11q-115 0 -174 -85.5t-59 -279.5v-136z" />
    <glyph glyph-name="f_f_j" unicode="ffj" horiz-adv-x="1712" 
d="M967 813v-593q0 -56 5 -87t23 -46.5t53.5 -20t97.5 -7.5q4 -29 0 -60q-64 0 -129 2t-140 2q-66 0 -120 -2t-112 -2q-4 28 0 59q49 3 78 8t44 19t19.5 41t4.5 74v613h-404v-593q0 -56 4 -87t18 -46.5t42 -20t76 -7.5q4 -29 0 -60q-55 0 -110.5 2t-119.5 2q-66 0 -120 -2
t-112 -2q-4 28 0 59q49 3 78 8t44 19t19.5 41t4.5 74v613h-161q-5 27 0 51q60 12 92.5 20.5t47.5 17.5q15 11 18 22q3 12 6 63q10 237 138.5 367.5t332.5 130.5q189 0 250 -116v1q132 131 343 131q114 0 186.5 -41t72.5 -109q0 -48 -29 -73.5t-68 -25.5q-58 0 -94.5 46
t-36.5 108q-35 12 -96 12q-122 0 -184.5 -85.5t-62.5 -279.5v-152h352q48 0 97 13t114 40l20 -8q-4 -119 -4 -211q1 -93 2 -286t1 -283v-169q0 -241 -114.5 -373t-273.5 -132q-53 0 -90 25t-37 67q0 35 25.5 59.5t73.5 24.5q76 0 137 -82q62 30 82.5 110.5t20.5 245.5
q0 115 -1 360t-1 420q0 57 -19.5 74t-70.5 17h-313zM386 901h403l5 102q6 139 53 241q-62 0 -100 44t-38 103q-34 11 -90 11q-115 0 -174 -85.5t-59 -279.5v-136z" />
    <glyph glyph-name="f_f_k" unicode="ffk" horiz-adv-x="2224" 
d="M1546 516q29 0 60 24.5t149 140.5q74 73 96.5 98t22.5 41q0 37 -96 40q-4 30 0 60q42 0 97 -2t102 -2q43 0 113 1.5t107 1.5q4 -30 0 -58q-80 -3 -144 -35t-163 -125l-152 -143l265 -353q66 -88 111.5 -116.5t123.5 -29.5q1 -8 1.5 -15t0.5 -15t-0.5 -15t-1.5 -15
q-23 0 -73.5 2t-143.5 2q-48 0 -107 -4q0 26 -59.5 111t-210.5 290q-35 44 -53.5 53.5t-44.5 9.5v-243q0 -56 3.5 -87t16.5 -46.5t39 -20t71 -7.5q4 -30 0 -60q-53 0 -106 2t-114 2q-66 0 -120 -2t-112 -2q-5 29 0 59q49 3 78 8t44 19t19.5 41t4.5 74v1051q0 98 -29 133
t-105 35q-142 0 -206 -83.5t-64 -282.5v-152h255q6 -44 0 -88h-254v-593q0 -56 4 -87t18 -46.5t42 -20t76 -7.5q4 -30 0 -60q-55 0 -110.5 2t-119.5 2q-66 0 -120 -2t-112 -2q-5 28 0 59q49 3 78 8t44 19t19.5 41t4.5 74v613h-404v-593q0 -56 4 -87t18 -46.5t42 -20t76 -7.5
q4 -29 0 -60q-55 0 -110.5 2t-119.5 2q-66 0 -120 -2t-112 -2q-4 28 0 59q49 3 78 8t44 19t19.5 41t4.5 74v613h-161q-5 27 0 51q60 12 92.5 20.5t47.5 17.5q15 11 18 22q3 12 6 63q10 237 138.5 367.5t332.5 130.5q188 0 250 -115q132 131 333 131q87 0 156 -26
q57 18 106 40l20 -8q-2 -43 -3 -95.5t-1 -115.5v-780zM386 901h403l5 102q6 139 54 242q-67 0 -103 43.5t-36 102.5q-34 11 -90 11q-115 0 -174 -85.5t-59 -279.5v-136z" />
    <glyph glyph-name="f_f_uni1E35" unicode="ff&#x1e35;" horiz-adv-x="2224" 
d="M1546 516q29 0 60 24.5t149 140.5q74 73 96.5 98t22.5 41q0 37 -96 40q-4 30 0 60q42 0 97 -2t102 -2q43 0 113 1.5t107 1.5q4 -30 0 -58q-80 -3 -144 -35t-163 -125l-152 -143l265 -353q66 -88 111.5 -116.5t123.5 -29.5q1 -8 1.5 -15t0.5 -15t-0.5 -15t-1.5 -15
q-23 0 -73.5 2t-143.5 2q-48 0 -107 -4q0 26 -59.5 111t-210.5 290q-35 44 -53.5 53.5t-44.5 9.5v-243q0 -56 3.5 -87t16.5 -46.5t39 -20t71 -7.5q4 -30 0 -60q-53 0 -106 2t-114 2q-66 0 -120 -2t-112 -2q-5 29 0 59q49 3 78 8t44 19t19.5 41t4.5 74v1051q0 98 -29 133
t-105 35q-142 0 -206 -83.5t-64 -282.5v-152h255q6 -44 0 -88h-254v-593q0 -56 4 -87t18 -46.5t42 -20t76 -7.5q4 -30 0 -60q-55 0 -110.5 2t-119.5 2q-66 0 -120 -2t-112 -2q-5 28 0 59q49 3 78 8t44 19t19.5 41t4.5 74v613h-404v-593q0 -56 4 -87t18 -46.5t42 -20t76 -7.5
q4 -29 0 -60q-55 0 -110.5 2t-119.5 2q-66 0 -120 -2t-112 -2q-4 28 0 59q49 3 78 8t44 19t19.5 41t4.5 74v613h-161q-5 27 0 51q60 12 92.5 20.5t47.5 17.5q15 11 18 22q3 12 6 63q10 237 138.5 367.5t332.5 130.5q188 0 250 -115q132 131 333 131q87 0 156 -26
q57 18 106 40l20 -8q-2 -43 -3 -95.5t-1 -115.5v-780zM386 901h403l5 102q6 139 54 242q-67 0 -103 43.5t-36 102.5q-34 11 -90 11q-115 0 -174 -85.5t-59 -279.5v-136zM2004 -192q6 -48 0 -96h-548q-6 48 0 96h548z" />
    <glyph glyph-name="f_f_uni1E33" unicode="ff&#x1e33;" horiz-adv-x="2224" 
d="M1546 516q29 0 60 24.5t149 140.5q74 73 96.5 98t22.5 41q0 37 -96 40q-4 30 0 60q42 0 97 -2t102 -2q43 0 113 1.5t107 1.5q4 -30 0 -58q-80 -3 -144 -35t-163 -125l-152 -143l265 -353q66 -88 111.5 -116.5t123.5 -29.5q1 -8 1.5 -15t0.5 -15t-0.5 -15t-1.5 -15
q-23 0 -73.5 2t-143.5 2q-48 0 -107 -4q0 26 -59.5 111t-210.5 290q-35 44 -53.5 53.5t-44.5 9.5v-243q0 -56 3.5 -87t16.5 -46.5t39 -20t71 -7.5q4 -30 0 -60q-53 0 -106 2t-114 2q-66 0 -120 -2t-112 -2q-5 29 0 59q49 3 78 8t44 19t19.5 41t4.5 74v1051q0 98 -29 133
t-105 35q-142 0 -206 -83.5t-64 -282.5v-152h255q6 -44 0 -88h-254v-593q0 -56 4 -87t18 -46.5t42 -20t76 -7.5q4 -30 0 -60q-55 0 -110.5 2t-119.5 2q-66 0 -120 -2t-112 -2q-5 28 0 59q49 3 78 8t44 19t19.5 41t4.5 74v613h-404v-593q0 -56 4 -87t18 -46.5t42 -20t76 -7.5
q4 -29 0 -60q-55 0 -110.5 2t-119.5 2q-66 0 -120 -2t-112 -2q-4 28 0 59q49 3 78 8t44 19t19.5 41t4.5 74v613h-161q-5 27 0 51q60 12 92.5 20.5t47.5 17.5q15 11 18 22q3 12 6 63q10 237 138.5 367.5t332.5 130.5q188 0 250 -115q132 131 333 131q87 0 156 -26
q57 18 106 40l20 -8q-2 -43 -3 -95.5t-1 -115.5v-780zM386 901h403l5 102q6 139 54 242q-67 0 -103 43.5t-36 102.5q-34 11 -90 11q-115 0 -174 -85.5t-59 -279.5v-136zM1612 -298q0 47 33 81.5t84 34.5q52 0 85.5 -34.5t33.5 -81.5q0 -46 -33.5 -80.5t-85.5 -34.5
q-51 0 -84 34.5t-33 80.5z" />
    <glyph glyph-name="f_f_kcommaaccent" unicode="ff&#x137;" horiz-adv-x="2224" 
d="M1546 516q29 0 60 24.5t149 140.5q74 73 96.5 98t22.5 41q0 37 -96 40q-4 30 0 60q42 0 97 -2t102 -2q43 0 113 1.5t107 1.5q4 -30 0 -58q-80 -3 -144 -35t-163 -125l-152 -143l265 -353q66 -88 111.5 -116.5t123.5 -29.5q1 -8 1.5 -15t0.5 -15t-0.5 -15t-1.5 -15
q-23 0 -73.5 2t-143.5 2q-48 0 -107 -4q0 26 -59.5 111t-210.5 290q-35 44 -53.5 53.5t-44.5 9.5v-243q0 -56 3.5 -87t16.5 -46.5t39 -20t71 -7.5q4 -30 0 -60q-53 0 -106 2t-114 2q-66 0 -120 -2t-112 -2q-5 29 0 59q49 3 78 8t44 19t19.5 41t4.5 74v1051q0 98 -29 133
t-105 35q-142 0 -206 -83.5t-64 -282.5v-152h255q6 -44 0 -88h-254v-593q0 -56 4 -87t18 -46.5t42 -20t76 -7.5q4 -30 0 -60q-55 0 -110.5 2t-119.5 2q-66 0 -120 -2t-112 -2q-5 28 0 59q49 3 78 8t44 19t19.5 41t4.5 74v613h-404v-593q0 -56 4 -87t18 -46.5t42 -20t76 -7.5
q4 -29 0 -60q-55 0 -110.5 2t-119.5 2q-66 0 -120 -2t-112 -2q-4 28 0 59q49 3 78 8t44 19t19.5 41t4.5 74v613h-161q-5 27 0 51q60 12 92.5 20.5t47.5 17.5q15 11 18 22q3 12 6 63q10 237 138.5 367.5t332.5 130.5q188 0 250 -115q132 131 333 131q87 0 156 -26
q57 18 106 40l20 -8q-2 -43 -3 -95.5t-1 -115.5v-780zM386 901h403l5 102q6 139 54 242q-67 0 -103 43.5t-36 102.5q-34 11 -90 11q-115 0 -174 -85.5t-59 -279.5v-136zM1608 -494q91 22 135 63t44 105q0 26 -9 55q-36 -36 -86 -36q-40 0 -68.5 27t-28.5 74q0 53 36 84
t93 31q76 0 120 -52.5t44 -140.5q0 -103 -70.5 -173t-193.5 -95q-12 28 -16 58z" />
    <glyph glyph-name="f_f_lacute" unicode="ff&#x13a;" horiz-adv-x="1736" 
d="M935 1370q132 131 333 131q87 0 156 -26q57 18 106 40l20 -8q-2 -43 -3 -95.5t-1 -115.5v-1076q0 -56 4 -87t18 -46.5t42 -20t76 -7.5q4 -30 0 -60q-55 0 -110.5 2t-119.5 2q-66 0 -120 -2t-112 -2q-5 30 0 59q49 3 78 8t44 19t19.5 41t4.5 74v1051q0 98 -29 133t-105 35
q-142 0 -206 -83.5t-64 -282.5v-152h255q6 -44 0 -88h-254v-593q0 -56 4 -87t18 -46.5t42 -20t76 -7.5q4 -30 0 -60q-55 0 -110.5 2t-119.5 2q-66 0 -120 -2t-112 -2q-5 28 0 59q49 3 78 8t44 19t19.5 41t4.5 74v613h-404v-593q0 -56 4 -87t18 -46.5t42 -20t76 -7.5
q4 -29 0 -60q-55 0 -110.5 2t-119.5 2q-66 0 -120 -2t-112 -2q-4 28 0 59q49 3 78 8t44 19t19.5 41t4.5 74v613h-161q-5 27 0 51q60 12 92.5 20.5t47.5 17.5q15 11 18 22q3 12 6 63q10 237 138.5 367.5t332.5 130.5q188 0 250 -115zM386 901h403l5 102q6 139 54 242
q-67 0 -103 43.5t-36 102.5q-34 11 -90 11q-115 0 -174 -85.5t-59 -279.5v-136zM1745 1758q-33 -17 -80.5 -43.5t-99.5 -56.5t-103 -60.5t-91 -54.5q-25 13 -42 41q33 34 69.5 73t72.5 78t70 76t62 69q29 0 65 -33.5t77 -81.5v-7z" />
    <glyph glyph-name="f_f_lcaron" unicode="ff&#x13e;" horiz-adv-x="1920" 
d="M935 1370q132 131 333 131q87 0 156 -26q57 18 106 40l20 -8q-2 -43 -3 -95.5t-1 -115.5v-1076q0 -56 4 -87t18 -46.5t42 -20t76 -7.5q4 -30 0 -60q-55 0 -110.5 2t-119.5 2q-66 0 -120 -2t-112 -2q-5 30 0 59q49 3 78 8t44 19t19.5 41t4.5 74v1051q0 98 -29 133t-105 35
q-142 0 -206 -83.5t-64 -282.5v-152h255q6 -44 0 -88h-254v-593q0 -56 4 -87t18 -46.5t42 -20t76 -7.5q4 -30 0 -60q-55 0 -110.5 2t-119.5 2q-66 0 -120 -2t-112 -2q-5 28 0 59q49 3 78 8t44 19t19.5 41t4.5 74v613h-404v-593q0 -56 4 -87t18 -46.5t42 -20t76 -7.5
q4 -29 0 -60q-55 0 -110.5 2t-119.5 2q-66 0 -120 -2t-112 -2q-4 28 0 59q49 3 78 8t44 19t19.5 41t4.5 74v613h-161q-5 27 0 51q60 12 92.5 20.5t47.5 17.5q15 11 18 22q3 12 6 63q10 237 138.5 367.5t332.5 130.5q188 0 250 -115zM386 901h403l5 102q6 139 54 242
q-67 0 -103 43.5t-36 102.5q-34 11 -90 11q-115 0 -174 -85.5t-59 -279.5v-136zM1870 1419l-132 -442q-11 -2 -28 -0.5t-28 5.5l25 447q7 9 60 9q42 0 103 -11v-8z" />
    <glyph glyph-name="f_f_lcommaaccent" unicode="ff&#x13c;" horiz-adv-x="1736" 
d="M935 1370q132 131 333 131q87 0 156 -26q57 18 106 40l20 -8q-2 -43 -3 -95.5t-1 -115.5v-1076q0 -56 4 -87t18 -46.5t42 -20t76 -7.5q4 -30 0 -60q-55 0 -110.5 2t-119.5 2q-66 0 -120 -2t-112 -2q-5 30 0 59q49 3 78 8t44 19t19.5 41t4.5 74v1051q0 98 -29 133t-105 35
q-142 0 -206 -83.5t-64 -282.5v-152h255q6 -44 0 -88h-254v-593q0 -56 4 -87t18 -46.5t42 -20t76 -7.5q4 -30 0 -60q-55 0 -110.5 2t-119.5 2q-66 0 -120 -2t-112 -2q-5 28 0 59q49 3 78 8t44 19t19.5 41t4.5 74v613h-404v-593q0 -56 4 -87t18 -46.5t42 -20t76 -7.5
q4 -29 0 -60q-55 0 -110.5 2t-119.5 2q-66 0 -120 -2t-112 -2q-4 28 0 59q49 3 78 8t44 19t19.5 41t4.5 74v613h-161q-5 27 0 51q60 12 92.5 20.5t47.5 17.5q15 11 18 22q3 12 6 63q10 237 138.5 367.5t332.5 130.5q188 0 250 -115zM386 901h403l5 102q6 139 54 242
q-67 0 -103 43.5t-36 102.5q-34 11 -90 11q-115 0 -174 -85.5t-59 -279.5v-136zM1333 -494q91 22 135 63t44 105q0 26 -9 55q-36 -36 -86 -36q-40 0 -68.5 27t-28.5 74q0 53 36 84t93 31q76 0 120 -52.5t44 -140.5q0 -103 -70.5 -173t-193.5 -95q-12 28 -16 58z" />
    <glyph glyph-name="f_f_lslash" unicode="ff&#x142;" horiz-adv-x="1736" 
d="M1546 1296v-439l159 69q4 -46 0 -92l-159 -69v-545q0 -56 4 -87t18 -46.5t42 -20t76 -7.5q4 -30 0 -60q-55 0 -110.5 2t-119.5 2q-66 0 -120 -2t-112 -2q-5 29 0 59q49 3 78 8t44 19t19.5 41t4.5 74v489l-152 -66q-4 46 0 92l152 66v470q0 98 -29 133t-105 35
q-142 0 -206 -83.5t-64 -282.5v-152h225q6 -44 0 -88h-224v-593q0 -56 4 -87t18 -46.5t42 -20t76 -7.5q4 -30 0 -60q-55 0 -110.5 2t-119.5 2q-66 0 -120 -2t-112 -2q-5 28 0 59q49 3 78 8t44 19t19.5 41t4.5 74v613h-404v-593q0 -56 4 -87t18 -46.5t42 -20t76 -7.5
q4 -29 0 -60q-55 0 -110.5 2t-119.5 2q-66 0 -120 -2t-112 -2q-4 28 0 59q49 3 78 8t44 19t19.5 41t4.5 74v613h-161q-5 27 0 51q60 12 92.5 20.5t47.5 17.5q15 11 18 22q3 12 6 63q10 237 138.5 367.5t332.5 130.5q188 0 250 -115q132 131 333 131q87 0 156 -26
q57 18 106 40l20 -8q-2 -43 -3 -95.5t-1 -115.5zM386 901h403l5 102q6 139 54 242q-67 0 -103 43.5t-36 102.5q-34 11 -90 11q-115 0 -174 -85.5t-59 -279.5v-136z" />
    <glyph glyph-name="f_f_uni019A" unicode="ff&#x19a;" horiz-adv-x="1736" 
d="M1201 901h169v350q0 98 -29 133t-105 35q-142 0 -206 -83.5t-64 -282.5v-152h180v-86h-179v-595q0 -56 4 -87t18 -46.5t42 -20t76 -7.5q4 -30 0 -60q-55 0 -110.5 2t-119.5 2q-66 0 -120 -2t-112 -2q-5 28 0 59q49 3 78 8t44 19t19.5 41t4.5 74v615h-404v-595
q0 -56 4 -87t18 -46.5t42 -20t76 -7.5q4 -29 0 -60q-55 0 -110.5 2t-119.5 2q-66 0 -120 -2t-112 -2q-4 28 0 59q49 3 78 8t44 19t19.5 41t4.5 74v615h-161q-5 25 0 49q60 12 92.5 20.5t47.5 17.5q15 11 18 22q3 12 6 63q10 237 138.5 367.5t332.5 130.5q188 0 250 -115
q132 131 333 131q87 0 156 -26q57 18 106 40l20 -8q-2 -43 -3 -95.5t-1 -115.5v-395h184q5 -40 0 -86h-184v-595q0 -56 4 -87t18 -46.5t42 -20t76 -7.5q4 -30 0 -60q-55 0 -110.5 2t-119.5 2q-66 0 -120 -2t-112 -2q-5 30 0 59q49 3 78 8t44 19t19.5 41t4.5 74v615h-169v86z
M386 901h403l5 102q6 139 54 242q-67 0 -103 43.5t-36 102.5q-34 11 -90 11q-115 0 -174 -85.5t-59 -279.5v-136z" />
    <glyph glyph-name="uni00660192" unicode="f&#x192;" horiz-adv-x="1224" 
d="M791 813h-404v-593q0 -56 4 -87t18 -46.5t42 -20t76 -7.5q4 -29 0 -60q-55 0 -110.5 2t-119.5 2q-66 0 -120 -2t-112 -2q-4 28 0 59q49 3 78 8t44 19t19.5 41t4.5 74v613h-161q-5 27 0 51q60 12 92.5 20.5t47.5 17.5q15 11 18 22q3 12 6 63q10 237 135.5 367.5
t325.5 130.5q184 0 244 -113q118 129 304 129q98 0 164 -42t66 -110q0 -43 -26.5 -70.5t-67.5 -27.5q-57 0 -96.5 45.5t-39.5 109.5q-26 11 -66 11q-99 0 -145 -85.5t-46 -278.5v-152h255q6 -45 0 -88h-254v-816q0 -241 -114.5 -373t-274.5 -132q-52 0 -89.5 25t-37.5 67
q0 35 25.5 59.5t74.5 24.5q75 0 137 -82q62 30 82.5 110.5t20.5 245.5v871zM386 901h403l3 81q7 155 50 263q-76 0 -112 43.5t-36 102.5q-32 11 -86 11q-109 0 -165.5 -85.5t-56.5 -279.5v-136z" />
    <glyph glyph-name="uni006601920062" unicode="f&#x192;b" horiz-adv-x="2303" 
d="M791 -58v871h-404v-593q0 -56 4 -87t18 -46.5t42 -20t76 -7.5q4 -29 0 -60q-55 0 -110.5 2t-119.5 2q-66 0 -120 -2t-112 -2q-4 28 0 59q49 3 78 8t44 19t19.5 41t4.5 74v613h-161q-5 27 0 51q60 12 92.5 20.5t47.5 17.5q15 11 18 22q3 12 6 63q10 237 138.5 367.5
t332.5 130.5q188 0 250 -115q132 131 333 131q87 0 156 -26q57 18 104 40l20 -8q-2 -43 -3 -95.5t-1 -115.5v-483q144 133 312 133q161 0 268 -128.5t107 -318.5q0 -217 -137 -367t-347 -150q-148 0 -286 72q-29 -31 -51 -67q-27 2 -44 8q4 67 4 225v1031q0 98 -29 133
t-105 35q-142 0 -206 -83.5t-64 -282.5v-152h255q6 -44 0 -88h-254v-816q0 -241 -114.5 -373t-274.5 -132q-52 0 -89.5 25t-37.5 67q0 35 25.5 59.5t74.5 24.5q75 0 137 -82q62 30 82.5 110.5t20.5 245.5zM1542 156q91 -97 223 -97q141 0 213.5 102t72.5 266q0 177 -74 288
t-212 111q-125 0 -223 -94v-576zM386 901h403l5 102q6 139 54 242q-67 0 -103 43.5t-36 102.5q-34 11 -90 11q-115 0 -174 -85.5t-59 -279.5v-136z" />
    <glyph glyph-name="uni006601920180" unicode="f&#x192;&#x180;" horiz-adv-x="2303" 
d="M791 813h-404v-593q0 -56 4 -87t18 -46.5t42 -20t76 -7.5q4 -29 0 -60q-55 0 -110.5 2t-119.5 2q-66 0 -120 -2t-112 -2q-4 28 0 59q49 3 78 8t44 19t19.5 41t4.5 74v613h-161q-5 27 0 51q60 12 92.5 20.5t47.5 17.5q15 11 18 22q3 12 6 63q10 237 138.5 367.5
t332.5 130.5q188 0 250 -115q132 131 333 131q87 0 156 -26q57 18 104 40l20 -8q-2 -43 -3 -95.5t-1 -115.5v-110h356q6 -40 0 -82h-356v-311q144 133 312 133q161 0 268 -126t107 -312q0 -212 -137 -359t-347 -147q-148 0 -286 72q-29 -31 -51 -67q-27 2 -44 8q4 67 4 225
v884h-149q-5 40 0 82h149v65q0 98 -29 133t-105 35q-142 0 -206 -83.5t-64 -282.5v-152h250q6 -44 0 -88h-249v-816q0 -241 -114.5 -373t-274.5 -132q-52 0 -89.5 25t-37.5 67q0 35 25.5 59.5t74.5 24.5q75 0 137 -82q62 30 82.5 110.5t20.5 245.5v871zM1542 153
q91 -94 223 -94q141 0 213.5 99.5t72.5 258.5q0 173 -74 281t-212 108q-125 0 -223 -92v-561zM386 901h403l5 102q6 139 54 242q-67 0 -103 43.5t-36 102.5q-34 11 -90 11q-115 0 -174 -85.5t-59 -279.5v-136z" />
    <glyph glyph-name="uni006601920068" unicode="f&#x192;h" horiz-adv-x="2325" 
d="M791 -58v871h-404v-593q0 -56 4 -87t18 -46.5t42 -20t76 -7.5q4 -29 0 -60q-55 0 -110.5 2t-119.5 2q-66 0 -120 -2t-112 -2q-4 28 0 59q49 3 78 8t44 19t19.5 41t4.5 74v613h-161q-5 27 0 51q60 12 92.5 20.5t47.5 17.5q15 11 18 22q3 12 6 63q10 237 138.5 367.5
t332.5 130.5q188 0 250 -115q132 131 333 131q87 0 156 -26q57 18 106 40l20 -8q-2 -43 -3 -95.5t-1 -115.5v-498q162 148 335 148q130 0 197 -75t67 -215v-436q0 -56 4 -87t18 -46.5t40 -20t75 -7.5q4 -30 0 -60q-56 0 -109.5 2t-117.5 2q-65 0 -117.5 -2t-104.5 -2
q-4 29 0 59q44 3 70.5 8t41.5 19t19.5 40.5t4.5 74.5v388q0 135 -47.5 182.5t-141.5 47.5q-132 0 -234 -99v-499q0 -56 4 -87t18 -46.5t41 -20t72 -7.5q4 -30 0 -60q-50 0 -105.5 2t-119.5 2q-66 0 -120 -2t-112 -2q-5 29 0 59q49 3 78 8t44 19t19.5 41t4.5 74v1051
q0 98 -29 133t-105 35q-142 0 -206 -83.5t-64 -282.5v-152h255q6 -44 0 -88h-254v-816q0 -241 -114.5 -373t-274.5 -132q-52 0 -89.5 25t-37.5 67q0 35 25.5 59.5t74.5 24.5q75 0 137 -82q62 30 82.5 110.5t20.5 245.5zM386 901h403l5 102q6 139 54 242q-67 0 -103 43.5
t-36 102.5q-34 11 -90 11q-115 0 -174 -85.5t-59 -279.5v-136z" />
    <glyph glyph-name="uni006601920125" unicode="f&#x192;&#x125;" horiz-adv-x="2325" 
d="M791 -58v871h-404v-593q0 -56 4 -87t18 -46.5t42 -20t76 -7.5q4 -29 0 -60q-55 0 -110.5 2t-119.5 2q-66 0 -120 -2t-112 -2q-4 28 0 59q49 3 78 8t44 19t19.5 41t4.5 74v613h-161q-5 27 0 51q60 12 92.5 20.5t47.5 17.5q15 11 18 22q3 12 6 63q10 237 138.5 367.5
t332.5 130.5q188 0 250 -115q132 131 333 131q87 0 156 -26q57 18 106 40l20 -8q-2 -43 -3 -95.5t-1 -115.5v-498q162 148 335 148q130 0 197 -75t67 -215v-436q0 -56 4 -87t18 -46.5t40 -20t75 -7.5q4 -30 0 -60q-56 0 -109.5 2t-117.5 2q-65 0 -117.5 -2t-104.5 -2
q-4 29 0 59q44 3 70.5 8t41.5 19t19.5 40.5t4.5 74.5v388q0 135 -47.5 182.5t-141.5 47.5q-132 0 -234 -99v-499q0 -56 4 -87t18 -46.5t41 -20t72 -7.5q4 -30 0 -60q-50 0 -105.5 2t-119.5 2q-66 0 -120 -2t-112 -2q-5 29 0 59q49 3 78 8t44 19t19.5 41t4.5 74v1051
q0 98 -29 133t-105 35q-142 0 -206 -83.5t-64 -282.5v-152h255q6 -44 0 -88h-254v-816q0 -241 -114.5 -373t-274.5 -132q-52 0 -89.5 25t-37.5 67q0 35 25.5 59.5t74.5 24.5q75 0 137 -82q62 30 82.5 110.5t20.5 245.5zM386 901h403l5 102q6 139 54 242q-67 0 -103 43.5
t-36 102.5q-34 11 -90 11q-115 0 -174 -85.5t-59 -279.5v-136zM1461 1730q-125 -96 -276 -189q-28 4 -54 23q30 31 64.5 71t70 81.5t68 82t58.5 72.5q29 7 71 7q37 0 71 -7q25 -32 57.5 -72.5t68 -82t70.5 -81.5t65 -71q-26 -19 -54 -23q-152 92 -280 189z" />
    <glyph glyph-name="uni006601921E96" unicode="f&#x192;&#x1e96;" horiz-adv-x="2325" 
d="M791 -58v871h-404v-593q0 -56 4 -87t18 -46.5t42 -20t76 -7.5q4 -29 0 -60q-55 0 -110.5 2t-119.5 2q-66 0 -120 -2t-112 -2q-4 28 0 59q49 3 78 8t44 19t19.5 41t4.5 74v613h-161q-5 27 0 51q60 12 92.5 20.5t47.5 17.5q15 11 18 22q3 12 6 63q10 237 138.5 367.5
t332.5 130.5q188 0 250 -115q132 131 333 131q87 0 156 -26q57 18 106 40l20 -8q-2 -43 -3 -95.5t-1 -115.5v-498q162 148 335 148q130 0 197 -75t67 -215v-436q0 -56 4 -87t18 -46.5t40 -20t75 -7.5q4 -30 0 -60q-56 0 -109.5 2t-117.5 2q-65 0 -117.5 -2t-104.5 -2
q-4 29 0 59q44 3 70.5 8t41.5 19t19.5 40.5t4.5 74.5v388q0 135 -47.5 182.5t-141.5 47.5q-132 0 -234 -99v-499q0 -56 4 -87t18 -46.5t41 -20t72 -7.5q4 -30 0 -60q-50 0 -105.5 2t-119.5 2q-66 0 -120 -2t-112 -2q-5 29 0 59q49 3 78 8t44 19t19.5 41t4.5 74v1051
q0 98 -29 133t-105 35q-142 0 -206 -83.5t-64 -282.5v-152h255q6 -44 0 -88h-254v-816q0 -241 -114.5 -373t-274.5 -132q-52 0 -89.5 25t-37.5 67q0 35 25.5 59.5t74.5 24.5q75 0 137 -82q62 30 82.5 110.5t20.5 245.5zM386 901h403l5 102q6 139 54 242q-67 0 -103 43.5
t-36 102.5q-34 11 -90 11q-115 0 -174 -85.5t-59 -279.5v-136zM2029 -192q6 -48 0 -96h-548q-6 48 0 96h548z" />
    <glyph glyph-name="uni006601921E2B" unicode="f&#x192;&#x1e2b;" horiz-adv-x="2325" 
d="M791 -58v871h-404v-593q0 -56 4 -87t18 -46.5t42 -20t76 -7.5q4 -29 0 -60q-55 0 -110.5 2t-119.5 2q-66 0 -120 -2t-112 -2q-4 28 0 59q49 3 78 8t44 19t19.5 41t4.5 74v613h-161q-5 27 0 51q60 12 92.5 20.5t47.5 17.5q15 11 18 22q3 12 6 63q10 237 138.5 367.5
t332.5 130.5q188 0 250 -115q132 131 333 131q87 0 156 -26q57 18 106 40l20 -8q-2 -43 -3 -95.5t-1 -115.5v-498q162 148 335 148q130 0 197 -75t67 -215v-436q0 -56 4 -87t18 -46.5t40 -20t75 -7.5q4 -30 0 -60q-56 0 -109.5 2t-117.5 2q-65 0 -117.5 -2t-104.5 -2
q-4 29 0 59q44 3 70.5 8t41.5 19t19.5 40.5t4.5 74.5v388q0 135 -47.5 182.5t-141.5 47.5q-132 0 -234 -99v-499q0 -56 4 -87t18 -46.5t41 -20t72 -7.5q4 -30 0 -60q-50 0 -105.5 2t-119.5 2q-66 0 -120 -2t-112 -2q-5 29 0 59q49 3 78 8t44 19t19.5 41t4.5 74v1051
q0 98 -29 133t-105 35q-142 0 -206 -83.5t-64 -282.5v-152h255q6 -44 0 -88h-254v-816q0 -241 -114.5 -373t-274.5 -132q-52 0 -89.5 25t-37.5 67q0 35 25.5 59.5t74.5 24.5q75 0 137 -82q62 30 82.5 110.5t20.5 245.5zM386 901h403l5 102q6 139 54 242q-67 0 -103 43.5
t-36 102.5q-34 11 -90 11q-115 0 -174 -85.5t-59 -279.5v-136zM1988 -111q31 -3 60 -12q-14 -169 -92 -253t-203 -84t-201 84t-90 253q28 9 60 12q23 -106 82.5 -157.5t150.5 -51.5q93 0 152.5 53t80.5 156z" />
    <glyph glyph-name="uni006601921E25" unicode="f&#x192;&#x1e25;" horiz-adv-x="2325" 
d="M791 -58v871h-404v-593q0 -56 4 -87t18 -46.5t42 -20t76 -7.5q4 -29 0 -60q-55 0 -110.5 2t-119.5 2q-66 0 -120 -2t-112 -2q-4 28 0 59q49 3 78 8t44 19t19.5 41t4.5 74v613h-161q-5 27 0 51q60 12 92.5 20.5t47.5 17.5q15 11 18 22q3 12 6 63q10 237 138.5 367.5
t332.5 130.5q188 0 250 -115q132 131 333 131q87 0 156 -26q57 18 106 40l20 -8q-2 -43 -3 -95.5t-1 -115.5v-498q162 148 335 148q130 0 197 -75t67 -215v-436q0 -56 4 -87t18 -46.5t40 -20t75 -7.5q4 -30 0 -60q-56 0 -109.5 2t-117.5 2q-65 0 -117.5 -2t-104.5 -2
q-4 29 0 59q44 3 70.5 8t41.5 19t19.5 40.5t4.5 74.5v388q0 135 -47.5 182.5t-141.5 47.5q-132 0 -234 -99v-499q0 -56 4 -87t18 -46.5t41 -20t72 -7.5q4 -30 0 -60q-50 0 -105.5 2t-119.5 2q-66 0 -120 -2t-112 -2q-5 29 0 59q49 3 78 8t44 19t19.5 41t4.5 74v1051
q0 98 -29 133t-105 35q-142 0 -206 -83.5t-64 -282.5v-152h255q6 -44 0 -88h-254v-816q0 -241 -114.5 -373t-274.5 -132q-52 0 -89.5 25t-37.5 67q0 35 25.5 59.5t74.5 24.5q75 0 137 -82q62 30 82.5 110.5t20.5 245.5zM386 901h403l5 102q6 139 54 242q-67 0 -103 43.5
t-36 102.5q-34 11 -90 11q-115 0 -174 -85.5t-59 -279.5v-136zM1637 -298q0 47 33 81.5t84 34.5q52 0 85.5 -34.5t33.5 -81.5q0 -46 -33.5 -80.5t-85.5 -34.5q-51 0 -84 34.5t-33 80.5z" />
    <glyph glyph-name="uni006601920127" unicode="f&#x192;&#x127;" horiz-adv-x="2325" 
d="M791 813h-404v-593q0 -56 4 -87t18 -46.5t42 -20t76 -7.5q4 -29 0 -60q-55 0 -110.5 2t-119.5 2q-66 0 -120 -2t-112 -2q-4 28 0 59q49 3 78 8t44 19t19.5 41t4.5 74v613h-161q-5 27 0 51q60 12 92.5 20.5t47.5 17.5q15 11 18 22q3 12 6 63q10 237 138.5 367.5
t332.5 130.5q188 0 250 -115q132 131 333 131q87 0 156 -26q57 18 106 40l20 -8q-2 -43 -3 -95.5t-1 -115.5v-110h354q6 -40 0 -82h-354v-326q162 148 335 148q130 0 197 -75t67 -215v-416q0 -56 4 -87t18 -46.5t40 -20t75 -7.5q4 -30 0 -60q-56 0 -109.5 2t-117.5 2
q-65 0 -117.5 -2t-104.5 -2q-4 29 0 59q44 3 70.5 8t41.5 19t19.5 40.5t4.5 74.5v368q0 135 -47.5 182.5t-141.5 47.5q-132 0 -234 -99v-479q0 -56 4 -87t18 -46.5t41 -20t72 -7.5q4 -30 0 -60q-50 0 -105.5 2t-119.5 2q-66 0 -120 -2t-112 -2q-5 29 0 59q49 3 78 8t44 19
t19.5 41t4.5 74v904h-149q-5 40 0 82h149v65q0 98 -29 133t-105 35q-142 0 -206 -83.5t-64 -282.5v-152h250q6 -44 0 -88h-249v-816q0 -241 -114.5 -373t-274.5 -132q-52 0 -89.5 25t-37.5 67q0 35 25.5 59.5t74.5 24.5q75 0 137 -82q62 30 82.5 110.5t20.5 245.5v871z
M386 901h403l5 102q6 139 54 242q-67 0 -103 43.5t-36 102.5q-34 11 -90 11q-115 0 -174 -85.5t-59 -279.5v-136z" />
    <glyph glyph-name="uni006601920069" unicode="f&#x192;i" horiz-adv-x="1735" 
d="M791 813h-404v-593q0 -56 4 -87t18 -46.5t42 -20t76 -7.5q4 -29 0 -60q-55 0 -110.5 2t-119.5 2q-66 0 -120 -2t-112 -2q-4 28 0 59q49 3 78 8t44 19t19.5 41t4.5 74v613h-161q-5 27 0 51q60 12 92.5 20.5t47.5 17.5q15 11 18 22q3 12 6 63q10 237 138.5 367.5
t332.5 130.5q189 0 250 -116v1q132 131 343 131q114 0 186.5 -41t72.5 -109q0 -48 -29 -73.5t-68 -25.5q-54 0 -92.5 46t-38.5 108q-35 12 -96 12q-122 0 -184.5 -85.5t-62.5 -279.5v-152h352q48 0 97 13t114 40l20 -8q-4 -119 -4 -211v-515q0 -56 4 -87t18 -46.5t42 -20
t76 -7.5q4 -30 0 -60q-55 0 -110.5 2t-119.5 2t-118.5 -2t-112.5 -2q-5 29 0 59q49 3 78 8t44 19t19.5 41t4.5 74v522q0 57 -19.5 74t-70.5 17h-313v-816q0 -241 -114.5 -373t-274.5 -132q-52 0 -89.5 25t-37.5 67q0 35 25.5 59.5t74.5 24.5q75 0 137 -82q62 30 82.5 110.5
t20.5 245.5v871zM386 901h403l5 102q6 139 53 241q-62 0 -100 44t-38 103q-34 11 -90 11q-115 0 -174 -85.5t-59 -279.5v-136z" />
    <glyph glyph-name="uni00660192012F" unicode="f&#x192;&#x12f;" horiz-adv-x="1735" 
d="M791 813h-404v-593q0 -56 4 -87t18 -46.5t42 -20t76 -7.5q4 -29 0 -60q-55 0 -110.5 2t-119.5 2q-66 0 -120 -2t-112 -2q-4 28 0 59q49 3 78 8t44 19t19.5 41t4.5 74v613h-161q-5 27 0 51q60 12 92.5 20.5t47.5 17.5q15 11 18 22q3 12 6 63q10 237 138.5 367.5
t332.5 130.5q189 0 250 -116v1q132 131 343 131q114 0 186.5 -41t72.5 -109q0 -48 -29 -73.5t-68 -25.5q-54 0 -92.5 46t-38.5 108q-35 12 -96 12q-122 0 -184.5 -85.5t-62.5 -279.5v-152h352q48 0 97 13t114 40l20 -8q-4 -119 -4 -211v-515q0 -56 4 -87t18 -46.5t42 -20
t76 -7.5q4 -30 0 -60q-49 0 -98 1q-150 -130 -150 -266q0 -60 36 -89.5t100 -29.5q35 0 67 7q13 -19 17 -42q-95 -70 -188 -70q-88 0 -143.5 49t-55.5 132q0 173 243 312h-58q-64 0 -118.5 -2t-112.5 -2q-4 29 0 59q49 3 78 8t44 19t19.5 40.5t4.5 74.5v522q0 57 -19.5 74
t-70.5 17h-313v-816q0 -241 -114.5 -373t-274.5 -132q-52 0 -89.5 25t-37.5 67q0 35 25.5 59.5t74.5 24.5q75 0 137 -82q62 30 82.5 110.5t20.5 245.5v871zM386 901h403l5 102q6 139 53 241q-62 0 -100 44t-38 103q-34 11 -90 11q-115 0 -174 -85.5t-59 -279.5v-136z" />
    <glyph glyph-name="uni006601920268" unicode="f&#x192;&#x268;" horiz-adv-x="1755" 
d="M791 -58v871h-404v-593q0 -56 4 -87t18 -46.5t42 -20t76 -7.5q4 -29 0 -60q-55 0 -110.5 2t-119.5 2q-66 0 -120 -2t-112 -2q-4 28 0 59q49 3 78 8t44 19t19.5 41t4.5 74v613h-161q-5 27 0 51q60 12 92.5 20.5t47.5 17.5q15 11 18 22q3 12 6 63q10 237 138.5 367.5
t332.5 130.5q189 0 250 -116v1q132 131 343 131q114 0 186.5 -41t72.5 -109q0 -48 -29 -73.5t-68 -25.5q-54 0 -92.5 46t-38.5 108q-35 12 -96 12q-122 0 -184.5 -85.5t-62.5 -279.5v-152h352q48 0 97 13t114 40l20 -8q-4 -119 -4 -211v-195h184q5 -40 0 -82h-184v-238
q0 -56 4 -87t18 -46.5t42 -20t76 -7.5q4 -30 0 -60q-55 0 -110.5 2t-119.5 2t-118.5 -2t-112.5 -2q-5 29 0 59q49 3 78 8t44 19t19.5 41t4.5 74v258h-185q-5 40 0 82h185v182q0 57 -19.5 74t-70.5 17h-313v-816q0 -241 -114.5 -373t-274.5 -132q-52 0 -89.5 25t-37.5 67
q0 35 25.5 59.5t74.5 24.5q75 0 137 -82q62 30 82.5 110.5t20.5 245.5zM386 901h403l5 102q6 139 53 241q-62 0 -100 44t-38 103q-34 11 -90 11q-115 0 -174 -85.5t-59 -279.5v-136z" />
    <glyph glyph-name="uni00660192006A" unicode="f&#x192;j" horiz-adv-x="1712" 
d="M791 -58v871h-404v-593q0 -56 4 -87t18 -46.5t42 -20t76 -7.5q4 -29 0 -60q-55 0 -110.5 2t-119.5 2q-66 0 -120 -2t-112 -2q-4 28 0 59q49 3 78 8t44 19t19.5 41t4.5 74v613h-161q-5 27 0 51q60 12 92.5 20.5t47.5 17.5q15 11 18 22q3 12 6 63q10 237 138.5 367.5
t332.5 130.5q189 0 250 -116v1q132 131 343 131q114 0 186.5 -41t72.5 -109q0 -48 -29 -73.5t-68 -25.5q-58 0 -94.5 46t-36.5 108q-35 12 -96 12q-122 0 -184.5 -85.5t-62.5 -279.5v-152h352q48 0 97 13t114 40l20 -8q-4 -119 -4 -211q1 -93 2 -286t1 -283v-169
q0 -241 -114.5 -373t-273.5 -132q-53 0 -90 25t-37 67q0 35 25.5 59.5t73.5 24.5q76 0 137 -82q62 30 82.5 110.5t20.5 245.5q0 115 -1 360t-1 420q0 57 -19.5 74t-70.5 17h-313v-816q0 -241 -114.5 -373t-274.5 -132q-52 0 -89.5 25t-37.5 67q0 35 25.5 59.5t74.5 24.5
q75 0 137 -82q62 30 82.5 110.5t20.5 245.5zM386 901h403l5 102q6 139 53 241q-62 0 -100 44t-38 103q-34 11 -90 11q-115 0 -174 -85.5t-59 -279.5v-136z" />
    <glyph glyph-name="uni00660192006B" unicode="f&#x192;k" horiz-adv-x="2224" 
d="M967 813v-816q0 -241 -114.5 -373t-274.5 -132q-52 0 -89.5 25t-37.5 67q0 35 25.5 59.5t74.5 24.5q75 0 137 -82q62 30 82.5 110.5t20.5 245.5v871h-404v-593q0 -56 4 -87t18 -46.5t42 -20t76 -7.5q4 -29 0 -60q-55 0 -110.5 2t-119.5 2q-66 0 -120 -2t-112 -2
q-4 28 0 59q49 3 78 8t44 19t19.5 41t4.5 74v613h-161q-5 27 0 51q60 12 92.5 20.5t47.5 17.5q15 11 18 22q3 12 6 63q10 237 138.5 367.5t332.5 130.5q188 0 250 -115q132 131 333 131q87 0 156 -26q57 18 106 40l20 -8q-2 -43 -3 -95.5t-1 -115.5v-783q29 0 60 25t149 143
q74 73 96.5 98t22.5 41q0 37 -96 40q-4 30 0 60q42 0 97 -2t102 -2q43 0 113 1.5t107 1.5q4 -30 0 -58q-79 -3 -144 -35t-163 -125l-156 -149l263 -347q66 -88 111.5 -116.5t123.5 -29.5q1 -8 1.5 -15t0.5 -15t-0.5 -15t-1.5 -15q-23 0 -73.5 2t-143.5 2q-48 0 -107 -4
q0 26 -59.5 111t-210.5 287q-33 44 -50.5 53.5t-41.5 9.5v-240q0 -56 3.5 -87t16.5 -46.5t39 -20t71 -7.5q4 -30 0 -60q-53 0 -106 2t-114 2q-66 0 -120 -2t-112 -2q-5 29 0 59q49 3 78 8t44 19t19.5 41t4.5 74v1051q0 98 -29 133t-105 35q-142 0 -206 -83.5t-64 -282.5
v-152h255q6 -44 0 -88h-254zM386 901h403l5 102q6 139 54 242q-67 0 -103 43.5t-36 102.5q-34 11 -90 11q-115 0 -174 -85.5t-59 -279.5v-136z" />
    <glyph glyph-name="uni006601920135" unicode="f&#x192;&#x1e35;" horiz-adv-x="2224" 
d="M967 813v-816q0 -241 -114.5 -373t-274.5 -132q-52 0 -89.5 25t-37.5 67q0 35 25.5 59.5t74.5 24.5q75 0 137 -82q62 30 82.5 110.5t20.5 245.5v871h-404v-593q0 -56 4 -87t18 -46.5t42 -20t76 -7.5q4 -29 0 -60q-55 0 -110.5 2t-119.5 2q-66 0 -120 -2t-112 -2
q-4 28 0 59q49 3 78 8t44 19t19.5 41t4.5 74v613h-161q-5 27 0 51q60 12 92.5 20.5t47.5 17.5q15 11 18 22q3 12 6 63q10 237 138.5 367.5t332.5 130.5q188 0 250 -115q132 131 333 131q87 0 156 -26q57 18 106 40l20 -8q-2 -43 -3 -95.5t-1 -115.5v-783q29 0 60 25t149 143
q74 73 96.5 98t22.5 41q0 37 -96 40q-4 30 0 60q42 0 97 -2t102 -2q43 0 113 1.5t107 1.5q4 -30 0 -58q-79 -3 -144 -35t-163 -125l-156 -149l263 -347q66 -88 111.5 -116.5t123.5 -29.5q1 -8 1.5 -15t0.5 -15t-0.5 -15t-1.5 -15q-23 0 -73.5 2t-143.5 2q-48 0 -107 -4
q0 26 -59.5 111t-210.5 287q-33 44 -50.5 53.5t-41.5 9.5v-240q0 -56 3.5 -87t16.5 -46.5t39 -20t71 -7.5q4 -30 0 -60q-53 0 -106 2t-114 2q-66 0 -120 -2t-112 -2q-5 29 0 59q49 3 78 8t44 19t19.5 41t4.5 74v1051q0 98 -29 133t-105 35q-142 0 -206 -83.5t-64 -282.5
v-152h255q6 -44 0 -88h-254zM386 901h403l5 102q6 139 54 242q-67 0 -103 43.5t-36 102.5q-34 11 -90 11q-115 0 -174 -85.5t-59 -279.5v-136zM2004 -192q6 -48 0 -96h-548q-6 48 0 96h548z" />
    <glyph glyph-name="uni006601921E33" unicode="f&#x192;&#x1e33;" horiz-adv-x="2224" 
d="M967 813v-816q0 -241 -114.5 -373t-274.5 -132q-52 0 -89.5 25t-37.5 67q0 35 25.5 59.5t74.5 24.5q75 0 137 -82q62 30 82.5 110.5t20.5 245.5v871h-404v-593q0 -56 4 -87t18 -46.5t42 -20t76 -7.5q4 -29 0 -60q-55 0 -110.5 2t-119.5 2q-66 0 -120 -2t-112 -2
q-4 28 0 59q49 3 78 8t44 19t19.5 41t4.5 74v613h-161q-5 27 0 51q60 12 92.5 20.5t47.5 17.5q15 11 18 22q3 12 6 63q10 237 138.5 367.5t332.5 130.5q188 0 250 -115q132 131 333 131q87 0 156 -26q57 18 106 40l20 -8q-2 -43 -3 -95.5t-1 -115.5v-783q29 0 60 25t149 143
q74 73 96.5 98t22.5 41q0 37 -96 40q-4 30 0 60q42 0 97 -2t102 -2q43 0 113 1.5t107 1.5q4 -30 0 -58q-79 -3 -144 -35t-163 -125l-156 -149l263 -347q66 -88 111.5 -116.5t123.5 -29.5q1 -8 1.5 -15t0.5 -15t-0.5 -15t-1.5 -15q-23 0 -73.5 2t-143.5 2q-48 0 -107 -4
q0 26 -59.5 111t-210.5 287q-33 44 -50.5 53.5t-41.5 9.5v-240q0 -56 3.5 -87t16.5 -46.5t39 -20t71 -7.5q4 -30 0 -60q-53 0 -106 2t-114 2q-66 0 -120 -2t-112 -2q-5 29 0 59q49 3 78 8t44 19t19.5 41t4.5 74v1051q0 98 -29 133t-105 35q-142 0 -206 -83.5t-64 -282.5
v-152h255q6 -44 0 -88h-254zM386 901h403l5 102q6 139 54 242q-67 0 -103 43.5t-36 102.5q-34 11 -90 11q-115 0 -174 -85.5t-59 -279.5v-136zM1612 -298q0 47 33 81.5t84 34.5q52 0 85.5 -34.5t33.5 -81.5q0 -46 -33.5 -80.5t-85.5 -34.5q-51 0 -84 34.5t-33 80.5z" />
    <glyph glyph-name="uni006601921E37" unicode="f&#x192;&#x137;" horiz-adv-x="2224" 
d="M967 813v-816q0 -241 -114.5 -373t-274.5 -132q-52 0 -89.5 25t-37.5 67q0 35 25.5 59.5t74.5 24.5q75 0 137 -82q62 30 82.5 110.5t20.5 245.5v871h-404v-593q0 -56 4 -87t18 -46.5t42 -20t76 -7.5q4 -29 0 -60q-55 0 -110.5 2t-119.5 2q-66 0 -120 -2t-112 -2
q-4 28 0 59q49 3 78 8t44 19t19.5 41t4.5 74v613h-161q-5 27 0 51q60 12 92.5 20.5t47.5 17.5q15 11 18 22q3 12 6 63q10 237 138.5 367.5t332.5 130.5q188 0 250 -115q132 131 333 131q87 0 156 -26q57 18 106 40l20 -8q-2 -43 -3 -95.5t-1 -115.5v-783q29 0 60 25t149 143
q74 73 96.5 98t22.5 41q0 37 -96 40q-4 30 0 60q42 0 97 -2t102 -2q43 0 113 1.5t107 1.5q4 -30 0 -58q-79 -3 -144 -35t-163 -125l-156 -149l263 -347q66 -88 111.5 -116.5t123.5 -29.5q1 -8 1.5 -15t0.5 -15t-0.5 -15t-1.5 -15q-23 0 -73.5 2t-143.5 2q-48 0 -107 -4
q0 26 -59.5 111t-210.5 287q-33 44 -50.5 53.5t-41.5 9.5v-240q0 -56 3.5 -87t16.5 -46.5t39 -20t71 -7.5q4 -30 0 -60q-53 0 -106 2t-114 2q-66 0 -120 -2t-112 -2q-5 29 0 59q49 3 78 8t44 19t19.5 41t4.5 74v1051q0 98 -29 133t-105 35q-142 0 -206 -83.5t-64 -282.5
v-152h255q6 -44 0 -88h-254zM386 901h403l5 102q6 139 54 242q-67 0 -103 43.5t-36 102.5q-34 11 -90 11q-115 0 -174 -85.5t-59 -279.5v-136zM1608 -494q91 22 135 63t44 105q0 26 -9 55q-36 -36 -86 -36q-40 0 -68.5 27t-28.5 74q0 53 36 84t93 31q76 0 120 -52.5
t44 -140.5q0 -103 -70.5 -173t-193.5 -95q-12 28 -16 58z" />
    <glyph glyph-name="uni00660192006C" unicode="f&#x192;l" horiz-adv-x="1736" 
d="M967 813v-816q0 -241 -114.5 -373t-274.5 -132q-52 0 -89.5 25t-37.5 67q0 35 25.5 59.5t74.5 24.5q75 0 137 -82q62 30 82.5 110.5t20.5 245.5v871h-404v-593q0 -56 4 -87t18 -46.5t42 -20t76 -7.5q4 -29 0 -60q-55 0 -110.5 2t-119.5 2q-66 0 -120 -2t-112 -2
q-4 28 0 59q49 3 78 8t44 19t19.5 41t4.5 74v613h-161q-5 27 0 51q60 12 92.5 20.5t47.5 17.5q15 11 18 22q3 12 6 63q10 237 138.5 367.5t332.5 130.5q188 0 250 -115q132 131 333 131q87 0 156 -26q57 18 106 40l20 -8q-2 -43 -3 -95.5t-1 -115.5v-1076q0 -56 4 -87
t18 -46.5t42 -20t76 -7.5q4 -30 0 -60q-55 0 -110.5 2t-119.5 2q-66 0 -120 -2t-112 -2q-5 30 0 59q49 3 78 8t44 19t19.5 41t4.5 74v1051q0 98 -29 133t-105 35q-142 0 -206 -83.5t-64 -282.5v-152h255q6 -44 0 -88h-254zM386 901h403l5 102q6 139 54 242q-67 0 -103 43.5
t-36 102.5q-34 11 -90 11q-115 0 -174 -85.5t-59 -279.5v-136z" />
    <glyph glyph-name="uni00660192013A" unicode="f&#x192;&#x13a;" horiz-adv-x="1736" 
d="M967 813v-816q0 -241 -114.5 -373t-274.5 -132q-52 0 -89.5 25t-37.5 67q0 35 25.5 59.5t74.5 24.5q75 0 137 -82q62 30 82.5 110.5t20.5 245.5v871h-404v-593q0 -56 4 -87t18 -46.5t42 -20t76 -7.5q4 -29 0 -60q-55 0 -110.5 2t-119.5 2q-66 0 -120 -2t-112 -2
q-4 28 0 59q49 3 78 8t44 19t19.5 41t4.5 74v613h-161q-5 27 0 51q60 12 92.5 20.5t47.5 17.5q15 11 18 22q3 12 6 63q10 237 138.5 367.5t332.5 130.5q188 0 250 -115q132 131 333 131q87 0 156 -26q57 18 106 40l20 -8q-2 -43 -3 -95.5t-1 -115.5v-1076q0 -56 4 -87
t18 -46.5t42 -20t76 -7.5q4 -30 0 -60q-55 0 -110.5 2t-119.5 2q-66 0 -120 -2t-112 -2q-5 30 0 59q49 3 78 8t44 19t19.5 41t4.5 74v1051q0 98 -29 133t-105 35q-142 0 -206 -83.5t-64 -282.5v-152h255q6 -44 0 -88h-254zM386 901h403l5 102q6 139 54 242q-67 0 -103 43.5
t-36 102.5q-34 11 -90 11q-115 0 -174 -85.5t-59 -279.5v-136zM1745 1758q-33 -17 -80.5 -43.5t-99.5 -56.5t-103 -60.5t-91 -54.5q-25 13 -42 41q33 34 69.5 73t72.5 78t70 76t62 69q29 0 65 -33.5t77 -81.5v-7z" />
    <glyph glyph-name="uni00660192013E" unicode="f&#x192;&#x13e;" horiz-adv-x="1920" 
d="M967 813v-816q0 -241 -114.5 -373t-274.5 -132q-52 0 -89.5 25t-37.5 67q0 35 25.5 59.5t74.5 24.5q75 0 137 -82q62 30 82.5 110.5t20.5 245.5v871h-404v-593q0 -56 4 -87t18 -46.5t42 -20t76 -7.5q4 -29 0 -60q-55 0 -110.5 2t-119.5 2q-66 0 -120 -2t-112 -2
q-4 28 0 59q49 3 78 8t44 19t19.5 41t4.5 74v613h-161q-5 27 0 51q60 12 92.5 20.5t47.5 17.5q15 11 18 22q3 12 6 63q10 237 138.5 367.5t332.5 130.5q188 0 250 -115q132 131 333 131q87 0 156 -26q57 18 106 40l20 -8q-2 -43 -3 -95.5t-1 -115.5v-1076q0 -56 4 -87
t18 -46.5t42 -20t76 -7.5q4 -30 0 -60q-55 0 -110.5 2t-119.5 2q-66 0 -120 -2t-112 -2q-5 30 0 59q49 3 78 8t44 19t19.5 41t4.5 74v1051q0 98 -29 133t-105 35q-142 0 -206 -83.5t-64 -282.5v-152h255q6 -44 0 -88h-254zM386 901h403l5 102q6 139 54 242q-67 0 -103 43.5
t-36 102.5q-34 11 -90 11q-115 0 -174 -85.5t-59 -279.5v-136zM1870 1419l-132 -442q-11 -2 -28 -0.5t-28 5.5l25 447q7 9 60 9q42 0 103 -11v-8z" />
    <glyph glyph-name="uni00660192013C" unicode="f&#x192;&#x13c;" horiz-adv-x="1736" 
d="M967 813v-816q0 -241 -114.5 -373t-274.5 -132q-52 0 -89.5 25t-37.5 67q0 35 25.5 59.5t74.5 24.5q75 0 137 -82q62 30 82.5 110.5t20.5 245.5v871h-404v-593q0 -56 4 -87t18 -46.5t42 -20t76 -7.5q4 -29 0 -60q-55 0 -110.5 2t-119.5 2q-66 0 -120 -2t-112 -2
q-4 28 0 59q49 3 78 8t44 19t19.5 41t4.5 74v613h-161q-5 27 0 51q60 12 92.5 20.5t47.5 17.5q15 11 18 22q3 12 6 63q10 237 138.5 367.5t332.5 130.5q188 0 250 -115q132 131 333 131q87 0 156 -26q57 18 106 40l20 -8q-2 -43 -3 -95.5t-1 -115.5v-1076q0 -56 4 -87
t18 -46.5t42 -20t76 -7.5q4 -30 0 -60q-55 0 -110.5 2t-119.5 2q-66 0 -120 -2t-112 -2q-5 30 0 59q49 3 78 8t44 19t19.5 41t4.5 74v1051q0 98 -29 133t-105 35q-142 0 -206 -83.5t-64 -282.5v-152h255q6 -44 0 -88h-254zM386 901h403l5 102q6 139 54 242q-67 0 -103 43.5
t-36 102.5q-34 11 -90 11q-115 0 -174 -85.5t-59 -279.5v-136zM1333 -494q91 22 135 63t44 105q0 26 -9 55q-36 -36 -86 -36q-40 0 -68.5 27t-28.5 74q0 53 36 84t93 31q76 0 120 -52.5t44 -140.5q0 -103 -70.5 -173t-193.5 -95q-12 28 -16 58z" />
    <glyph glyph-name="uni006601920142" unicode="f&#x192;&#x142;" horiz-adv-x="1736" 
d="M1546 1296v-439l159 69q4 -46 0 -92l-159 -69v-545q0 -56 4 -87t18 -46.5t42 -20t76 -7.5q4 -30 0 -60q-55 0 -110.5 2t-119.5 2q-66 0 -120 -2t-112 -2q-5 29 0 59q49 3 78 8t44 19t19.5 41t4.5 74v489l-152 -66q-4 46 0 92l152 66v470q0 98 -29 133t-105 35
q-142 0 -206 -83.5t-64 -282.5v-152h225q6 -44 0 -88h-224v-816q0 -241 -114.5 -373t-274.5 -132q-52 0 -89.5 25t-37.5 67q0 35 25.5 59.5t74.5 24.5q75 0 137 -82q62 30 82.5 110.5t20.5 245.5v871h-404v-593q0 -56 4 -87t18 -46.5t42 -20t76 -7.5q4 -29 0 -60
q-55 0 -110.5 2t-119.5 2q-66 0 -120 -2t-112 -2q-4 28 0 59q49 3 78 8t44 19t19.5 41t4.5 74v613h-161q-5 27 0 51q60 12 92.5 20.5t47.5 17.5q15 11 18 22q3 12 6 63q10 237 138.5 367.5t332.5 130.5q188 0 250 -115q132 131 333 131q87 0 156 -26q57 18 106 40l20 -8
q-2 -43 -3 -95.5t-1 -115.5zM386 901h403l5 102q6 139 54 242q-67 0 -103 43.5t-36 102.5q-34 11 -90 11q-115 0 -174 -85.5t-59 -279.5v-136z" />
    <glyph glyph-name="uni00660192019A" unicode="f&#x192;&#x19a;" horiz-adv-x="1736" 
d="M1201 901h169v350q0 98 -29 133t-105 35q-142 0 -206 -83.5t-64 -282.5v-152h180v-86h-179v-818q0 -241 -114.5 -373t-274.5 -132q-52 0 -89.5 25t-37.5 67q0 35 25.5 59.5t74.5 24.5q75 0 137 -82q62 30 82.5 110.5t20.5 245.5v873h-404v-595q0 -56 4 -87t18 -46.5
t42 -20t76 -7.5q4 -29 0 -60q-55 0 -110.5 2t-119.5 2q-66 0 -120 -2t-112 -2q-4 28 0 59q49 3 78 8t44 19t19.5 41t4.5 74v615h-161q-5 25 0 49q60 12 92.5 20.5t47.5 17.5q15 11 18 22q3 12 6 63q10 237 138.5 367.5t332.5 130.5q188 0 250 -115q132 131 333 131
q87 0 156 -26q57 18 106 40l20 -8q-2 -43 -3 -95.5t-1 -115.5v-395h184q5 -40 0 -86h-184v-595q0 -56 4 -87t18 -46.5t42 -20t76 -7.5q4 -30 0 -60q-55 0 -110.5 2t-119.5 2q-66 0 -120 -2t-112 -2q-5 30 0 59q49 3 78 8t44 19t19.5 41t4.5 74v615h-169v86zM386 901h403
l5 102q6 139 54 242q-67 0 -103 43.5t-36 102.5q-34 11 -90 11q-115 0 -174 -85.5t-59 -279.5v-136z" />
    <glyph glyph-name="f_h" unicode="fh" horiz-adv-x="1745" 
d="M966 1296v-498q162 148 335 148q130 0 197 -75t67 -215v-436q0 -56 4 -87t18 -46.5t40 -20t75 -7.5q4 -30 0 -60q-56 0 -109.5 2t-117.5 2q-65 0 -117.5 -2t-104.5 -2q-4 29 0 59q44 3 70.5 8t41.5 19t19.5 40.5t4.5 74.5v388q0 135 -47.5 182.5t-141.5 47.5
q-132 0 -234 -99v-499q0 -56 4 -87t18 -46.5t41 -20t72 -7.5q4 -30 0 -60q-50 0 -105.5 2t-119.5 2q-66 0 -120 -2t-112 -2q-5 29 0 59q49 3 78 8t44 19t19.5 41t4.5 74v1051q0 98 -29 133t-105 35q-142 0 -206 -83.5t-64 -282.5v-152h255q6 -44 0 -88h-254v-593
q0 -56 4 -87t18 -46.5t42 -20t76 -7.5q4 -30 0 -60q-55 0 -110.5 2t-119.5 2q-66 0 -120 -2t-112 -2q-5 28 0 59q49 3 78 8t44 19t19.5 41t4.5 74v613h-161q-5 27 0 51q60 12 92.5 20.5t47.5 18t18 21.5t6 79q10 236 141.5 367t332.5 131q87 0 156 -26q55 18 106 40l20 -8
q-2 -43 -3 -95.5t-1 -115.5z" />
    <glyph glyph-name="f_hcircumflex" unicode="f&#x125;" horiz-adv-x="1745" 
d="M966 1296v-498q162 148 335 148q130 0 197 -75t67 -215v-436q0 -56 4 -87t18 -46.5t40 -20t75 -7.5q4 -30 0 -60q-56 0 -109.5 2t-117.5 2q-65 0 -117.5 -2t-104.5 -2q-4 29 0 59q44 3 70.5 8t41.5 19t19.5 40.5t4.5 74.5v388q0 135 -47.5 182.5t-141.5 47.5
q-132 0 -234 -99v-499q0 -56 4 -87t18 -46.5t41 -20t72 -7.5q4 -30 0 -60q-50 0 -105.5 2t-119.5 2q-66 0 -120 -2t-112 -2q-5 29 0 59q49 3 78 8t44 19t19.5 41t4.5 74v1051q0 98 -29 133t-105 35q-142 0 -206 -83.5t-64 -282.5v-152h255q6 -44 0 -88h-254v-593
q0 -56 4 -87t18 -46.5t42 -20t76 -7.5q4 -30 0 -60q-55 0 -110.5 2t-119.5 2q-66 0 -120 -2t-112 -2q-5 28 0 59q49 3 78 8t44 19t19.5 41t4.5 74v613h-161q-5 27 0 51q60 12 92.5 20.5t47.5 18t18 21.5t6 79q10 236 141.5 367t332.5 131q87 0 156 -26q55 18 106 40l20 -8
q-2 -43 -3 -95.5t-1 -115.5zM861 1730q-125 -96 -276 -189q-28 4 -54 23q30 31 64.5 71t70 81.5t68 82t58.5 72.5q29 7 71 7q37 0 71 -7q25 -32 57.5 -72.5t68 -82t70.5 -81.5t65 -71q-26 -19 -54 -23q-152 92 -280 189z" />
    <glyph glyph-name="f_uni1E96" unicode="f&#x1e96;" horiz-adv-x="1745" 
d="M966 1296v-498q162 148 335 148q130 0 197 -75t67 -215v-436q0 -56 4 -87t18 -46.5t40 -20t75 -7.5q4 -30 0 -60q-56 0 -109.5 2t-117.5 2q-65 0 -117.5 -2t-104.5 -2q-4 29 0 59q44 3 70.5 8t41.5 19t19.5 40.5t4.5 74.5v388q0 135 -47.5 182.5t-141.5 47.5
q-132 0 -234 -99v-499q0 -56 4 -87t18 -46.5t41 -20t72 -7.5q4 -30 0 -60q-50 0 -105.5 2t-119.5 2q-66 0 -120 -2t-112 -2q-5 29 0 59q49 3 78 8t44 19t19.5 41t4.5 74v1051q0 98 -29 133t-105 35q-142 0 -206 -83.5t-64 -282.5v-152h255q6 -44 0 -88h-254v-593
q0 -56 4 -87t18 -46.5t42 -20t76 -7.5q4 -30 0 -60q-55 0 -110.5 2t-119.5 2q-66 0 -120 -2t-112 -2q-5 28 0 59q49 3 78 8t44 19t19.5 41t4.5 74v613h-161q-5 27 0 51q60 12 92.5 20.5t47.5 18t18 21.5t6 79q10 236 141.5 367t332.5 131q87 0 156 -26q55 18 106 40l20 -8
q-2 -43 -3 -95.5t-1 -115.5zM1449 -192q6 -48 0 -96h-548q-6 48 0 96h548z" />
    <glyph glyph-name="f_uni1E2B" unicode="f&#x1e2b;" horiz-adv-x="1745" 
d="M966 1296v-498q162 148 335 148q130 0 197 -75t67 -215v-436q0 -56 4 -87t18 -46.5t40 -20t75 -7.5q4 -30 0 -60q-56 0 -109.5 2t-117.5 2q-65 0 -117.5 -2t-104.5 -2q-4 29 0 59q44 3 70.5 8t41.5 19t19.5 40.5t4.5 74.5v388q0 135 -47.5 182.5t-141.5 47.5
q-132 0 -234 -99v-499q0 -56 4 -87t18 -46.5t41 -20t72 -7.5q4 -30 0 -60q-50 0 -105.5 2t-119.5 2q-66 0 -120 -2t-112 -2q-5 29 0 59q49 3 78 8t44 19t19.5 41t4.5 74v1051q0 98 -29 133t-105 35q-142 0 -206 -83.5t-64 -282.5v-152h255q6 -44 0 -88h-254v-593
q0 -56 4 -87t18 -46.5t42 -20t76 -7.5q4 -30 0 -60q-55 0 -110.5 2t-119.5 2q-66 0 -120 -2t-112 -2q-5 28 0 59q49 3 78 8t44 19t19.5 41t4.5 74v613h-161q-5 27 0 51q60 12 92.5 20.5t47.5 18t18 21.5t6 79q10 236 141.5 367t332.5 131q87 0 156 -26q55 18 106 40l20 -8
q-2 -43 -3 -95.5t-1 -115.5zM1408 -111q31 -3 60 -12q-14 -169 -92 -253t-203 -84t-201 84t-90 253q28 9 60 12q23 -106 82.5 -157.5t150.5 -51.5q93 0 152.5 53t80.5 156z" />
    <glyph glyph-name="f_uni1E25" unicode="f&#x1e25;" horiz-adv-x="1745" 
d="M966 1296v-498q162 148 335 148q130 0 197 -75t67 -215v-436q0 -56 4 -87t18 -46.5t40 -20t75 -7.5q4 -30 0 -60q-56 0 -109.5 2t-117.5 2q-65 0 -117.5 -2t-104.5 -2q-4 29 0 59q44 3 70.5 8t41.5 19t19.5 40.5t4.5 74.5v388q0 135 -47.5 182.5t-141.5 47.5
q-132 0 -234 -99v-499q0 -56 4 -87t18 -46.5t41 -20t72 -7.5q4 -30 0 -60q-50 0 -105.5 2t-119.5 2q-66 0 -120 -2t-112 -2q-5 29 0 59q49 3 78 8t44 19t19.5 41t4.5 74v1051q0 98 -29 133t-105 35q-142 0 -206 -83.5t-64 -282.5v-152h255q6 -44 0 -88h-254v-593
q0 -56 4 -87t18 -46.5t42 -20t76 -7.5q4 -30 0 -60q-55 0 -110.5 2t-119.5 2q-66 0 -120 -2t-112 -2q-5 28 0 59q49 3 78 8t44 19t19.5 41t4.5 74v613h-161q-5 27 0 51q60 12 92.5 20.5t47.5 18t18 21.5t6 79q10 236 141.5 367t332.5 131q87 0 156 -26q55 18 106 40l20 -8
q-2 -43 -3 -95.5t-1 -115.5zM1057 -298q0 47 33 81.5t84 34.5q52 0 85.5 -34.5t33.5 -81.5q0 -46 -33.5 -80.5t-85.5 -34.5q-51 0 -84 34.5t-33 80.5z" />
    <glyph glyph-name="f_hbar" unicode="f&#x127;" horiz-adv-x="1745" 
d="M966 1296v-110h354q6 -40 0 -82h-354v-326q162 148 335 148q130 0 197 -75t67 -215v-416q0 -56 4 -87t18 -46.5t40 -20t75 -7.5q4 -30 0 -60q-56 0 -109.5 2t-117.5 2q-65 0 -117.5 -2t-104.5 -2q-4 29 0 59q44 3 70.5 8t41.5 19t19.5 40.5t4.5 74.5v368
q0 135 -47.5 182.5t-141.5 47.5q-132 0 -234 -99v-479q0 -56 4 -87t18 -46.5t41 -20t72 -7.5q4 -30 0 -60q-50 0 -105.5 2t-119.5 2q-66 0 -120 -2t-112 -2q-5 29 0 59q49 3 78 8t44 19t19.5 41t4.5 74v904h-154q-5 40 0 82h154v65q0 98 -29 133t-105 35q-142 0 -206 -83.5
t-64 -282.5v-152h255q6 -44 0 -88h-254v-593q0 -56 4 -87t18 -46.5t42 -20t76 -7.5q4 -30 0 -60q-55 0 -110.5 2t-119.5 2q-66 0 -120 -2t-112 -2q-5 28 0 59q49 3 78 8t44 19t19.5 41t4.5 74v613h-161q-5 27 0 51q60 12 92.5 20.5t47.5 18t18 21.5t6 79q10 236 141.5 367
t332.5 131q87 0 156 -26q55 18 106 40l20 -8q-2 -43 -3 -95.5t-1 -115.5z" />
    <glyph glyph-name="f_iogonek" unicode="f&#x12f;" horiz-adv-x="1155" 
d="M790 200v522q0 57 -19.5 74t-70.5 17h-313v-593q0 -56 4 -87t18 -46.5t42 -20t76 -7.5q4 -29 0 -60q-55 0 -110.5 2t-119.5 2q-66 0 -120 -2t-112 -2q-4 28 0 59q49 3 78 8t44 19t19.5 41t4.5 74v613h-161q-5 27 0 51q60 12 92.5 20.5t47.5 18t18 21.5t6 79
q10 236 141.5 367t342.5 131q114 0 186.5 -41t72.5 -109q0 -48 -29 -73.5t-68 -25.5q-56 0 -93.5 46t-37.5 108q-35 12 -96 12q-122 0 -184.5 -85.5t-62.5 -279.5v-152h352q48 0 97 13t114 40l20 -8q-4 -119 -4 -211v-515q0 -56 4 -87t18 -46.5t42 -20t76 -7.5q4 -30 0 -60
q-49 0 -98 1q-150 -130 -150 -266q0 -60 36 -89.5t100 -29.5q35 0 67 7q13 -19 17 -42q-95 -70 -188 -70q-88 0 -143.5 49t-55.5 132q0 173 243 312h-58q-64 0 -118.5 -2t-112.5 -2q-4 29 0 59q49 3 78 8t44 19t19.5 40.5t4.5 74.5z" />
    <glyph glyph-name="f_uni0268" unicode="f&#x268;" horiz-adv-x="1175" 
d="M790 458h-185q-5 40 0 82h185v182q0 57 -19.5 74t-70.5 17h-313v-593q0 -56 4 -87t18 -46.5t42 -20t76 -7.5q4 -29 0 -60q-55 0 -110.5 2t-119.5 2q-66 0 -120 -2t-112 -2q-4 28 0 59q49 3 78 8t44 19t19.5 41t4.5 74v613h-161q-5 27 0 51q60 12 92.5 20.5t47.5 18
t18 21.5t6 79q10 236 141.5 367t342.5 131q114 0 186.5 -41t72.5 -109q0 -48 -29 -73.5t-68 -25.5q-56 0 -93.5 46t-37.5 108q-35 12 -96 12q-122 0 -184.5 -85.5t-62.5 -279.5v-152h352q48 0 97 13t114 40l20 -8q-4 -119 -4 -211v-195h184q5 -40 0 -82h-184v-238
q0 -56 4 -87t18 -46.5t42 -20t76 -7.5q4 -30 0 -60q-55 0 -110.5 2t-119.5 2t-118.5 -2t-112.5 -2q-5 29 0 59q49 3 78 8t44 19t19.5 41t4.5 74v258z" />
    <glyph glyph-name="f_j" unicode="fj" horiz-adv-x="1132" 
d="M387 813v-593q0 -56 5 -87t23 -46.5t53.5 -20t97.5 -7.5q4 -29 0 -60q-64 0 -129 2t-140 2q-66 0 -120 -2t-112 -2q-4 28 0 59q49 3 78 8t44 19t19.5 41t4.5 74v613h-161q-5 27 0 51q60 12 92.5 20.5t47.5 18t18 21.5t6 79q10 236 141.5 367t342.5 131q114 0 186.5 -41
t72.5 -109q0 -48 -29 -73.5t-68 -25.5q-58 0 -95.5 46t-37.5 108q-35 12 -94 12q-122 0 -184.5 -85.5t-62.5 -279.5v-152h352q48 0 97 13t114 40l20 -8q-4 -119 -4 -211q1 -93 2 -286t1 -283v-169q0 -241 -114.5 -373t-273.5 -132q-53 0 -90 25t-37 67q0 35 25.5 59.5
t73.5 24.5q76 0 137 -82q62 30 82.5 110.5t20.5 245.5q0 115 -1 360t-1 420q0 57 -19.5 74t-70.5 17h-313z" />
    <glyph glyph-name="f_k" unicode="fk" horiz-adv-x="1644" 
d="M966 516q29 0 60 24.5t149 140.5q74 73 96.5 98t22.5 41q0 37 -96 40q-4 30 0 60q42 0 97 -2t102 -2q43 0 113 1.5t107 1.5q4 -30 0 -58q-80 -3 -144 -35t-163 -125l-152 -143l265 -353q66 -88 111.5 -116.5t123.5 -29.5q1 -8 1.5 -15t0.5 -15t-0.5 -15t-1.5 -15
q-23 0 -73.5 2t-143.5 2q-48 0 -107 -4q0 26 -59.5 111t-210.5 290q-35 44 -53.5 53.5t-44.5 9.5v-243q0 -56 3.5 -87t16.5 -46.5t39 -20t71 -7.5q4 -30 0 -60q-53 0 -106 2t-114 2q-66 0 -120 -2t-112 -2q-5 29 0 59q49 3 78 8t44 19t19.5 41t4.5 74v1051q0 98 -29 133
t-105 35q-142 0 -206 -83.5t-64 -282.5v-152h255q6 -44 0 -88h-254v-593q0 -56 4 -87t18 -46.5t42 -20t76 -7.5q4 -30 0 -60q-55 0 -110.5 2t-119.5 2q-66 0 -120 -2t-112 -2q-5 28 0 59q49 3 78 8t44 19t19.5 41t4.5 74v613h-161q-5 27 0 51q60 12 92.5 20.5t47.5 18
t18 21.5t6 79q10 236 141.5 367t332.5 131q87 0 156 -26q55 18 106 40l20 -8q-2 -43 -3 -95.5t-1 -115.5v-780z" />
    <glyph glyph-name="f_uni1E35" unicode="f&#x1e35;" horiz-adv-x="1644" 
d="M966 516q29 0 60 24.5t149 140.5q74 73 96.5 98t22.5 41q0 37 -96 40q-4 30 0 60q42 0 97 -2t102 -2q43 0 113 1.5t107 1.5q4 -30 0 -58q-80 -3 -144 -35t-163 -125l-152 -143l265 -353q66 -88 111.5 -116.5t123.5 -29.5q1 -8 1.5 -15t0.5 -15t-0.5 -15t-1.5 -15
q-23 0 -73.5 2t-143.5 2q-48 0 -107 -4q0 26 -59.5 111t-210.5 290q-35 44 -53.5 53.5t-44.5 9.5v-243q0 -56 3.5 -87t16.5 -46.5t39 -20t71 -7.5q4 -30 0 -60q-53 0 -106 2t-114 2q-66 0 -120 -2t-112 -2q-5 29 0 59q49 3 78 8t44 19t19.5 41t4.5 74v1051q0 98 -29 133
t-105 35q-142 0 -206 -83.5t-64 -282.5v-152h255q6 -44 0 -88h-254v-593q0 -56 4 -87t18 -46.5t42 -20t76 -7.5q4 -30 0 -60q-55 0 -110.5 2t-119.5 2q-66 0 -120 -2t-112 -2q-5 28 0 59q49 3 78 8t44 19t19.5 41t4.5 74v613h-161q-5 27 0 51q60 12 92.5 20.5t47.5 18
t18 21.5t6 79q10 236 141.5 367t332.5 131q87 0 156 -26q55 18 106 40l20 -8q-2 -43 -3 -95.5t-1 -115.5v-780zM1424 -192q6 -48 0 -96h-548q-6 48 0 96h548z" />
    <glyph glyph-name="f_uni1E33" unicode="f&#x1e33;" horiz-adv-x="1644" 
d="M966 516q29 0 60 24.5t149 140.5q74 73 96.5 98t22.5 41q0 37 -96 40q-4 30 0 60q42 0 97 -2t102 -2q43 0 113 1.5t107 1.5q4 -30 0 -58q-80 -3 -144 -35t-163 -125l-152 -143l265 -353q66 -88 111.5 -116.5t123.5 -29.5q1 -8 1.5 -15t0.5 -15t-0.5 -15t-1.5 -15
q-23 0 -73.5 2t-143.5 2q-48 0 -107 -4q0 26 -59.5 111t-210.5 290q-35 44 -53.5 53.5t-44.5 9.5v-243q0 -56 3.5 -87t16.5 -46.5t39 -20t71 -7.5q4 -30 0 -60q-53 0 -106 2t-114 2q-66 0 -120 -2t-112 -2q-5 29 0 59q49 3 78 8t44 19t19.5 41t4.5 74v1051q0 98 -29 133
t-105 35q-142 0 -206 -83.5t-64 -282.5v-152h255q6 -44 0 -88h-254v-593q0 -56 4 -87t18 -46.5t42 -20t76 -7.5q4 -30 0 -60q-55 0 -110.5 2t-119.5 2q-66 0 -120 -2t-112 -2q-5 28 0 59q49 3 78 8t44 19t19.5 41t4.5 74v613h-161q-5 27 0 51q60 12 92.5 20.5t47.5 18
t18 21.5t6 79q10 236 141.5 367t332.5 131q87 0 156 -26q55 18 106 40l20 -8q-2 -43 -3 -95.5t-1 -115.5v-780zM1032 -298q0 47 33 81.5t84 34.5q52 0 85.5 -34.5t33.5 -81.5q0 -46 -33.5 -80.5t-85.5 -34.5q-51 0 -84 34.5t-33 80.5z" />
    <glyph glyph-name="f_kcommaaccent" unicode="f&#x137;" horiz-adv-x="1644" 
d="M966 516q29 0 60 24.5t149 140.5q74 73 96.5 98t22.5 41q0 37 -96 40q-4 30 0 60q42 0 97 -2t102 -2q43 0 113 1.5t107 1.5q4 -30 0 -58q-80 -3 -144 -35t-163 -125l-152 -143l265 -353q66 -88 111.5 -116.5t123.5 -29.5q1 -8 1.5 -15t0.5 -15t-0.5 -15t-1.5 -15
q-23 0 -73.5 2t-143.5 2q-48 0 -107 -4q0 26 -59.5 111t-210.5 290q-35 44 -53.5 53.5t-44.5 9.5v-243q0 -56 3.5 -87t16.5 -46.5t39 -20t71 -7.5q4 -30 0 -60q-53 0 -106 2t-114 2q-66 0 -120 -2t-112 -2q-5 29 0 59q49 3 78 8t44 19t19.5 41t4.5 74v1051q0 98 -29 133
t-105 35q-142 0 -206 -83.5t-64 -282.5v-152h255q6 -44 0 -88h-254v-593q0 -56 4 -87t18 -46.5t42 -20t76 -7.5q4 -30 0 -60q-55 0 -110.5 2t-119.5 2q-66 0 -120 -2t-112 -2q-5 28 0 59q49 3 78 8t44 19t19.5 41t4.5 74v613h-161q-5 27 0 51q60 12 92.5 20.5t47.5 18
t18 21.5t6 79q10 236 141.5 367t332.5 131q87 0 156 -26q55 18 106 40l20 -8q-2 -43 -3 -95.5t-1 -115.5v-780zM1028 -494q91 22 135 63t44 105q0 26 -9 55q-36 -36 -86 -36q-40 0 -68.5 27t-28.5 74q0 53 36 84t93 31q76 0 120 -52.5t44 -140.5q0 -103 -70.5 -173
t-193.5 -95q-12 28 -16 58z" />
    <glyph glyph-name="f_lacute" unicode="f&#x13a;" horiz-adv-x="1155" 
d="M1106 -1q-55 0 -110.5 2t-119.5 2q-66 0 -120 -2t-112 -2q-5 30 0 59q49 3 78 8t44 19t19.5 41t4.5 74v1051q0 98 -29 133t-105 35q-142 0 -206 -83.5t-64 -282.5v-152h255q6 -44 0 -88h-254v-593q0 -56 4 -87t18 -46.5t42 -20t76 -7.5q4 -30 0 -60q-55 0 -110.5 2
t-119.5 2q-66 0 -120 -2t-112 -2q-5 28 0 59q49 3 78 8t44 19t19.5 41t4.5 74v613h-161q-5 27 0 51q60 12 92.5 20.5t47.5 18t18 21.5t6 79q10 236 141.5 367t332.5 131q87 0 156 -26q57 18 106 40l20 -8q-2 -43 -3 -95.5t-1 -115.5v-1076q0 -56 4 -87t18 -46.5t42 -20
t76 -7.5q4 -30 0 -60zM1145 1758q-33 -17 -80.5 -43.5t-99.5 -56.5t-103 -60.5t-91 -54.5q-25 13 -42 41q33 34 69.5 73t72.5 78t70 76t62 69q29 0 65 -33.5t77 -81.5v-7z" />
    <glyph glyph-name="f_lcaron" unicode="f&#x13e;" horiz-adv-x="1339" 
d="M1106 -1q-55 0 -110.5 2t-119.5 2q-66 0 -120 -2t-112 -2q-5 30 0 59q49 3 78 8t44 19t19.5 41t4.5 74v1051q0 98 -29 133t-105 35q-142 0 -206 -83.5t-64 -282.5v-152h255q6 -44 0 -88h-254v-593q0 -56 4 -87t18 -46.5t42 -20t76 -7.5q4 -30 0 -60q-55 0 -110.5 2
t-119.5 2q-66 0 -120 -2t-112 -2q-5 28 0 59q49 3 78 8t44 19t19.5 41t4.5 74v613h-161q-5 27 0 51q60 12 92.5 20.5t47.5 18t18 21.5t6 79q10 236 141.5 367t332.5 131q87 0 156 -26q57 18 106 40l20 -8q-2 -43 -3 -95.5t-1 -115.5v-1076q0 -56 4 -87t18 -46.5t42 -20
t76 -7.5q4 -30 0 -60zM1289 1419l-132 -442q-11 -2 -28 -0.5t-28 5.5l25 447q7 9 60 9q42 0 103 -11v-8z" />
    <glyph glyph-name="f_lcommaaccent" unicode="f&#x13c;" horiz-adv-x="1155" 
d="M1106 -1q-55 0 -110.5 2t-119.5 2q-66 0 -120 -2t-112 -2q-5 30 0 59q49 3 78 8t44 19t19.5 41t4.5 74v1051q0 98 -29 133t-105 35q-142 0 -206 -83.5t-64 -282.5v-152h255q6 -44 0 -88h-254v-593q0 -56 4 -87t18 -46.5t42 -20t76 -7.5q4 -30 0 -60q-55 0 -110.5 2
t-119.5 2q-66 0 -120 -2t-112 -2q-5 28 0 59q49 3 78 8t44 19t19.5 41t4.5 74v613h-161q-5 27 0 51q60 12 92.5 20.5t47.5 18t18 21.5t6 79q10 236 141.5 367t332.5 131q87 0 156 -26q57 18 106 40l20 -8q-2 -43 -3 -95.5t-1 -115.5v-1076q0 -56 4 -87t18 -46.5t42 -20
t76 -7.5q4 -30 0 -60zM753 -494q91 22 135 63t44 105q0 26 -9 55q-36 -36 -86 -36q-40 0 -68.5 27t-28.5 74q0 53 36 84t93 31q76 0 120 -52.5t44 -140.5q0 -103 -70.5 -173t-193.5 -95q-12 28 -16 58z" />
    <glyph glyph-name="f_lslash" unicode="f&#x142;" horiz-adv-x="1155" 
d="M790 1251q0 98 -29 133t-105 35q-142 0 -206 -83.5t-64 -282.5v-152h225q6 -44 0 -88h-224v-593q0 -56 4 -87t18 -46.5t42 -20t76 -7.5q4 -30 0 -60q-55 0 -110.5 2t-119.5 2q-66 0 -120 -2t-112 -2q-5 28 0 59q49 3 78 8t44 19t19.5 41t4.5 74v613h-161q-5 27 0 51
q60 12 92.5 20.5t47.5 18t18 21.5t6 79q10 236 141.5 367t332.5 131q87 0 156 -26q57 18 106 40l20 -8q-2 -43 -3 -95.5t-1 -115.5v-439l159 69q4 -46 0 -92l-159 -69v-545q0 -56 4 -87t18 -46.5t42 -20t76 -7.5q4 -30 0 -60q-55 0 -110.5 2t-119.5 2q-66 0 -120 -2t-112 -2
q-5 29 0 59q49 3 78 8t44 19t19.5 41t4.5 74v489l-152 -66q-4 46 0 92l152 66v470z" />
    <glyph glyph-name="f_uni019A" unicode="f&#x19a;" horiz-adv-x="1155" 
d="M790 815h-169v86h169v350q0 98 -29 133t-105 35q-142 0 -206 -83.5t-64 -282.5v-152h180v-86h-177l-2 -2v-593q0 -56 4 -87t18 -46.5t42 -20t76 -7.5q4 -30 0 -60q-55 0 -110.5 2t-119.5 2q-66 0 -120 -2t-112 -2q-5 28 0 59q49 3 78 8t44 19t19.5 41t4.5 74v615h-161
q-5 25 0 49q60 12 92.5 20.5t47.5 18t18 21.5t6 79q10 236 141.5 367t332.5 131q87 0 156 -26q57 18 106 40l20 -8q-2 -43 -3 -95.5t-1 -115.5v-395h184q5 -40 0 -86h-184v-595q0 -56 4 -87t18 -46.5t42 -20t76 -7.5q4 -30 0 -60q-55 0 -110.5 2t-119.5 2q-66 0 -120 -2
t-112 -2q-5 30 0 59q49 3 78 8t44 19t19.5 41t4.5 74v615z" />
    <glyph glyph-name="uni01920062" unicode="&#x192;b" horiz-adv-x="1723" 
d="M387 813v-816q0 -241 -114.5 -373t-274.5 -132q-52 0 -89.5 25t-37.5 67q0 35 25.5 59.5t74.5 24.5q75 0 137 -82q62 30 82.5 110.5t20.5 245.5v871h-161q-5 27 0 51q60 12 92.5 20.5t47.5 18t18 21.5t6 79q10 236 141.5 367t332.5 131q87 0 156 -26q55 18 104 40l20 -8
q-2 -43 -3 -95.5t-1 -115.5v-483q144 133 312 133q161 0 268 -128.5t107 -318.5q0 -217 -137 -367t-347 -150q-148 0 -286 72q-29 -31 -51 -67q-27 2 -44 8q4 67 4 225v1031q0 98 -29 133t-105 35q-142 0 -206 -83.5t-64 -282.5v-152h255q6 -44 0 -88h-254zM962 156
q91 -97 223 -97q141 0 213.5 102t72.5 266q0 177 -74 288t-212 111q-125 0 -223 -94v-576z" />
    <glyph glyph-name="uni01920180" unicode="&#x192;&#x180;" horiz-adv-x="1723" 
d="M387 813v-816q0 -241 -114.5 -373t-274.5 -132q-52 0 -89.5 25t-37.5 67q0 35 25.5 59.5t74.5 24.5q75 0 137 -82q62 30 82.5 110.5t20.5 245.5v871h-161q-5 27 0 51q60 12 92.5 20.5t47.5 18t18 21.5t6 79q10 236 141.5 367t332.5 131q87 0 156 -26q55 18 104 40l20 -8
q-2 -43 -3 -95.5t-1 -115.5v-110h356q6 -40 0 -82h-356v-311q144 133 312 133q161 0 268 -126t107 -312q0 -212 -137 -359t-347 -147q-148 0 -286 72q-29 -31 -51 -67q-27 2 -44 8q4 67 4 225v884h-149q-5 40 0 82h149v65q0 98 -29 133t-105 35q-142 0 -206 -83.5
t-64 -282.5v-152h250q6 -44 0 -88h-249zM962 153q91 -94 223 -94q141 0 213.5 99.5t72.5 258.5q0 173 -74 281t-212 108q-125 0 -223 -92v-561z" />
    <glyph glyph-name="uni01920660" unicode="&#x192;f" horiz-adv-x="1224" 
d="M387 813v-816q0 -241 -114.5 -373t-274.5 -132q-52 0 -89.5 25t-37.5 67q0 35 25.5 59.5t74.5 24.5q75 0 137 -82q62 30 82.5 110.5t20.5 245.5v871h-161q-5 27 0 51q60 12 92.5 20.5t47.5 17.5q15 11 18 22q3 12 6 63q10 237 135.5 367.5t325.5 130.5q184 0 244 -113
q118 129 304 129q98 0 164 -42t66 -110q0 -43 -26.5 -70.5t-67.5 -27.5q-57 0 -96.5 45.5t-39.5 109.5q-26 11 -66 11q-99 0 -145 -85.5t-46 -278.5v-152h255q6 -45 0 -88h-254v-593q0 -56 5 -87t23 -46.5t53.5 -20t97.5 -7.5q5 -29 0 -60q-64 0 -129 2t-140 2
q-66 0 -120 -2t-112 -2q-5 28 0 59q49 3 78 8t44 19t19.5 41t4.5 74v613h-404zM386 901h403l3 81q7 155 50 263q-76 0 -112 43.5t-36 102.5q-32 11 -86 11q-109 0 -165.5 -85.5t-56.5 -279.5v-136z" />
    <glyph glyph-name="uni019206600062" unicode="&#x192;fb" horiz-adv-x="2303" 
d="M387 813v-816q0 -241 -114.5 -373t-274.5 -132q-52 0 -89.5 25t-37.5 67q0 35 25.5 59.5t74.5 24.5q75 0 137 -82q62 30 82.5 110.5t20.5 245.5v871h-161q-5 27 0 51q60 12 92.5 20.5t47.5 17.5q15 11 18 22q3 12 6 63q10 237 138.5 367.5t332.5 130.5q188 0 250 -115
q132 131 333 131q87 0 156 -26q57 18 104 40l20 -8q-2 -43 -3 -95.5t-1 -115.5v-483q144 133 312 133q161 0 268 -128.5t107 -318.5q0 -217 -137 -367t-347 -150q-148 0 -286 72q-29 -31 -51 -67q-27 2 -44 8q4 67 4 225v1031q0 98 -29 133t-105 35q-142 0 -206 -83.5
t-64 -282.5v-152h255q6 -44 0 -88h-254v-593q0 -56 4 -87t18 -46.5t42 -20t76 -7.5q4 -30 0 -60q-55 0 -110.5 2t-119.5 2q-66 0 -120 -2t-112 -2q-5 28 0 59q49 3 78 8t44 19t19.5 41t4.5 74v613h-404zM1542 156q91 -97 223 -97q141 0 213.5 102t72.5 266q0 177 -74 288
t-212 111q-125 0 -223 -94v-576zM386 901h403l5 102q6 139 54 242q-67 0 -103 43.5t-36 102.5q-34 11 -90 11q-115 0 -174 -85.5t-59 -279.5v-136z" />
    <glyph glyph-name="uni019206600180" unicode="&#x192;f&#x180;" horiz-adv-x="2303" 
d="M387 813v-816q0 -241 -114.5 -373t-274.5 -132q-52 0 -89.5 25t-37.5 67q0 35 25.5 59.5t74.5 24.5q75 0 137 -82q62 30 82.5 110.5t20.5 245.5v871h-161q-5 27 0 51q60 12 92.5 20.5t47.5 17.5q15 11 18 22q3 12 6 63q10 237 138.5 367.5t332.5 130.5q188 0 250 -115
q132 131 333 131q87 0 156 -26q57 18 104 40l20 -8q-2 -43 -3 -95.5t-1 -115.5v-110h356q6 -40 0 -82h-356v-311q144 133 312 133q161 0 268 -126t107 -312q0 -212 -137 -359t-347 -147q-148 0 -286 72q-29 -31 -51 -67q-27 2 -44 8q4 67 4 225v884h-149q-5 40 0 82h149v65
q0 98 -29 133t-105 35q-142 0 -206 -83.5t-64 -282.5v-152h250q6 -44 0 -88h-249v-593q0 -56 4 -87t18 -46.5t42 -20t76 -7.5q4 -30 0 -60q-55 0 -110.5 2t-119.5 2q-66 0 -120 -2t-112 -2q-5 28 0 59q49 3 78 8t44 19t19.5 41t4.5 74v613h-404zM1542 153q91 -94 223 -94
q141 0 213.5 99.5t72.5 258.5q0 173 -74 281t-212 108q-125 0 -223 -92v-561zM386 901h403l5 102q6 139 54 242q-67 0 -103 43.5t-36 102.5q-34 11 -90 11q-115 0 -174 -85.5t-59 -279.5v-136z" />
    <glyph glyph-name="uni019206600068" unicode="&#x192;fh" horiz-adv-x="2325" 
d="M387 813v-816q0 -241 -114.5 -373t-274.5 -132q-52 0 -89.5 25t-37.5 67q0 35 25.5 59.5t74.5 24.5q75 0 137 -82q62 30 82.5 110.5t20.5 245.5v871h-161q-5 27 0 51q60 12 92.5 20.5t47.5 17.5q15 11 18 22q3 12 6 63q10 237 138.5 367.5t332.5 130.5q188 0 250 -115
q132 131 333 131q87 0 156 -26q57 18 106 40l20 -8q-2 -43 -3 -95.5t-1 -115.5v-498q162 148 335 148q130 0 197 -75t67 -215v-436q0 -56 4 -87t18 -46.5t40 -20t75 -7.5q4 -30 0 -60q-56 0 -109.5 2t-117.5 2q-65 0 -117.5 -2t-104.5 -2q-4 29 0 59q44 3 70.5 8t41.5 19
t19.5 40.5t4.5 74.5v388q0 135 -47.5 182.5t-141.5 47.5q-132 0 -234 -99v-499q0 -56 4 -87t18 -46.5t41 -20t72 -7.5q4 -30 0 -60q-50 0 -105.5 2t-119.5 2q-66 0 -120 -2t-112 -2q-5 29 0 59q49 3 78 8t44 19t19.5 41t4.5 74v1051q0 98 -29 133t-105 35q-142 0 -206 -83.5
t-64 -282.5v-152h255q6 -44 0 -88h-254v-593q0 -56 4 -87t18 -46.5t42 -20t76 -7.5q4 -30 0 -60q-55 0 -110.5 2t-119.5 2q-66 0 -120 -2t-112 -2q-5 28 0 59q49 3 78 8t44 19t19.5 41t4.5 74v613h-404zM386 901h403l5 102q6 139 54 242q-67 0 -103 43.5t-36 102.5
q-34 11 -90 11q-115 0 -174 -85.5t-59 -279.5v-136z" />
    <glyph glyph-name="uni019206600125" unicode="&#x192;f&#x125;" horiz-adv-x="2325" 
d="M387 813v-816q0 -241 -114.5 -373t-274.5 -132q-52 0 -89.5 25t-37.5 67q0 35 25.5 59.5t74.5 24.5q75 0 137 -82q62 30 82.5 110.5t20.5 245.5v871h-161q-5 27 0 51q60 12 92.5 20.5t47.5 17.5q15 11 18 22q3 12 6 63q10 237 138.5 367.5t332.5 130.5q188 0 250 -115
q132 131 333 131q87 0 156 -26q57 18 106 40l20 -8q-2 -43 -3 -95.5t-1 -115.5v-498q162 148 335 148q130 0 197 -75t67 -215v-436q0 -56 4 -87t18 -46.5t40 -20t75 -7.5q4 -30 0 -60q-56 0 -109.5 2t-117.5 2q-65 0 -117.5 -2t-104.5 -2q-4 29 0 59q44 3 70.5 8t41.5 19
t19.5 40.5t4.5 74.5v388q0 135 -47.5 182.5t-141.5 47.5q-132 0 -234 -99v-499q0 -56 4 -87t18 -46.5t41 -20t72 -7.5q4 -30 0 -60q-50 0 -105.5 2t-119.5 2q-66 0 -120 -2t-112 -2q-5 29 0 59q49 3 78 8t44 19t19.5 41t4.5 74v1051q0 98 -29 133t-105 35q-142 0 -206 -83.5
t-64 -282.5v-152h255q6 -44 0 -88h-254v-593q0 -56 4 -87t18 -46.5t42 -20t76 -7.5q4 -30 0 -60q-55 0 -110.5 2t-119.5 2q-66 0 -120 -2t-112 -2q-5 28 0 59q49 3 78 8t44 19t19.5 41t4.5 74v613h-404zM386 901h403l5 102q6 139 54 242q-67 0 -103 43.5t-36 102.5
q-34 11 -90 11q-115 0 -174 -85.5t-59 -279.5v-136zM1461 1730q-125 -96 -276 -189q-28 4 -54 23q30 31 64.5 71t70 81.5t68 82t58.5 72.5q29 7 71 7q37 0 71 -7q25 -32 57.5 -72.5t68 -82t70.5 -81.5t65 -71q-26 -19 -54 -23q-152 92 -280 189z" />
    <glyph glyph-name="uni019206601E96" unicode="&#x192;f&#x1e96;" horiz-adv-x="2325" 
d="M387 813v-816q0 -241 -114.5 -373t-274.5 -132q-52 0 -89.5 25t-37.5 67q0 35 25.5 59.5t74.5 24.5q75 0 137 -82q62 30 82.5 110.5t20.5 245.5v871h-161q-5 27 0 51q60 12 92.5 20.5t47.5 17.5q15 11 18 22q3 12 6 63q10 237 138.5 367.5t332.5 130.5q188 0 250 -115
q132 131 333 131q87 0 156 -26q57 18 106 40l20 -8q-2 -43 -3 -95.5t-1 -115.5v-498q162 148 335 148q130 0 197 -75t67 -215v-436q0 -56 4 -87t18 -46.5t40 -20t75 -7.5q4 -30 0 -60q-56 0 -109.5 2t-117.5 2q-65 0 -117.5 -2t-104.5 -2q-4 29 0 59q44 3 70.5 8t41.5 19
t19.5 40.5t4.5 74.5v388q0 135 -47.5 182.5t-141.5 47.5q-132 0 -234 -99v-499q0 -56 4 -87t18 -46.5t41 -20t72 -7.5q4 -30 0 -60q-50 0 -105.5 2t-119.5 2q-66 0 -120 -2t-112 -2q-5 29 0 59q49 3 78 8t44 19t19.5 41t4.5 74v1051q0 98 -29 133t-105 35q-142 0 -206 -83.5
t-64 -282.5v-152h255q6 -44 0 -88h-254v-593q0 -56 4 -87t18 -46.5t42 -20t76 -7.5q4 -30 0 -60q-55 0 -110.5 2t-119.5 2q-66 0 -120 -2t-112 -2q-5 28 0 59q49 3 78 8t44 19t19.5 41t4.5 74v613h-404zM386 901h403l5 102q6 139 54 242q-67 0 -103 43.5t-36 102.5
q-34 11 -90 11q-115 0 -174 -85.5t-59 -279.5v-136zM2029 -192q6 -48 0 -96h-548q-6 48 0 96h548z" />
    <glyph glyph-name="uni019206601E2B" unicode="&#x192;f&#x1e2b;" horiz-adv-x="2325" 
d="M387 813v-816q0 -241 -114.5 -373t-274.5 -132q-52 0 -89.5 25t-37.5 67q0 35 25.5 59.5t74.5 24.5q75 0 137 -82q62 30 82.5 110.5t20.5 245.5v871h-161q-5 27 0 51q60 12 92.5 20.5t47.5 17.5q15 11 18 22q3 12 6 63q10 237 138.5 367.5t332.5 130.5q188 0 250 -115
q132 131 333 131q87 0 156 -26q57 18 106 40l20 -8q-2 -43 -3 -95.5t-1 -115.5v-498q162 148 335 148q130 0 197 -75t67 -215v-436q0 -56 4 -87t18 -46.5t40 -20t75 -7.5q4 -30 0 -60q-56 0 -109.5 2t-117.5 2q-65 0 -117.5 -2t-104.5 -2q-4 29 0 59q44 3 70.5 8t41.5 19
t19.5 40.5t4.5 74.5v388q0 135 -47.5 182.5t-141.5 47.5q-132 0 -234 -99v-499q0 -56 4 -87t18 -46.5t41 -20t72 -7.5q4 -30 0 -60q-50 0 -105.5 2t-119.5 2q-66 0 -120 -2t-112 -2q-5 29 0 59q49 3 78 8t44 19t19.5 41t4.5 74v1051q0 98 -29 133t-105 35q-142 0 -206 -83.5
t-64 -282.5v-152h255q6 -44 0 -88h-254v-593q0 -56 4 -87t18 -46.5t42 -20t76 -7.5q4 -30 0 -60q-55 0 -110.5 2t-119.5 2q-66 0 -120 -2t-112 -2q-5 28 0 59q49 3 78 8t44 19t19.5 41t4.5 74v613h-404zM386 901h403l5 102q6 139 54 242q-67 0 -103 43.5t-36 102.5
q-34 11 -90 11q-115 0 -174 -85.5t-59 -279.5v-136zM1988 -111q31 -3 60 -12q-14 -169 -92 -253t-203 -84t-201 84t-90 253q28 9 60 12q23 -106 82.5 -157.5t150.5 -51.5q93 0 152.5 53t80.5 156z" />
    <glyph glyph-name="uni019206601E25" unicode="&#x192;f&#x1e25;" horiz-adv-x="2325" 
d="M387 813v-816q0 -241 -114.5 -373t-274.5 -132q-52 0 -89.5 25t-37.5 67q0 35 25.5 59.5t74.5 24.5q75 0 137 -82q62 30 82.5 110.5t20.5 245.5v871h-161q-5 27 0 51q60 12 92.5 20.5t47.5 17.5q15 11 18 22q3 12 6 63q10 237 138.5 367.5t332.5 130.5q188 0 250 -115
q132 131 333 131q87 0 156 -26q57 18 106 40l20 -8q-2 -43 -3 -95.5t-1 -115.5v-498q162 148 335 148q130 0 197 -75t67 -215v-436q0 -56 4 -87t18 -46.5t40 -20t75 -7.5q4 -30 0 -60q-56 0 -109.5 2t-117.5 2q-65 0 -117.5 -2t-104.5 -2q-4 29 0 59q44 3 70.5 8t41.5 19
t19.5 40.5t4.5 74.5v388q0 135 -47.5 182.5t-141.5 47.5q-132 0 -234 -99v-499q0 -56 4 -87t18 -46.5t41 -20t72 -7.5q4 -30 0 -60q-50 0 -105.5 2t-119.5 2q-66 0 -120 -2t-112 -2q-5 29 0 59q49 3 78 8t44 19t19.5 41t4.5 74v1051q0 98 -29 133t-105 35q-142 0 -206 -83.5
t-64 -282.5v-152h255q6 -44 0 -88h-254v-593q0 -56 4 -87t18 -46.5t42 -20t76 -7.5q4 -30 0 -60q-55 0 -110.5 2t-119.5 2q-66 0 -120 -2t-112 -2q-5 28 0 59q49 3 78 8t44 19t19.5 41t4.5 74v613h-404zM386 901h403l5 102q6 139 54 242q-67 0 -103 43.5t-36 102.5
q-34 11 -90 11q-115 0 -174 -85.5t-59 -279.5v-136zM1637 -298q0 47 33 81.5t84 34.5q52 0 85.5 -34.5t33.5 -81.5q0 -46 -33.5 -80.5t-85.5 -34.5q-51 0 -84 34.5t-33 80.5z" />
    <glyph glyph-name="uni019206600127" unicode="&#x192;f&#x127;" horiz-adv-x="2325" 
d="M387 813v-816q0 -241 -114.5 -373t-274.5 -132q-52 0 -89.5 25t-37.5 67q0 35 25.5 59.5t74.5 24.5q75 0 137 -82q62 30 82.5 110.5t20.5 245.5v871h-161q-5 27 0 51q60 12 92.5 20.5t47.5 17.5q15 11 18 22q3 12 6 63q10 237 138.5 367.5t332.5 130.5q188 0 250 -115
q132 131 333 131q87 0 156 -26q57 18 106 40l20 -8q-2 -43 -3 -95.5t-1 -115.5v-110h354q6 -40 0 -82h-354v-326q162 148 335 148q130 0 197 -75t67 -215v-416q0 -56 4 -87t18 -46.5t40 -20t75 -7.5q4 -30 0 -60q-56 0 -109.5 2t-117.5 2q-65 0 -117.5 -2t-104.5 -2
q-4 29 0 59q44 3 70.5 8t41.5 19t19.5 40.5t4.5 74.5v368q0 135 -47.5 182.5t-141.5 47.5q-132 0 -234 -99v-479q0 -56 4 -87t18 -46.5t41 -20t72 -7.5q4 -30 0 -60q-50 0 -105.5 2t-119.5 2q-66 0 -120 -2t-112 -2q-5 29 0 59q49 3 78 8t44 19t19.5 41t4.5 74v904h-149
q-5 40 0 82h149v65q0 98 -29 133t-105 35q-142 0 -206 -83.5t-64 -282.5v-152h250q6 -44 0 -88h-249v-593q0 -56 4 -87t18 -46.5t42 -20t76 -7.5q4 -30 0 -60q-55 0 -110.5 2t-119.5 2q-66 0 -120 -2t-112 -2q-5 28 0 59q49 3 78 8t44 19t19.5 41t4.5 74v613h-404zM386 901
h403l5 102q6 139 54 242q-67 0 -103 43.5t-36 102.5q-34 11 -90 11q-115 0 -174 -85.5t-59 -279.5v-136z" />
    <glyph glyph-name="uni019206600069" unicode="&#x192;fi" horiz-adv-x="1735" 
d="M387 813v-816q0 -241 -114.5 -373t-274.5 -132q-52 0 -89.5 25t-37.5 67q0 35 25.5 59.5t74.5 24.5q75 0 137 -82q62 30 82.5 110.5t20.5 245.5v871h-161q-5 27 0 51q60 12 92.5 20.5t47.5 17.5q15 11 18 22q3 12 6 63q10 237 138.5 367.5t332.5 130.5q189 0 250 -116v1
q132 131 343 131q114 0 186.5 -41t72.5 -109q0 -48 -29 -73.5t-68 -25.5q-54 0 -92.5 46t-38.5 108q-35 12 -96 12q-122 0 -184.5 -85.5t-62.5 -279.5v-152h352q48 0 97 13t114 40l20 -8q-4 -119 -4 -211v-515q0 -56 4 -87t18 -46.5t42 -20t76 -7.5q4 -30 0 -60
q-55 0 -110.5 2t-119.5 2t-118.5 -2t-112.5 -2q-5 29 0 59q49 3 78 8t44 19t19.5 41t4.5 74v522q0 57 -19.5 74t-70.5 17h-313v-593q0 -56 4 -87t18 -46.5t42 -20t76 -7.5q4 -29 0 -60q-55 0 -110.5 2t-119.5 2q-66 0 -120 -2t-112 -2q-4 28 0 59q49 3 78 8t44 19t19.5 41
t4.5 74v613h-404zM386 901h403l5 102q6 139 53 241q-62 0 -100 44t-38 103q-34 11 -90 11q-115 0 -174 -85.5t-59 -279.5v-136z" />
    <glyph glyph-name="uni01920660012F" unicode="&#x192;f&#x12f;" horiz-adv-x="1735" 
d="M387 813v-816q0 -241 -114.5 -373t-274.5 -132q-52 0 -89.5 25t-37.5 67q0 35 25.5 59.5t74.5 24.5q75 0 137 -82q62 30 82.5 110.5t20.5 245.5v871h-161q-5 27 0 51q60 12 92.5 20.5t47.5 17.5q15 11 18 22q3 12 6 63q10 237 138.5 367.5t332.5 130.5q189 0 250 -116v1
q132 131 343 131q114 0 186.5 -41t72.5 -109q0 -48 -29 -73.5t-68 -25.5q-54 0 -92.5 46t-38.5 108q-35 12 -96 12q-122 0 -184.5 -85.5t-62.5 -279.5v-152h352q48 0 97 13t114 40l20 -8q-4 -119 -4 -211v-515q0 -56 4 -87t18 -46.5t42 -20t76 -7.5q4 -30 0 -60q-49 0 -98 1
q-150 -130 -150 -266q0 -60 36 -89.5t100 -29.5q35 0 67 7q13 -19 17 -42q-95 -70 -188 -70q-88 0 -143.5 49t-55.5 132q0 173 243 312h-58q-64 0 -118.5 -2t-112.5 -2q-4 29 0 59q49 3 78 8t44 19t19.5 40.5t4.5 74.5v522q0 57 -19.5 74t-70.5 17h-313v-593q0 -56 4 -87
t18 -46.5t42 -20t76 -7.5q4 -29 0 -60q-55 0 -110.5 2t-119.5 2q-66 0 -120 -2t-112 -2q-4 28 0 59q49 3 78 8t44 19t19.5 41t4.5 74v613h-404zM386 901h403l5 102q6 139 53 241q-62 0 -100 44t-38 103q-34 11 -90 11q-115 0 -174 -85.5t-59 -279.5v-136z" />
    <glyph glyph-name="uni019206600268" unicode="&#x192;f&#x268;" horiz-adv-x="1755" 
d="M387 813v-816q0 -241 -114.5 -373t-274.5 -132q-52 0 -89.5 25t-37.5 67q0 35 25.5 59.5t74.5 24.5q75 0 137 -82q62 30 82.5 110.5t20.5 245.5v871h-161q-5 27 0 51q60 12 92.5 20.5t47.5 17.5q15 11 18 22q3 12 6 63q10 237 138.5 367.5t332.5 130.5q189 0 250 -116v1
q132 131 343 131q114 0 186.5 -41t72.5 -109q0 -48 -29 -73.5t-68 -25.5q-54 0 -92.5 46t-38.5 108q-35 12 -96 12q-122 0 -184.5 -85.5t-62.5 -279.5v-152h352q48 0 97 13t114 40l20 -8q-4 -119 -4 -211v-195h184q5 -40 0 -82h-184v-238q0 -56 4 -87t18 -46.5t42 -20
t76 -7.5q4 -30 0 -60q-55 0 -110.5 2t-119.5 2t-118.5 -2t-112.5 -2q-5 29 0 59q49 3 78 8t44 19t19.5 41t4.5 74v258h-185q-5 40 0 82h185v182q0 57 -19.5 74t-70.5 17h-313v-593q0 -56 4 -87t18 -46.5t42 -20t76 -7.5q4 -29 0 -60q-55 0 -110.5 2t-119.5 2q-66 0 -120 -2
t-112 -2q-4 28 0 59q49 3 78 8t44 19t19.5 41t4.5 74v613h-404zM386 901h403l5 102q6 139 53 241q-62 0 -100 44t-38 103q-34 11 -90 11q-115 0 -174 -85.5t-59 -279.5v-136z" />
    <glyph glyph-name="uni01920660006A" unicode="&#x192;fj" horiz-adv-x="1712" 
d="M387 813v-816q0 -241 -114.5 -373t-274.5 -132q-52 0 -89.5 25t-37.5 67q0 35 25.5 59.5t74.5 24.5q75 0 137 -82q62 30 82.5 110.5t20.5 245.5v871h-161q-5 27 0 51q60 12 92.5 20.5t47.5 17.5q15 11 18 22q3 12 6 63q10 237 138.5 367.5t332.5 130.5q189 0 250 -116v1
q132 131 343 131q114 0 186.5 -41t72.5 -109q0 -48 -29 -73.5t-68 -25.5q-58 0 -94.5 46t-36.5 108q-35 12 -96 12q-122 0 -184.5 -85.5t-62.5 -279.5v-152h352q48 0 97 13t114 40l20 -8q-4 -119 -4 -211q1 -93 2 -286t1 -283v-169q0 -241 -114.5 -373t-273.5 -132
q-53 0 -90 25t-37 67q0 35 25.5 59.5t73.5 24.5q76 0 137 -82q62 30 82.5 110.5t20.5 245.5q0 115 -1 360t-1 420q0 57 -19.5 74t-70.5 17h-313v-593q0 -56 5 -87t23 -46.5t53.5 -20t97.5 -7.5q4 -29 0 -60q-64 0 -129 2t-140 2q-66 0 -120 -2t-112 -2q-4 28 0 59q49 3 78 8
t44 19t19.5 41t4.5 74v613h-404zM386 901h403l5 102q6 139 53 241q-62 0 -100 44t-38 103q-34 11 -90 11q-115 0 -174 -85.5t-59 -279.5v-136z" />
    <glyph glyph-name="uni01920660006B" unicode="&#x192;fk" horiz-adv-x="2224" 
d="M387 813v-816q0 -241 -114.5 -373t-274.5 -132q-52 0 -89.5 25t-37.5 67q0 35 25.5 59.5t74.5 24.5q75 0 137 -82q62 30 82.5 110.5t20.5 245.5v871h-161q-5 27 0 51q60 12 92.5 20.5t47.5 17.5q15 11 18 22q3 12 6 63q10 237 138.5 367.5t332.5 130.5q188 0 250 -115
q132 131 333 131q87 0 156 -26q57 18 106 40l20 -8q-2 -43 -3 -95.5t-1 -115.5v-780q29 0 60 24.5t149 140.5q74 73 96.5 98t22.5 41q0 37 -96 40q-4 30 0 60q42 0 97 -2t102 -2q43 0 113 1.5t107 1.5q4 -30 0 -58q-80 -3 -144 -35t-163 -125l-152 -143l265 -353
q66 -88 111.5 -116.5t123.5 -29.5q1 -8 1.5 -15t0.5 -15t-0.5 -15t-1.5 -15q-23 0 -73.5 2t-143.5 2q-48 0 -107 -4q0 26 -59.5 111t-210.5 290q-35 44 -53.5 53.5t-44.5 9.5v-243q0 -56 3.5 -87t16.5 -46.5t39 -20t71 -7.5q4 -30 0 -60q-53 0 -106 2t-114 2q-66 0 -120 -2
t-112 -2q-5 29 0 59q49 3 78 8t44 19t19.5 41t4.5 74v1051q0 98 -29 133t-105 35q-142 0 -206 -83.5t-64 -282.5v-152h255q6 -44 0 -88h-254v-593q0 -56 4 -87t18 -46.5t42 -20t76 -7.5q4 -30 0 -60q-55 0 -110.5 2t-119.5 2q-66 0 -120 -2t-112 -2q-5 28 0 59q49 3 78 8
t44 19t19.5 41t4.5 74v613h-404zM386 901h403l5 102q6 139 54 242q-67 0 -103 43.5t-36 102.5q-34 11 -90 11q-115 0 -174 -85.5t-59 -279.5v-136z" />
    <glyph glyph-name="uni019206600135" unicode="&#x192;f&#x1e35;" horiz-adv-x="2224" 
d="M387 813v-816q0 -241 -114.5 -373t-274.5 -132q-52 0 -89.5 25t-37.5 67q0 35 25.5 59.5t74.5 24.5q75 0 137 -82q62 30 82.5 110.5t20.5 245.5v871h-161q-5 27 0 51q60 12 92.5 20.5t47.5 17.5q15 11 18 22q3 12 6 63q10 237 138.5 367.5t332.5 130.5q188 0 250 -115
q132 131 333 131q87 0 156 -26q57 18 106 40l20 -8q-2 -43 -3 -95.5t-1 -115.5v-780q29 0 60 24.5t149 140.5q74 73 96.5 98t22.5 41q0 37 -96 40q-4 30 0 60q42 0 97 -2t102 -2q43 0 113 1.5t107 1.5q4 -30 0 -58q-80 -3 -144 -35t-163 -125l-152 -143l265 -353
q66 -88 111.5 -116.5t123.5 -29.5q1 -8 1.5 -15t0.5 -15t-0.5 -15t-1.5 -15q-23 0 -73.5 2t-143.5 2q-48 0 -107 -4q0 26 -59.5 111t-210.5 290q-35 44 -53.5 53.5t-44.5 9.5v-243q0 -56 3.5 -87t16.5 -46.5t39 -20t71 -7.5q4 -30 0 -60q-53 0 -106 2t-114 2q-66 0 -120 -2
t-112 -2q-5 29 0 59q49 3 78 8t44 19t19.5 41t4.5 74v1051q0 98 -29 133t-105 35q-142 0 -206 -83.5t-64 -282.5v-152h255q6 -44 0 -88h-254v-593q0 -56 4 -87t18 -46.5t42 -20t76 -7.5q4 -30 0 -60q-55 0 -110.5 2t-119.5 2q-66 0 -120 -2t-112 -2q-5 28 0 59q49 3 78 8
t44 19t19.5 41t4.5 74v613h-404zM386 901h403l5 102q6 139 54 242q-67 0 -103 43.5t-36 102.5q-34 11 -90 11q-115 0 -174 -85.5t-59 -279.5v-136zM2004 -192q6 -48 0 -96h-548q-6 48 0 96h548z" />
    <glyph glyph-name="uni019206601E33" unicode="&#x192;f&#x1e33;" horiz-adv-x="2224" 
d="M387 813v-816q0 -241 -114.5 -373t-274.5 -132q-52 0 -89.5 25t-37.5 67q0 35 25.5 59.5t74.5 24.5q75 0 137 -82q62 30 82.5 110.5t20.5 245.5v871h-161q-5 27 0 51q60 12 92.5 20.5t47.5 17.5q15 11 18 22q3 12 6 63q10 237 138.5 367.5t332.5 130.5q188 0 250 -115
q132 131 333 131q87 0 156 -26q57 18 106 40l20 -8q-2 -43 -3 -95.5t-1 -115.5v-780q29 0 60 24.5t149 140.5q74 73 96.5 98t22.5 41q0 37 -96 40q-4 30 0 60q42 0 97 -2t102 -2q43 0 113 1.5t107 1.5q4 -30 0 -58q-80 -3 -144 -35t-163 -125l-152 -143l265 -353
q66 -88 111.5 -116.5t123.5 -29.5q1 -8 1.5 -15t0.5 -15t-0.5 -15t-1.5 -15q-23 0 -73.5 2t-143.5 2q-48 0 -107 -4q0 26 -59.5 111t-210.5 290q-35 44 -53.5 53.5t-44.5 9.5v-243q0 -56 3.5 -87t16.5 -46.5t39 -20t71 -7.5q4 -30 0 -60q-53 0 -106 2t-114 2q-66 0 -120 -2
t-112 -2q-5 29 0 59q49 3 78 8t44 19t19.5 41t4.5 74v1051q0 98 -29 133t-105 35q-142 0 -206 -83.5t-64 -282.5v-152h255q6 -44 0 -88h-254v-593q0 -56 4 -87t18 -46.5t42 -20t76 -7.5q4 -30 0 -60q-55 0 -110.5 2t-119.5 2q-66 0 -120 -2t-112 -2q-5 28 0 59q49 3 78 8
t44 19t19.5 41t4.5 74v613h-404zM386 901h403l5 102q6 139 54 242q-67 0 -103 43.5t-36 102.5q-34 11 -90 11q-115 0 -174 -85.5t-59 -279.5v-136zM1612 -298q0 47 33 81.5t84 34.5q52 0 85.5 -34.5t33.5 -81.5q0 -46 -33.5 -80.5t-85.5 -34.5q-51 0 -84 34.5t-33 80.5z" />
    <glyph glyph-name="uni019206601E37" unicode="&#x192;f&#x137;" horiz-adv-x="2224" 
d="M387 813v-816q0 -241 -114.5 -373t-274.5 -132q-52 0 -89.5 25t-37.5 67q0 35 25.5 59.5t74.5 24.5q75 0 137 -82q62 30 82.5 110.5t20.5 245.5v871h-161q-5 27 0 51q60 12 92.5 20.5t47.5 17.5q15 11 18 22q3 12 6 63q10 237 138.5 367.5t332.5 130.5q188 0 250 -115
q132 131 333 131q87 0 156 -26q57 18 106 40l20 -8q-2 -43 -3 -95.5t-1 -115.5v-780q29 0 60 24.5t149 140.5q74 73 96.5 98t22.5 41q0 37 -96 40q-4 30 0 60q42 0 97 -2t102 -2q43 0 113 1.5t107 1.5q4 -30 0 -58q-80 -3 -144 -35t-163 -125l-152 -143l265 -353
q66 -88 111.5 -116.5t123.5 -29.5q1 -8 1.5 -15t0.5 -15t-0.5 -15t-1.5 -15q-23 0 -73.5 2t-143.5 2q-48 0 -107 -4q0 26 -59.5 111t-210.5 290q-35 44 -53.5 53.5t-44.5 9.5v-243q0 -56 3.5 -87t16.5 -46.5t39 -20t71 -7.5q4 -30 0 -60q-53 0 -106 2t-114 2q-66 0 -120 -2
t-112 -2q-5 29 0 59q49 3 78 8t44 19t19.5 41t4.5 74v1051q0 98 -29 133t-105 35q-142 0 -206 -83.5t-64 -282.5v-152h255q6 -44 0 -88h-254v-593q0 -56 4 -87t18 -46.5t42 -20t76 -7.5q4 -30 0 -60q-55 0 -110.5 2t-119.5 2q-66 0 -120 -2t-112 -2q-5 28 0 59q49 3 78 8
t44 19t19.5 41t4.5 74v613h-404zM386 901h403l5 102q6 139 54 242q-67 0 -103 43.5t-36 102.5q-34 11 -90 11q-115 0 -174 -85.5t-59 -279.5v-136zM1608 -494q91 22 135 63t44 105q0 26 -9 55q-36 -36 -86 -36q-40 0 -68.5 27t-28.5 74q0 53 36 84t93 31q76 0 120 -52.5
t44 -140.5q0 -103 -70.5 -173t-193.5 -95q-12 28 -16 58z" />
    <glyph glyph-name="uni01920660006C" unicode="&#x192;fl" horiz-adv-x="1736" 
d="M387 813v-816q0 -241 -114.5 -373t-274.5 -132q-52 0 -89.5 25t-37.5 67q0 35 25.5 59.5t74.5 24.5q75 0 137 -82q62 30 82.5 110.5t20.5 245.5v871h-161q-5 27 0 51q60 12 92.5 20.5t47.5 17.5q15 11 18 22q3 12 6 63q10 237 138.5 367.5t332.5 130.5q188 0 250 -115
q132 131 333 131q87 0 156 -26q57 18 106 40l20 -8q-2 -43 -3 -95.5t-1 -115.5v-1076q0 -56 4 -87t18 -46.5t42 -20t76 -7.5q4 -30 0 -60q-55 0 -110.5 2t-119.5 2q-66 0 -120 -2t-112 -2q-5 30 0 59q49 3 78 8t44 19t19.5 41t4.5 74v1051q0 98 -29 133t-105 35
q-142 0 -206 -83.5t-64 -282.5v-152h255q6 -44 0 -88h-254v-593q0 -56 4 -87t18 -46.5t42 -20t76 -7.5q4 -30 0 -60q-55 0 -110.5 2t-119.5 2q-66 0 -120 -2t-112 -2q-5 28 0 59q49 3 78 8t44 19t19.5 41t4.5 74v613h-404zM386 901h403l5 102q6 139 54 242q-67 0 -103 43.5
t-36 102.5q-34 11 -90 11q-115 0 -174 -85.5t-59 -279.5v-136z" />
    <glyph glyph-name="uni01920660013A" unicode="&#x192;f&#x13a;" horiz-adv-x="1736" 
d="M387 813v-816q0 -241 -114.5 -373t-274.5 -132q-52 0 -89.5 25t-37.5 67q0 35 25.5 59.5t74.5 24.5q75 0 137 -82q62 30 82.5 110.5t20.5 245.5v871h-161q-5 27 0 51q60 12 92.5 20.5t47.5 17.5q15 11 18 22q3 12 6 63q10 237 138.5 367.5t332.5 130.5q188 0 250 -115
q132 131 333 131q87 0 156 -26q57 18 106 40l20 -8q-2 -43 -3 -95.5t-1 -115.5v-1076q0 -56 4 -87t18 -46.5t42 -20t76 -7.5q4 -30 0 -60q-55 0 -110.5 2t-119.5 2q-66 0 -120 -2t-112 -2q-5 30 0 59q49 3 78 8t44 19t19.5 41t4.5 74v1051q0 98 -29 133t-105 35
q-142 0 -206 -83.5t-64 -282.5v-152h255q6 -44 0 -88h-254v-593q0 -56 4 -87t18 -46.5t42 -20t76 -7.5q4 -30 0 -60q-55 0 -110.5 2t-119.5 2q-66 0 -120 -2t-112 -2q-5 28 0 59q49 3 78 8t44 19t19.5 41t4.5 74v613h-404zM386 901h403l5 102q6 139 54 242q-67 0 -103 43.5
t-36 102.5q-34 11 -90 11q-115 0 -174 -85.5t-59 -279.5v-136zM1745 1758q-33 -17 -80.5 -43.5t-99.5 -56.5t-103 -60.5t-91 -54.5q-25 13 -42 41q33 34 69.5 73t72.5 78t70 76t62 69q29 0 65 -33.5t77 -81.5v-7z" />
    <glyph glyph-name="uni01920660013E" unicode="&#x192;f&#x13e;" horiz-adv-x="1920" 
d="M387 813v-816q0 -241 -114.5 -373t-274.5 -132q-52 0 -89.5 25t-37.5 67q0 35 25.5 59.5t74.5 24.5q75 0 137 -82q62 30 82.5 110.5t20.5 245.5v871h-161q-5 27 0 51q60 12 92.5 20.5t47.5 17.5q15 11 18 22q3 12 6 63q10 237 138.5 367.5t332.5 130.5q188 0 250 -115
q132 131 333 131q87 0 156 -26q57 18 106 40l20 -8q-2 -43 -3 -95.5t-1 -115.5v-1076q0 -56 4 -87t18 -46.5t42 -20t76 -7.5q4 -30 0 -60q-55 0 -110.5 2t-119.5 2q-66 0 -120 -2t-112 -2q-5 30 0 59q49 3 78 8t44 19t19.5 41t4.5 74v1051q0 98 -29 133t-105 35
q-142 0 -206 -83.5t-64 -282.5v-152h255q6 -44 0 -88h-254v-593q0 -56 4 -87t18 -46.5t42 -20t76 -7.5q4 -30 0 -60q-55 0 -110.5 2t-119.5 2q-66 0 -120 -2t-112 -2q-5 28 0 59q49 3 78 8t44 19t19.5 41t4.5 74v613h-404zM386 901h403l5 102q6 139 54 242q-67 0 -103 43.5
t-36 102.5q-34 11 -90 11q-115 0 -174 -85.5t-59 -279.5v-136zM1870 1419l-132 -442q-11 -2 -28 -0.5t-28 5.5l25 447q7 9 60 9q42 0 103 -11v-8z" />
    <glyph glyph-name="uni01920660013C" unicode="&#x192;f&#x13c;" horiz-adv-x="1736" 
d="M387 813v-816q0 -241 -114.5 -373t-274.5 -132q-52 0 -89.5 25t-37.5 67q0 35 25.5 59.5t74.5 24.5q75 0 137 -82q62 30 82.5 110.5t20.5 245.5v871h-161q-5 27 0 51q60 12 92.5 20.5t47.5 17.5q15 11 18 22q3 12 6 63q10 237 138.5 367.5t332.5 130.5q188 0 250 -115
q132 131 333 131q87 0 156 -26q57 18 106 40l20 -8q-2 -43 -3 -95.5t-1 -115.5v-1076q0 -56 4 -87t18 -46.5t42 -20t76 -7.5q4 -30 0 -60q-55 0 -110.5 2t-119.5 2q-66 0 -120 -2t-112 -2q-5 30 0 59q49 3 78 8t44 19t19.5 41t4.5 74v1051q0 98 -29 133t-105 35
q-142 0 -206 -83.5t-64 -282.5v-152h255q6 -44 0 -88h-254v-593q0 -56 4 -87t18 -46.5t42 -20t76 -7.5q4 -30 0 -60q-55 0 -110.5 2t-119.5 2q-66 0 -120 -2t-112 -2q-5 28 0 59q49 3 78 8t44 19t19.5 41t4.5 74v613h-404zM386 901h403l5 102q6 139 54 242q-67 0 -103 43.5
t-36 102.5q-34 11 -90 11q-115 0 -174 -85.5t-59 -279.5v-136zM1333 -494q91 22 135 63t44 105q0 26 -9 55q-36 -36 -86 -36q-40 0 -68.5 27t-28.5 74q0 53 36 84t93 31q76 0 120 -52.5t44 -140.5q0 -103 -70.5 -173t-193.5 -95q-12 28 -16 58z" />
    <glyph glyph-name="uni019206600142" unicode="&#x192;f&#x142;" horiz-adv-x="1736" 
d="M387 813v-816q0 -241 -114.5 -373t-274.5 -132q-52 0 -89.5 25t-37.5 67q0 35 25.5 59.5t74.5 24.5q75 0 137 -82q62 30 82.5 110.5t20.5 245.5v871h-161q-5 27 0 51q60 12 92.5 20.5t47.5 17.5q15 11 18 22q3 12 6 63q10 237 138.5 367.5t332.5 130.5q188 0 250 -115
q132 131 333 131q87 0 156 -26q57 18 106 40l20 -8q-2 -43 -3 -95.5t-1 -115.5v-439l159 69q4 -46 0 -92l-159 -69v-545q0 -56 4 -87t18 -46.5t42 -20t76 -7.5q4 -30 0 -60q-55 0 -110.5 2t-119.5 2q-66 0 -120 -2t-112 -2q-5 29 0 59q49 3 78 8t44 19t19.5 41t4.5 74v489
l-152 -66q-4 46 0 92l152 66v470q0 98 -29 133t-105 35q-142 0 -206 -83.5t-64 -282.5v-152h225q6 -44 0 -88h-224v-593q0 -56 4 -87t18 -46.5t42 -20t76 -7.5q4 -30 0 -60q-55 0 -110.5 2t-119.5 2q-66 0 -120 -2t-112 -2q-5 28 0 59q49 3 78 8t44 19t19.5 41t4.5 74v613
h-404zM386 901h403l5 102q6 139 54 242q-67 0 -103 43.5t-36 102.5q-34 11 -90 11q-115 0 -174 -85.5t-59 -279.5v-136z" />
    <glyph glyph-name="uni01920660019A" unicode="&#x192;f&#x19a;" horiz-adv-x="1736" 
d="M1201 901h169v350q0 98 -29 133t-105 35q-142 0 -206 -83.5t-64 -282.5v-152h180v-86h-179v-595q0 -56 4 -87t18 -46.5t42 -20t76 -7.5q4 -30 0 -60q-55 0 -110.5 2t-119.5 2q-66 0 -120 -2t-112 -2q-5 28 0 59q49 3 78 8t44 19t19.5 41t4.5 74v615h-404v-818
q0 -241 -114.5 -373t-274.5 -132q-52 0 -89.5 25t-37.5 67q0 35 25.5 59.5t74.5 24.5q75 0 137 -82q62 30 82.5 110.5t20.5 245.5v873h-161q-5 25 0 49q60 12 92.5 20.5t47.5 17.5q15 11 18 22q3 12 6 63q10 237 138.5 367.5t332.5 130.5q188 0 250 -115q132 131 333 131
q87 0 156 -26q57 18 106 40l20 -8q-2 -43 -3 -95.5t-1 -115.5v-395h184q5 -40 0 -86h-184v-595q0 -56 4 -87t18 -46.5t42 -20t76 -7.5q4 -30 0 -60q-55 0 -110.5 2t-119.5 2q-66 0 -120 -2t-112 -2q-5 30 0 59q49 3 78 8t44 19t19.5 41t4.5 74v615h-169v86zM386 901h403
l5 102q6 139 54 242q-67 0 -103 43.5t-36 102.5q-34 11 -90 11q-115 0 -174 -85.5t-59 -279.5v-136z" />
    <glyph glyph-name="uni01920192" unicode="&#x192;&#x192;" horiz-adv-x="1224" 
d="M387 813v-816q0 -241 -114.5 -373t-274.5 -132q-52 0 -89.5 25t-37.5 67q0 35 25.5 59.5t74.5 24.5q75 0 137 -82q62 30 82.5 110.5t20.5 245.5v871h-161q-5 27 0 51q60 12 92.5 20.5t47.5 17.5q15 11 18 22q3 12 6 63q10 237 135.5 367.5t325.5 130.5q184 0 244 -113
q118 129 304 129q98 0 164 -42t66 -110q0 -43 -26.5 -70.5t-67.5 -27.5q-57 0 -96.5 45.5t-39.5 109.5q-26 11 -66 11q-99 0 -145 -85.5t-46 -278.5v-152h255q6 -45 0 -88h-254v-806q0 -241 -114.5 -373t-274.5 -132q-52 0 -89.5 25t-37.5 67q0 35 25.5 59.5t74.5 24.5
q75 0 137 -82q62 30 82.5 110.5t20.5 245.5v861h-404zM386 901h403l3 81q7 155 50 263q-76 0 -112 43.5t-36 102.5q-32 11 -86 11q-109 0 -165.5 -85.5t-56.5 -279.5v-136z" />
    <glyph glyph-name="uni019201920062" unicode="&#x192;&#x192;b" horiz-adv-x="2303" 
d="M387 813v-816q0 -241 -114.5 -373t-274.5 -132q-52 0 -89.5 25t-37.5 67q0 35 25.5 59.5t74.5 24.5q75 0 137 -82q62 30 82.5 110.5t20.5 245.5v871h-161q-5 27 0 51q60 12 92.5 20.5t47.5 17.5q15 11 18 22q3 12 6 63q10 237 138.5 367.5t332.5 130.5q188 0 250 -115
q132 131 333 131q87 0 156 -26q57 18 104 40l20 -8q-2 -43 -3 -95.5t-1 -115.5v-483q144 133 312 133q161 0 268 -128.5t107 -318.5q0 -217 -137 -367t-347 -150q-148 0 -286 72q-29 -31 -51 -67q-27 2 -44 8q4 67 4 225v1031q0 98 -29 133t-105 35q-142 0 -206 -83.5
t-64 -282.5v-152h255q6 -44 0 -88h-254v-806q0 -241 -114.5 -373t-274.5 -132q-52 0 -89.5 25t-37.5 67q0 35 25.5 59.5t74.5 24.5q75 0 137 -82q62 30 82.5 110.5t20.5 245.5v861h-404zM1542 156q91 -97 223 -97q141 0 213.5 102t72.5 266q0 177 -74 288t-212 111
q-125 0 -223 -94v-576zM386 901h403l5 102q6 139 54 242q-67 0 -103 43.5t-36 102.5q-34 11 -90 11q-115 0 -174 -85.5t-59 -279.5v-136z" />
    <glyph glyph-name="uni019201920180" unicode="&#x192;&#x192;&#x180;" horiz-adv-x="2303" 
d="M387 813v-816q0 -241 -114.5 -373t-274.5 -132q-52 0 -89.5 25t-37.5 67q0 35 25.5 59.5t74.5 24.5q75 0 137 -82q62 30 82.5 110.5t20.5 245.5v871h-161q-5 27 0 51q60 12 92.5 20.5t47.5 17.5q15 11 18 22q3 12 6 63q10 237 138.5 367.5t332.5 130.5q188 0 250 -115
q132 131 333 131q87 0 156 -26q57 18 104 40l20 -8q-2 -43 -3 -95.5t-1 -115.5v-110h356q6 -40 0 -82h-356v-311q144 133 312 133q161 0 268 -126t107 -312q0 -212 -137 -359t-347 -147q-148 0 -286 72q-29 -31 -51 -67q-27 2 -44 8q4 67 4 225v884h-149q-5 40 0 82h149v65
q0 98 -29 133t-105 35q-142 0 -206 -83.5t-64 -282.5v-152h250q6 -44 0 -88h-249v-806q0 -241 -114.5 -373t-274.5 -132q-52 0 -89.5 25t-37.5 67q0 35 25.5 59.5t74.5 24.5q75 0 137 -82q62 30 82.5 110.5t20.5 245.5v861h-404zM1542 153q91 -94 223 -94q141 0 213.5 99.5
t72.5 258.5q0 173 -74 281t-212 108q-125 0 -223 -92v-561zM386 901h403l5 102q6 139 54 242q-67 0 -103 43.5t-36 102.5q-34 11 -90 11q-115 0 -174 -85.5t-59 -279.5v-136z" />
    <glyph glyph-name="uni019201920068" unicode="&#x192;&#x192;h" horiz-adv-x="2325" 
d="M387 813v-816q0 -241 -114.5 -373t-274.5 -132q-52 0 -89.5 25t-37.5 67q0 35 25.5 59.5t74.5 24.5q75 0 137 -82q62 30 82.5 110.5t20.5 245.5v871h-161q-5 27 0 51q60 12 92.5 20.5t47.5 17.5q15 11 18 22q3 12 6 63q10 237 138.5 367.5t332.5 130.5q188 0 250 -115
q132 131 333 131q87 0 156 -26q57 18 106 40l20 -8q-2 -43 -3 -95.5t-1 -115.5v-498q162 148 335 148q130 0 197 -75t67 -215v-436q0 -56 4 -87t18 -46.5t40 -20t75 -7.5q4 -30 0 -60q-56 0 -109.5 2t-117.5 2q-65 0 -117.5 -2t-104.5 -2q-4 29 0 59q44 3 70.5 8t41.5 19
t19.5 40.5t4.5 74.5v388q0 135 -47.5 182.5t-141.5 47.5q-132 0 -234 -99v-499q0 -56 4 -87t18 -46.5t41 -20t72 -7.5q4 -30 0 -60q-50 0 -105.5 2t-119.5 2q-66 0 -120 -2t-112 -2q-5 29 0 59q49 3 78 8t44 19t19.5 41t4.5 74v1051q0 98 -29 133t-105 35q-142 0 -206 -83.5
t-64 -282.5v-152h255q6 -44 0 -88h-254v-806q0 -241 -114.5 -373t-274.5 -132q-52 0 -89.5 25t-37.5 67q0 35 25.5 59.5t74.5 24.5q75 0 137 -82q62 30 82.5 110.5t20.5 245.5v861h-404zM386 901h403l5 102q6 139 54 242q-67 0 -103 43.5t-36 102.5q-34 11 -90 11
q-115 0 -174 -85.5t-59 -279.5v-136z" />
    <glyph glyph-name="uni019201920125" unicode="&#x192;&#x192;&#x125;" horiz-adv-x="2325" 
d="M387 813v-816q0 -241 -114.5 -373t-274.5 -132q-52 0 -89.5 25t-37.5 67q0 35 25.5 59.5t74.5 24.5q75 0 137 -82q62 30 82.5 110.5t20.5 245.5v871h-161q-5 27 0 51q60 12 92.5 20.5t47.5 17.5q15 11 18 22q3 12 6 63q10 237 138.5 367.5t332.5 130.5q188 0 250 -115
q132 131 333 131q87 0 156 -26q57 18 106 40l20 -8q-2 -43 -3 -95.5t-1 -115.5v-498q162 148 335 148q130 0 197 -75t67 -215v-436q0 -56 4 -87t18 -46.5t40 -20t75 -7.5q4 -30 0 -60q-56 0 -109.5 2t-117.5 2q-65 0 -117.5 -2t-104.5 -2q-4 29 0 59q44 3 70.5 8t41.5 19
t19.5 40.5t4.5 74.5v388q0 135 -47.5 182.5t-141.5 47.5q-132 0 -234 -99v-499q0 -56 4 -87t18 -46.5t41 -20t72 -7.5q4 -30 0 -60q-50 0 -105.5 2t-119.5 2q-66 0 -120 -2t-112 -2q-5 29 0 59q49 3 78 8t44 19t19.5 41t4.5 74v1051q0 98 -29 133t-105 35q-142 0 -206 -83.5
t-64 -282.5v-152h255q6 -44 0 -88h-254v-806q0 -241 -114.5 -373t-274.5 -132q-52 0 -89.5 25t-37.5 67q0 35 25.5 59.5t74.5 24.5q75 0 137 -82q62 30 82.5 110.5t20.5 245.5v861h-404zM386 901h403l5 102q6 139 54 242q-67 0 -103 43.5t-36 102.5q-34 11 -90 11
q-115 0 -174 -85.5t-59 -279.5v-136zM1461 1730q-125 -96 -276 -189q-28 4 -54 23q30 31 64.5 71t70 81.5t68 82t58.5 72.5q29 7 71 7q37 0 71 -7q25 -32 57.5 -72.5t68 -82t70.5 -81.5t65 -71q-26 -19 -54 -23q-152 92 -280 189z" />
    <glyph glyph-name="uni019201921E96" unicode="&#x192;&#x192;&#x1e96;" horiz-adv-x="2325" 
d="M387 813v-816q0 -241 -114.5 -373t-274.5 -132q-52 0 -89.5 25t-37.5 67q0 35 25.5 59.5t74.5 24.5q75 0 137 -82q62 30 82.5 110.5t20.5 245.5v871h-161q-5 27 0 51q60 12 92.5 20.5t47.5 17.5q15 11 18 22q3 12 6 63q10 237 138.5 367.5t332.5 130.5q188 0 250 -115
q132 131 333 131q87 0 156 -26q57 18 106 40l20 -8q-2 -43 -3 -95.5t-1 -115.5v-498q162 148 335 148q130 0 197 -75t67 -215v-436q0 -56 4 -87t18 -46.5t40 -20t75 -7.5q4 -30 0 -60q-56 0 -109.5 2t-117.5 2q-65 0 -117.5 -2t-104.5 -2q-4 29 0 59q44 3 70.5 8t41.5 19
t19.5 40.5t4.5 74.5v388q0 135 -47.5 182.5t-141.5 47.5q-132 0 -234 -99v-499q0 -56 4 -87t18 -46.5t41 -20t72 -7.5q4 -30 0 -60q-50 0 -105.5 2t-119.5 2q-66 0 -120 -2t-112 -2q-5 29 0 59q49 3 78 8t44 19t19.5 41t4.5 74v1051q0 98 -29 133t-105 35q-142 0 -206 -83.5
t-64 -282.5v-152h255q6 -44 0 -88h-254v-806q0 -241 -114.5 -373t-274.5 -132q-52 0 -89.5 25t-37.5 67q0 35 25.5 59.5t74.5 24.5q75 0 137 -82q62 30 82.5 110.5t20.5 245.5v861h-404zM386 901h403l5 102q6 139 54 242q-67 0 -103 43.5t-36 102.5q-34 11 -90 11
q-115 0 -174 -85.5t-59 -279.5v-136zM2029 -192q6 -48 0 -96h-548q-6 48 0 96h548z" />
    <glyph glyph-name="uni019201921E2B" unicode="&#x192;&#x192;&#x1e2b;" horiz-adv-x="2325" 
d="M387 813v-816q0 -241 -114.5 -373t-274.5 -132q-52 0 -89.5 25t-37.5 67q0 35 25.5 59.5t74.5 24.5q75 0 137 -82q62 30 82.5 110.5t20.5 245.5v871h-161q-5 27 0 51q60 12 92.5 20.5t47.5 17.5q15 11 18 22q3 12 6 63q10 237 138.5 367.5t332.5 130.5q188 0 250 -115
q132 131 333 131q87 0 156 -26q57 18 106 40l20 -8q-2 -43 -3 -95.5t-1 -115.5v-498q162 148 335 148q130 0 197 -75t67 -215v-436q0 -56 4 -87t18 -46.5t40 -20t75 -7.5q4 -30 0 -60q-56 0 -109.5 2t-117.5 2q-65 0 -117.5 -2t-104.5 -2q-4 29 0 59q44 3 70.5 8t41.5 19
t19.5 40.5t4.5 74.5v388q0 135 -47.5 182.5t-141.5 47.5q-132 0 -234 -99v-499q0 -56 4 -87t18 -46.5t41 -20t72 -7.5q4 -30 0 -60q-50 0 -105.5 2t-119.5 2q-66 0 -120 -2t-112 -2q-5 29 0 59q49 3 78 8t44 19t19.5 41t4.5 74v1051q0 98 -29 133t-105 35q-142 0 -206 -83.5
t-64 -282.5v-152h255q6 -44 0 -88h-254v-806q0 -241 -114.5 -373t-274.5 -132q-52 0 -89.5 25t-37.5 67q0 35 25.5 59.5t74.5 24.5q75 0 137 -82q62 30 82.5 110.5t20.5 245.5v861h-404zM386 901h403l5 102q6 139 54 242q-67 0 -103 43.5t-36 102.5q-34 11 -90 11
q-115 0 -174 -85.5t-59 -279.5v-136zM1988 -111q31 -3 60 -12q-14 -169 -92 -253t-203 -84t-201 84t-90 253q28 9 60 12q23 -106 82.5 -157.5t150.5 -51.5q93 0 152.5 53t80.5 156z" />
    <glyph glyph-name="uni019201921E25" unicode="&#x192;&#x192;&#x1e25;" horiz-adv-x="2325" 
d="M387 813v-816q0 -241 -114.5 -373t-274.5 -132q-52 0 -89.5 25t-37.5 67q0 35 25.5 59.5t74.5 24.5q75 0 137 -82q62 30 82.5 110.5t20.5 245.5v871h-161q-5 27 0 51q60 12 92.5 20.5t47.5 17.5q15 11 18 22q3 12 6 63q10 237 138.5 367.5t332.5 130.5q188 0 250 -115
q132 131 333 131q87 0 156 -26q57 18 106 40l20 -8q-2 -43 -3 -95.5t-1 -115.5v-498q162 148 335 148q130 0 197 -75t67 -215v-436q0 -56 4 -87t18 -46.5t40 -20t75 -7.5q4 -30 0 -60q-56 0 -109.5 2t-117.5 2q-65 0 -117.5 -2t-104.5 -2q-4 29 0 59q44 3 70.5 8t41.5 19
t19.5 40.5t4.5 74.5v388q0 135 -47.5 182.5t-141.5 47.5q-132 0 -234 -99v-499q0 -56 4 -87t18 -46.5t41 -20t72 -7.5q4 -30 0 -60q-50 0 -105.5 2t-119.5 2q-66 0 -120 -2t-112 -2q-5 29 0 59q49 3 78 8t44 19t19.5 41t4.5 74v1051q0 98 -29 133t-105 35q-142 0 -206 -83.5
t-64 -282.5v-152h255q6 -44 0 -88h-254v-806q0 -241 -114.5 -373t-274.5 -132q-52 0 -89.5 25t-37.5 67q0 35 25.5 59.5t74.5 24.5q75 0 137 -82q62 30 82.5 110.5t20.5 245.5v861h-404zM386 901h403l5 102q6 139 54 242q-67 0 -103 43.5t-36 102.5q-34 11 -90 11
q-115 0 -174 -85.5t-59 -279.5v-136zM1637 -298q0 47 33 81.5t84 34.5q52 0 85.5 -34.5t33.5 -81.5q0 -46 -33.5 -80.5t-85.5 -34.5q-51 0 -84 34.5t-33 80.5z" />
    <glyph glyph-name="uni019201920127" unicode="&#x192;&#x192;&#x127;" horiz-adv-x="2325" 
d="M387 813v-816q0 -241 -114.5 -373t-274.5 -132q-52 0 -89.5 25t-37.5 67q0 35 25.5 59.5t74.5 24.5q75 0 137 -82q62 30 82.5 110.5t20.5 245.5v871h-161q-5 27 0 51q60 12 92.5 20.5t47.5 17.5q15 11 18 22q3 12 6 63q10 237 138.5 367.5t332.5 130.5q188 0 250 -115
q132 131 333 131q87 0 156 -26q57 18 106 40l20 -8q-2 -43 -3 -95.5t-1 -115.5v-110h354q6 -40 0 -82h-354v-326q162 148 335 148q130 0 197 -75t67 -215v-416q0 -56 4 -87t18 -46.5t40 -20t75 -7.5q4 -30 0 -60q-56 0 -109.5 2t-117.5 2q-65 0 -117.5 -2t-104.5 -2
q-4 29 0 59q44 3 70.5 8t41.5 19t19.5 40.5t4.5 74.5v368q0 135 -47.5 182.5t-141.5 47.5q-132 0 -234 -99v-479q0 -56 4 -87t18 -46.5t41 -20t72 -7.5q4 -30 0 -60q-50 0 -105.5 2t-119.5 2q-66 0 -120 -2t-112 -2q-5 29 0 59q49 3 78 8t44 19t19.5 41t4.5 74v904h-149
q-5 40 0 82h149v65q0 98 -29 133t-105 35q-142 0 -206 -83.5t-64 -282.5v-152h250q6 -44 0 -88h-249v-806q0 -241 -114.5 -373t-274.5 -132q-52 0 -89.5 25t-37.5 67q0 35 25.5 59.5t74.5 24.5q75 0 137 -82q62 30 82.5 110.5t20.5 245.5v861h-404zM386 901h403l5 102
q6 139 54 242q-67 0 -103 43.5t-36 102.5q-34 11 -90 11q-115 0 -174 -85.5t-59 -279.5v-136z" />
    <glyph glyph-name="uni019201920069" unicode="&#x192;&#x192;i" horiz-adv-x="1742" 
d="M394 813v-816q0 -241 -114.5 -373t-274.5 -132q-52 0 -89.5 25t-37.5 67q0 35 25.5 59.5t74.5 24.5q75 0 137 -82q62 30 82.5 110.5t20.5 245.5v871h-161q-5 27 0 51q60 12 92.5 20.5t47.5 17.5q15 11 18 22q3 12 6 63q10 237 138.5 367.5t332.5 130.5q189 0 250 -116v1
q132 131 343 131q114 0 186.5 -41t72.5 -109q0 -48 -29 -73.5t-68 -25.5q-54 0 -92.5 46t-38.5 108q-35 12 -96 12q-122 0 -184.5 -85.5t-62.5 -279.5v-152h352q48 0 97 13t114 40l20 -8q-4 -119 -4 -211v-515q0 -56 4 -87t18 -46.5t42 -20t76 -7.5q4 -30 0 -60
q-55 0 -110.5 2t-119.5 2t-118.5 -2t-112.5 -2q-5 29 0 59q49 3 78 8t44 19t19.5 41t4.5 74v522q0 57 -19.5 74t-70.5 17h-313v-806q0 -241 -114.5 -373t-274.5 -132q-52 0 -89.5 25t-37.5 67q0 35 25.5 59.5t74.5 24.5q75 0 137 -82q62 30 82.5 110.5t20.5 245.5v861h-404z
M393 901h403l5 102q6 139 53 241q-62 0 -100 44t-38 103q-34 11 -90 11q-115 0 -174 -85.5t-59 -279.5v-136z" />
    <glyph glyph-name="uni01920192012F" unicode="&#x192;&#x192;&#x12f;" horiz-adv-x="1735" 
d="M387 813v-816q0 -241 -114.5 -373t-274.5 -132q-52 0 -89.5 25t-37.5 67q0 35 25.5 59.5t74.5 24.5q75 0 137 -82q62 30 82.5 110.5t20.5 245.5v871h-161q-5 27 0 51q60 12 92.5 20.5t47.5 17.5q15 11 18 22q3 12 6 63q10 237 138.5 367.5t332.5 130.5q189 0 250 -116v1
q132 131 343 131q114 0 186.5 -41t72.5 -109q0 -48 -29 -73.5t-68 -25.5q-54 0 -92.5 46t-38.5 108q-35 12 -96 12q-122 0 -184.5 -85.5t-62.5 -279.5v-152h352q48 0 97 13t114 40l20 -8q-4 -119 -4 -211v-515q0 -56 4 -87t18 -46.5t42 -20t76 -7.5q4 -30 0 -60q-49 0 -98 1
q-150 -130 -150 -266q0 -60 36 -89.5t100 -29.5q35 0 67 7q13 -19 17 -42q-95 -70 -188 -70q-88 0 -143.5 49t-55.5 132q0 173 243 312h-58q-64 0 -118.5 -2t-112.5 -2q-4 29 0 59q49 3 78 8t44 19t19.5 40.5t4.5 74.5v522q0 57 -19.5 74t-70.5 17h-313v-806
q0 -241 -114.5 -373t-274.5 -132q-52 0 -89.5 25t-37.5 67q0 35 25.5 59.5t74.5 24.5q75 0 137 -82q62 30 82.5 110.5t20.5 245.5v861h-404zM386 901h403l5 102q6 139 53 241q-62 0 -100 44t-38 103q-34 11 -90 11q-115 0 -174 -85.5t-59 -279.5v-136z" />
    <glyph glyph-name="uni019201920268" unicode="&#x192;&#x192;&#x268;" horiz-adv-x="1755" 
d="M387 813v-816q0 -241 -114.5 -373t-274.5 -132q-52 0 -89.5 25t-37.5 67q0 35 25.5 59.5t74.5 24.5q75 0 137 -82q62 30 82.5 110.5t20.5 245.5v871h-161q-5 27 0 51q60 12 92.5 20.5t47.5 17.5q15 11 18 22q3 12 6 63q10 237 138.5 367.5t332.5 130.5q189 0 250 -116v1
q132 131 343 131q114 0 186.5 -41t72.5 -109q0 -48 -29 -73.5t-68 -25.5q-54 0 -92.5 46t-38.5 108q-35 12 -96 12q-122 0 -184.5 -85.5t-62.5 -279.5v-152h352q48 0 97 13t114 40l20 -8q-4 -119 -4 -211v-195h184q5 -40 0 -82h-184v-238q0 -56 4 -87t18 -46.5t42 -20
t76 -7.5q4 -30 0 -60q-55 0 -110.5 2t-119.5 2t-118.5 -2t-112.5 -2q-5 29 0 59q49 3 78 8t44 19t19.5 41t4.5 74v258h-185q-5 40 0 82h185v182q0 57 -19.5 74t-70.5 17h-313v-806q0 -241 -114.5 -373t-274.5 -132q-52 0 -89.5 25t-37.5 67q0 35 25.5 59.5t74.5 24.5
q75 0 137 -82q62 30 82.5 110.5t20.5 245.5v861h-404zM386 901h403l5 102q6 139 53 241q-62 0 -100 44t-38 103q-34 11 -90 11q-115 0 -174 -85.5t-59 -279.5v-136z" />
    <glyph glyph-name="uni01920192006A" unicode="&#x192;&#x192;j" horiz-adv-x="1712" 
d="M387 813v-816q0 -241 -114.5 -373t-274.5 -132q-52 0 -89.5 25t-37.5 67q0 35 25.5 59.5t74.5 24.5q75 0 137 -82q62 30 82.5 110.5t20.5 245.5v871h-161q-5 27 0 51q60 12 92.5 20.5t47.5 17.5q15 11 18 22q3 12 6 63q10 237 138.5 367.5t332.5 130.5q189 0 250 -116v1
q132 131 343 131q114 0 186.5 -41t72.5 -109q0 -48 -29 -73.5t-68 -25.5q-58 0 -94.5 46t-36.5 108q-35 12 -96 12q-122 0 -184.5 -85.5t-62.5 -279.5v-152h352q48 0 97 13t114 40l20 -8q-4 -119 -4 -211q1 -93 2 -276t1 -273v-169q0 -241 -114.5 -373t-273.5 -132
q-53 0 -90 25t-37 67q0 35 25.5 59.5t73.5 24.5q76 0 137 -82q62 30 82.5 110.5t20.5 245.5q0 115 -1 350t-1 410q0 57 -19.5 74t-70.5 17h-313v-806q0 -241 -114.5 -373t-274.5 -132q-52 0 -89.5 25t-37.5 67q0 35 25.5 59.5t74.5 24.5q75 0 137 -82q62 30 82.5 110.5
t20.5 245.5v861h-404zM386 901h403l5 102q6 139 53 241q-62 0 -100 44t-38 103q-34 11 -90 11q-115 0 -174 -85.5t-59 -279.5v-136z" />
    <glyph glyph-name="uni01920192006B" unicode="&#x192;&#x192;k" horiz-adv-x="2224" 
d="M387 813v-816q0 -241 -114.5 -373t-274.5 -132q-52 0 -89.5 25t-37.5 67q0 35 25.5 59.5t74.5 24.5q75 0 137 -82q62 30 82.5 110.5t20.5 245.5v871h-161q-5 27 0 51q60 12 92.5 20.5t47.5 17.5q15 11 18 22q3 12 6 63q10 237 138.5 367.5t332.5 130.5q188 0 250 -115
q132 131 333 131q87 0 156 -26q57 18 106 40l20 -8q-2 -43 -3 -95.5t-1 -115.5v-783q29 0 60 25t149 143q74 73 96.5 98t22.5 41q0 37 -96 40q-4 30 0 60q42 0 97 -2t102 -2q43 0 113 1.5t107 1.5q4 -30 0 -58q-79 -3 -144 -35t-163 -125l-156 -149l263 -347
q66 -88 111.5 -116.5t123.5 -29.5q1 -8 1.5 -15t0.5 -15t-0.5 -15t-1.5 -15q-23 0 -73.5 2t-143.5 2q-48 0 -107 -4q0 26 -59.5 111t-210.5 287q-33 44 -50.5 53.5t-41.5 9.5v-240q0 -56 3.5 -87t16.5 -46.5t39 -20t71 -7.5q4 -30 0 -60q-53 0 -106 2t-114 2q-66 0 -120 -2
t-112 -2q-5 29 0 59q49 3 78 8t44 19t19.5 41t4.5 74v1051q0 98 -29 133t-105 35q-142 0 -206 -83.5t-64 -282.5v-152h255q6 -44 0 -88h-254v-806q0 -241 -114.5 -373t-274.5 -132q-52 0 -89.5 25t-37.5 67q0 35 25.5 59.5t74.5 24.5q75 0 137 -82q62 30 82.5 110.5
t20.5 245.5v861h-404zM386 901h403l5 102q6 139 54 242q-67 0 -103 43.5t-36 102.5q-34 11 -90 11q-115 0 -174 -85.5t-59 -279.5v-136z" />
    <glyph glyph-name="uni019201920135" unicode="&#x192;&#x192;&#x1e35;" horiz-adv-x="2224" 
d="M387 813v-816q0 -241 -114.5 -373t-274.5 -132q-52 0 -89.5 25t-37.5 67q0 35 25.5 59.5t74.5 24.5q75 0 137 -82q62 30 82.5 110.5t20.5 245.5v871h-161q-5 27 0 51q60 12 92.5 20.5t47.5 17.5q15 11 18 22q3 12 6 63q10 237 138.5 367.5t332.5 130.5q188 0 250 -115
q132 131 333 131q87 0 156 -26q57 18 106 40l20 -8q-2 -43 -3 -95.5t-1 -115.5v-783q29 0 60 25t149 143q74 73 96.5 98t22.5 41q0 37 -96 40q-4 30 0 60q42 0 97 -2t102 -2q43 0 113 1.5t107 1.5q4 -30 0 -58q-79 -3 -144 -35t-163 -125l-156 -149l263 -347
q66 -88 111.5 -116.5t123.5 -29.5q1 -8 1.5 -15t0.5 -15t-0.5 -15t-1.5 -15q-23 0 -73.5 2t-143.5 2q-48 0 -107 -4q0 26 -59.5 111t-210.5 287q-33 44 -50.5 53.5t-41.5 9.5v-240q0 -56 3.5 -87t16.5 -46.5t39 -20t71 -7.5q4 -30 0 -60q-53 0 -106 2t-114 2q-66 0 -120 -2
t-112 -2q-5 29 0 59q49 3 78 8t44 19t19.5 41t4.5 74v1051q0 98 -29 133t-105 35q-142 0 -206 -83.5t-64 -282.5v-152h255q6 -44 0 -88h-254v-806q0 -241 -114.5 -373t-274.5 -132q-52 0 -89.5 25t-37.5 67q0 35 25.5 59.5t74.5 24.5q75 0 137 -82q62 30 82.5 110.5
t20.5 245.5v861h-404zM386 901h403l5 102q6 139 54 242q-67 0 -103 43.5t-36 102.5q-34 11 -90 11q-115 0 -174 -85.5t-59 -279.5v-136zM2004 -192q6 -48 0 -96h-548q-6 48 0 96h548z" />
    <glyph glyph-name="uni019201921E33" unicode="&#x192;&#x192;&#x1e33;" horiz-adv-x="2224" 
d="M387 813v-816q0 -241 -114.5 -373t-274.5 -132q-52 0 -89.5 25t-37.5 67q0 35 25.5 59.5t74.5 24.5q75 0 137 -82q62 30 82.5 110.5t20.5 245.5v871h-161q-5 27 0 51q60 12 92.5 20.5t47.5 17.5q15 11 18 22q3 12 6 63q10 237 138.5 367.5t332.5 130.5q188 0 250 -115
q132 131 333 131q87 0 156 -26q57 18 106 40l20 -8q-2 -43 -3 -95.5t-1 -115.5v-783q29 0 60 25t149 143q74 73 96.5 98t22.5 41q0 37 -96 40q-4 30 0 60q42 0 97 -2t102 -2q43 0 113 1.5t107 1.5q4 -30 0 -58q-79 -3 -144 -35t-163 -125l-156 -149l263 -347
q66 -88 111.5 -116.5t123.5 -29.5q1 -8 1.5 -15t0.5 -15t-0.5 -15t-1.5 -15q-23 0 -73.5 2t-143.5 2q-48 0 -107 -4q0 26 -59.5 111t-210.5 287q-33 44 -50.5 53.5t-41.5 9.5v-240q0 -56 3.5 -87t16.5 -46.5t39 -20t71 -7.5q4 -30 0 -60q-53 0 -106 2t-114 2q-66 0 -120 -2
t-112 -2q-5 29 0 59q49 3 78 8t44 19t19.5 41t4.5 74v1051q0 98 -29 133t-105 35q-142 0 -206 -83.5t-64 -282.5v-152h255q6 -44 0 -88h-254v-806q0 -241 -114.5 -373t-274.5 -132q-52 0 -89.5 25t-37.5 67q0 35 25.5 59.5t74.5 24.5q75 0 137 -82q62 30 82.5 110.5
t20.5 245.5v861h-404zM386 901h403l5 102q6 139 54 242q-67 0 -103 43.5t-36 102.5q-34 11 -90 11q-115 0 -174 -85.5t-59 -279.5v-136zM1612 -298q0 47 33 81.5t84 34.5q52 0 85.5 -34.5t33.5 -81.5q0 -46 -33.5 -80.5t-85.5 -34.5q-51 0 -84 34.5t-33 80.5z" />
    <glyph glyph-name="uni019201921E37" unicode="&#x192;&#x192;&#x137;" horiz-adv-x="2224" 
d="M387 813v-816q0 -241 -114.5 -373t-274.5 -132q-52 0 -89.5 25t-37.5 67q0 35 25.5 59.5t74.5 24.5q75 0 137 -82q62 30 82.5 110.5t20.5 245.5v871h-161q-5 27 0 51q60 12 92.5 20.5t47.5 17.5q15 11 18 22q3 12 6 63q10 237 138.5 367.5t332.5 130.5q188 0 250 -115
q132 131 333 131q87 0 156 -26q57 18 106 40l20 -8q-2 -43 -3 -95.5t-1 -115.5v-783q29 0 60 25t149 143q74 73 96.5 98t22.5 41q0 37 -96 40q-4 30 0 60q42 0 97 -2t102 -2q43 0 113 1.5t107 1.5q4 -30 0 -58q-79 -3 -144 -35t-163 -125l-156 -149l263 -347
q66 -88 111.5 -116.5t123.5 -29.5q1 -8 1.5 -15t0.5 -15t-0.5 -15t-1.5 -15q-23 0 -73.5 2t-143.5 2q-48 0 -107 -4q0 26 -59.5 111t-210.5 287q-33 44 -50.5 53.5t-41.5 9.5v-240q0 -56 3.5 -87t16.5 -46.5t39 -20t71 -7.5q4 -30 0 -60q-53 0 -106 2t-114 2q-66 0 -120 -2
t-112 -2q-5 29 0 59q49 3 78 8t44 19t19.5 41t4.5 74v1051q0 98 -29 133t-105 35q-142 0 -206 -83.5t-64 -282.5v-152h255q6 -44 0 -88h-254v-806q0 -241 -114.5 -373t-274.5 -132q-52 0 -89.5 25t-37.5 67q0 35 25.5 59.5t74.5 24.5q75 0 137 -82q62 30 82.5 110.5
t20.5 245.5v861h-404zM386 901h403l5 102q6 139 54 242q-67 0 -103 43.5t-36 102.5q-34 11 -90 11q-115 0 -174 -85.5t-59 -279.5v-136zM1608 -494q91 22 135 63t44 105q0 26 -9 55q-36 -36 -86 -36q-40 0 -68.5 27t-28.5 74q0 53 36 84t93 31q76 0 120 -52.5t44 -140.5
q0 -103 -70.5 -173t-193.5 -95q-12 28 -16 58z" />
    <glyph glyph-name="uni01920192006C" unicode="&#x192;&#x192;l" horiz-adv-x="1736" 
d="M387 813v-816q0 -241 -114.5 -373t-274.5 -132q-52 0 -89.5 25t-37.5 67q0 35 25.5 59.5t74.5 24.5q75 0 137 -82q62 30 82.5 110.5t20.5 245.5v871h-161q-5 27 0 51q60 12 92.5 20.5t47.5 17.5q15 11 18 22q3 12 6 63q10 237 138.5 367.5t332.5 130.5q188 0 250 -115
q132 131 333 131q87 0 156 -26q57 18 106 40l20 -8q-2 -43 -3 -95.5t-1 -115.5v-1076q0 -56 4 -87t18 -46.5t42 -20t76 -7.5q4 -30 0 -60q-55 0 -110.5 2t-119.5 2q-66 0 -120 -2t-112 -2q-5 30 0 59q49 3 78 8t44 19t19.5 41t4.5 74v1051q0 98 -29 133t-105 35
q-142 0 -206 -83.5t-64 -282.5v-152h255q6 -44 0 -88h-254v-806q0 -241 -114.5 -373t-274.5 -132q-52 0 -89.5 25t-37.5 67q0 35 25.5 59.5t74.5 24.5q75 0 137 -82q62 30 82.5 110.5t20.5 245.5v861h-404zM386 901h403l5 102q6 139 54 242q-67 0 -103 43.5t-36 102.5
q-34 11 -90 11q-115 0 -174 -85.5t-59 -279.5v-136z" />
    <glyph glyph-name="uni01920192013A" unicode="&#x192;&#x192;&#x13a;" horiz-adv-x="1736" 
d="M387 813v-816q0 -241 -114.5 -373t-274.5 -132q-52 0 -89.5 25t-37.5 67q0 35 25.5 59.5t74.5 24.5q75 0 137 -82q62 30 82.5 110.5t20.5 245.5v871h-161q-5 27 0 51q60 12 92.5 20.5t47.5 17.5q15 11 18 22q3 12 6 63q10 237 138.5 367.5t332.5 130.5q188 0 250 -115
q132 131 333 131q87 0 156 -26q57 18 106 40l20 -8q-2 -43 -3 -95.5t-1 -115.5v-1076q0 -56 4 -87t18 -46.5t42 -20t76 -7.5q4 -30 0 -60q-55 0 -110.5 2t-119.5 2q-66 0 -120 -2t-112 -2q-5 30 0 59q49 3 78 8t44 19t19.5 41t4.5 74v1051q0 98 -29 133t-105 35
q-142 0 -206 -83.5t-64 -282.5v-152h255q6 -44 0 -88h-254v-806q0 -241 -114.5 -373t-274.5 -132q-52 0 -89.5 25t-37.5 67q0 35 25.5 59.5t74.5 24.5q75 0 137 -82q62 30 82.5 110.5t20.5 245.5v861h-404zM386 901h403l5 102q6 139 54 242q-67 0 -103 43.5t-36 102.5
q-34 11 -90 11q-115 0 -174 -85.5t-59 -279.5v-136zM1745 1758q-33 -17 -80.5 -43.5t-99.5 -56.5t-103 -60.5t-91 -54.5q-25 13 -42 41q33 34 69.5 73t72.5 78t70 76t62 69q29 0 65 -33.5t77 -81.5v-7z" />
    <glyph glyph-name="uni01920192013E" unicode="&#x192;&#x192;&#x13e;" horiz-adv-x="1920" 
d="M387 813v-816q0 -241 -114.5 -373t-274.5 -132q-52 0 -89.5 25t-37.5 67q0 35 25.5 59.5t74.5 24.5q75 0 137 -82q62 30 82.5 110.5t20.5 245.5v871h-161q-5 27 0 51q60 12 92.5 20.5t47.5 17.5q15 11 18 22q3 12 6 63q10 237 138.5 367.5t332.5 130.5q188 0 250 -115
q132 131 333 131q87 0 156 -26q57 18 106 40l20 -8q-2 -43 -3 -95.5t-1 -115.5v-1076q0 -56 4 -87t18 -46.5t42 -20t76 -7.5q4 -30 0 -60q-55 0 -110.5 2t-119.5 2q-66 0 -120 -2t-112 -2q-5 30 0 59q49 3 78 8t44 19t19.5 41t4.5 74v1051q0 98 -29 133t-105 35
q-142 0 -206 -83.5t-64 -282.5v-152h255q6 -44 0 -88h-254v-806q0 -241 -114.5 -373t-274.5 -132q-52 0 -89.5 25t-37.5 67q0 35 25.5 59.5t74.5 24.5q75 0 137 -82q62 30 82.5 110.5t20.5 245.5v861h-404zM386 901h403l5 102q6 139 54 242q-67 0 -103 43.5t-36 102.5
q-34 11 -90 11q-115 0 -174 -85.5t-59 -279.5v-136zM1870 1419l-132 -442q-11 -2 -28 -0.5t-28 5.5l25 447q7 9 60 9q42 0 103 -11v-8z" />
    <glyph glyph-name="uni01920192013C" unicode="&#x192;&#x192;&#x13c;" horiz-adv-x="1736" 
d="M387 813v-816q0 -241 -114.5 -373t-274.5 -132q-52 0 -89.5 25t-37.5 67q0 35 25.5 59.5t74.5 24.5q75 0 137 -82q62 30 82.5 110.5t20.5 245.5v871h-161q-5 27 0 51q60 12 92.5 20.5t47.5 17.5q15 11 18 22q3 12 6 63q10 237 138.5 367.5t332.5 130.5q188 0 250 -115
q132 131 333 131q87 0 156 -26q57 18 106 40l20 -8q-2 -43 -3 -95.5t-1 -115.5v-1076q0 -56 4 -87t18 -46.5t42 -20t76 -7.5q4 -30 0 -60q-55 0 -110.5 2t-119.5 2q-66 0 -120 -2t-112 -2q-5 30 0 59q49 3 78 8t44 19t19.5 41t4.5 74v1051q0 98 -29 133t-105 35
q-142 0 -206 -83.5t-64 -282.5v-152h255q6 -44 0 -88h-254v-806q0 -241 -114.5 -373t-274.5 -132q-52 0 -89.5 25t-37.5 67q0 35 25.5 59.5t74.5 24.5q75 0 137 -82q62 30 82.5 110.5t20.5 245.5v861h-404zM386 901h403l5 102q6 139 54 242q-67 0 -103 43.5t-36 102.5
q-34 11 -90 11q-115 0 -174 -85.5t-59 -279.5v-136zM1333 -494q91 22 135 63t44 105q0 26 -9 55q-36 -36 -86 -36q-40 0 -68.5 27t-28.5 74q0 53 36 84t93 31q76 0 120 -52.5t44 -140.5q0 -103 -70.5 -173t-193.5 -95q-12 28 -16 58z" />
    <glyph glyph-name="uni019201920142" unicode="&#x192;&#x192;&#x142;" horiz-adv-x="1736" 
d="M387 813v-816q0 -241 -114.5 -373t-274.5 -132q-52 0 -89.5 25t-37.5 67q0 35 25.5 59.5t74.5 24.5q75 0 137 -82q62 30 82.5 110.5t20.5 245.5v871h-161q-5 27 0 51q60 12 92.5 20.5t47.5 17.5q15 11 18 22q3 12 6 63q10 237 138.5 367.5t332.5 130.5q188 0 250 -115
q132 131 333 131q87 0 156 -26q57 18 106 40l20 -8q-2 -43 -3 -95.5t-1 -115.5v-439l159 69q4 -46 0 -92l-159 -69v-545q0 -56 4 -87t18 -46.5t42 -20t76 -7.5q4 -30 0 -60q-55 0 -110.5 2t-119.5 2q-66 0 -120 -2t-112 -2q-5 29 0 59q49 3 78 8t44 19t19.5 41t4.5 74v489
l-152 -66q-4 46 0 92l152 66v470q0 98 -29 133t-105 35q-142 0 -206 -83.5t-64 -282.5v-152h225q6 -44 0 -88h-224v-806q0 -241 -114.5 -373t-274.5 -132q-52 0 -89.5 25t-37.5 67q0 35 25.5 59.5t74.5 24.5q75 0 137 -82q62 30 82.5 110.5t20.5 245.5v861h-404zM386 901
h403l5 102q6 139 54 242q-67 0 -103 43.5t-36 102.5q-34 11 -90 11q-115 0 -174 -85.5t-59 -279.5v-136z" />
    <glyph glyph-name="uni01920192019A" unicode="&#x192;&#x192;&#x19a;" horiz-adv-x="1736" 
d="M1201 901h169v350q0 98 -29 133t-105 35q-142 0 -206 -83.5t-64 -282.5v-152h180v-86h-179v-808q0 -241 -114.5 -373t-274.5 -132q-52 0 -89.5 25t-37.5 67q0 35 25.5 59.5t74.5 24.5q75 0 137 -82q62 30 82.5 110.5t20.5 245.5v863h-404v-818q0 -241 -114.5 -373
t-274.5 -132q-52 0 -89.5 25t-37.5 67q0 35 25.5 59.5t74.5 24.5q75 0 137 -82q62 30 82.5 110.5t20.5 245.5v873h-161q-5 25 0 49q60 12 92.5 20.5t47.5 17.5q15 11 18 22q3 12 6 63q10 237 138.5 367.5t332.5 130.5q188 0 250 -115q132 131 333 131q87 0 156 -26
q57 18 106 40l20 -8q-2 -43 -3 -95.5t-1 -115.5v-395h184q5 -40 0 -86h-184v-595q0 -56 4 -87t18 -46.5t42 -20t76 -7.5q4 -30 0 -60q-55 0 -110.5 2t-119.5 2q-66 0 -120 -2t-112 -2q-5 30 0 59q49 3 78 8t44 19t19.5 41t4.5 74v615h-169v86zM386 901h403l5 102
q6 139 54 242q-67 0 -103 43.5t-36 102.5q-34 11 -90 11q-115 0 -174 -85.5t-59 -279.5v-136z" />
    <glyph glyph-name="uni01920068" unicode="&#x192;h" horiz-adv-x="1745" 
d="M387 813v-816q0 -241 -114.5 -373t-274.5 -132q-52 0 -89.5 25t-37.5 67q0 35 25.5 59.5t74.5 24.5q75 0 137 -82q62 30 82.5 110.5t20.5 245.5v871h-161q-5 27 0 51q60 12 92.5 20.5t47.5 18t18 21.5t6 79q10 236 141.5 367t332.5 131q87 0 156 -26q55 18 106 40l20 -8
q-2 -43 -3 -95.5t-1 -115.5v-498q162 148 335 148q130 0 197 -75t67 -215v-436q0 -56 4 -87t18 -46.5t40 -20t75 -7.5q4 -30 0 -60q-56 0 -109.5 2t-117.5 2q-65 0 -117.5 -2t-104.5 -2q-4 29 0 59q44 3 70.5 8t41.5 19t19.5 40.5t4.5 74.5v388q0 135 -47.5 182.5
t-141.5 47.5q-132 0 -234 -99v-499q0 -56 4 -87t18 -46.5t41 -20t72 -7.5q4 -30 0 -60q-50 0 -105.5 2t-119.5 2q-66 0 -120 -2t-112 -2q-5 29 0 59q49 3 78 8t44 19t19.5 41t4.5 74v1051q0 98 -29 133t-105 35q-142 0 -206 -83.5t-64 -282.5v-152h255q6 -44 0 -88h-254z
" />
    <glyph glyph-name="uni01920125" unicode="&#x192;&#x125;" horiz-adv-x="1745" 
d="M387 813v-816q0 -241 -114.5 -373t-274.5 -132q-52 0 -89.5 25t-37.5 67q0 35 25.5 59.5t74.5 24.5q75 0 137 -82q62 30 82.5 110.5t20.5 245.5v871h-161q-5 27 0 51q60 12 92.5 20.5t47.5 18t18 21.5t6 79q10 236 141.5 367t332.5 131q87 0 156 -26q55 18 106 40l20 -8
q-2 -43 -3 -95.5t-1 -115.5v-498q162 148 335 148q130 0 197 -75t67 -215v-436q0 -56 4 -87t18 -46.5t40 -20t75 -7.5q4 -30 0 -60q-56 0 -109.5 2t-117.5 2q-65 0 -117.5 -2t-104.5 -2q-4 29 0 59q44 3 70.5 8t41.5 19t19.5 40.5t4.5 74.5v388q0 135 -47.5 182.5
t-141.5 47.5q-132 0 -234 -99v-499q0 -56 4 -87t18 -46.5t41 -20t72 -7.5q4 -30 0 -60q-50 0 -105.5 2t-119.5 2q-66 0 -120 -2t-112 -2q-5 29 0 59q49 3 78 8t44 19t19.5 41t4.5 74v1051q0 98 -29 133t-105 35q-142 0 -206 -83.5t-64 -282.5v-152h255q6 -44 0 -88h-254z
M861 1730q-125 -96 -276 -189q-28 4 -54 23q30 31 64.5 71t70 81.5t68 82t58.5 72.5q29 7 71 7q37 0 71 -7q25 -32 57.5 -72.5t68 -82t70.5 -81.5t65 -71q-26 -19 -54 -23q-152 92 -280 189z" />
    <glyph glyph-name="uni01921E96" unicode="&#x192;&#x1e96;" horiz-adv-x="1745" 
d="M387 813v-816q0 -241 -114.5 -373t-274.5 -132q-52 0 -89.5 25t-37.5 67q0 35 25.5 59.5t74.5 24.5q75 0 137 -82q62 30 82.5 110.5t20.5 245.5v871h-161q-5 27 0 51q60 12 92.5 20.5t47.5 18t18 21.5t6 79q10 236 141.5 367t332.5 131q87 0 156 -26q55 18 106 40l20 -8
q-2 -43 -3 -95.5t-1 -115.5v-498q162 148 335 148q130 0 197 -75t67 -215v-436q0 -56 4 -87t18 -46.5t40 -20t75 -7.5q4 -30 0 -60q-56 0 -109.5 2t-117.5 2q-65 0 -117.5 -2t-104.5 -2q-4 29 0 59q44 3 70.5 8t41.5 19t19.5 40.5t4.5 74.5v388q0 135 -47.5 182.5
t-141.5 47.5q-132 0 -234 -99v-499q0 -56 4 -87t18 -46.5t41 -20t72 -7.5q4 -30 0 -60q-50 0 -105.5 2t-119.5 2q-66 0 -120 -2t-112 -2q-5 29 0 59q49 3 78 8t44 19t19.5 41t4.5 74v1051q0 98 -29 133t-105 35q-142 0 -206 -83.5t-64 -282.5v-152h255q6 -44 0 -88h-254z
M1449 -192q6 -48 0 -96h-548q-6 48 0 96h548z" />
    <glyph glyph-name="uni01921E2B" unicode="&#x192;&#x1e2b;" horiz-adv-x="1745" 
d="M387 813v-816q0 -241 -114.5 -373t-274.5 -132q-52 0 -89.5 25t-37.5 67q0 35 25.5 59.5t74.5 24.5q75 0 137 -82q62 30 82.5 110.5t20.5 245.5v871h-161q-5 27 0 51q60 12 92.5 20.5t47.5 18t18 21.5t6 79q10 236 141.5 367t332.5 131q87 0 156 -26q55 18 106 40l20 -8
q-2 -43 -3 -95.5t-1 -115.5v-498q162 148 335 148q130 0 197 -75t67 -215v-436q0 -56 4 -87t18 -46.5t40 -20t75 -7.5q4 -30 0 -60q-56 0 -109.5 2t-117.5 2q-65 0 -117.5 -2t-104.5 -2q-4 29 0 59q44 3 70.5 8t41.5 19t19.5 40.5t4.5 74.5v388q0 135 -47.5 182.5
t-141.5 47.5q-132 0 -234 -99v-499q0 -56 4 -87t18 -46.5t41 -20t72 -7.5q4 -30 0 -60q-50 0 -105.5 2t-119.5 2q-66 0 -120 -2t-112 -2q-5 29 0 59q49 3 78 8t44 19t19.5 41t4.5 74v1051q0 98 -29 133t-105 35q-142 0 -206 -83.5t-64 -282.5v-152h255q6 -44 0 -88h-254z
M1408 -111q31 -3 60 -12q-14 -169 -92 -253t-203 -84t-201 84t-90 253q28 9 60 12q23 -106 82.5 -157.5t150.5 -51.5q93 0 152.5 53t80.5 156z" />
    <glyph glyph-name="uni01921E25" unicode="&#x192;&#x1e25;" horiz-adv-x="1745" 
d="M387 813v-816q0 -241 -114.5 -373t-274.5 -132q-52 0 -89.5 25t-37.5 67q0 35 25.5 59.5t74.5 24.5q75 0 137 -82q62 30 82.5 110.5t20.5 245.5v871h-161q-5 27 0 51q60 12 92.5 20.5t47.5 18t18 21.5t6 79q10 236 141.5 367t332.5 131q87 0 156 -26q55 18 106 40l20 -8
q-2 -43 -3 -95.5t-1 -115.5v-498q162 148 335 148q130 0 197 -75t67 -215v-436q0 -56 4 -87t18 -46.5t40 -20t75 -7.5q4 -30 0 -60q-56 0 -109.5 2t-117.5 2q-65 0 -117.5 -2t-104.5 -2q-4 29 0 59q44 3 70.5 8t41.5 19t19.5 40.5t4.5 74.5v388q0 135 -47.5 182.5
t-141.5 47.5q-132 0 -234 -99v-499q0 -56 4 -87t18 -46.5t41 -20t72 -7.5q4 -30 0 -60q-50 0 -105.5 2t-119.5 2q-66 0 -120 -2t-112 -2q-5 29 0 59q49 3 78 8t44 19t19.5 41t4.5 74v1051q0 98 -29 133t-105 35q-142 0 -206 -83.5t-64 -282.5v-152h255q6 -44 0 -88h-254z
M1057 -298q0 47 33 81.5t84 34.5q52 0 85.5 -34.5t33.5 -81.5q0 -46 -33.5 -80.5t-85.5 -34.5q-51 0 -84 34.5t-33 80.5z" />
    <glyph glyph-name="uni01920127" unicode="&#x192;&#x127;" horiz-adv-x="1745" 
d="M966 1186h354q6 -40 0 -82h-354v-306q162 148 335 148q130 0 197 -75t67 -215v-436q0 -56 4 -87t18 -46.5t40 -20t75 -7.5q4 -30 0 -60q-56 0 -109.5 2t-117.5 2q-65 0 -117.5 -2t-104.5 -2q-4 29 0 59q44 3 70.5 8t41.5 19t19.5 40.5t4.5 74.5v388q0 135 -47.5 182.5
t-141.5 47.5q-132 0 -234 -99v-499q0 -56 4 -87t18 -46.5t41 -20t72 -7.5q4 -30 0 -60q-50 0 -105.5 2t-119.5 2q-66 0 -120 -2t-112 -2q-5 29 0 59q49 3 78 8t44 19t19.5 41t4.5 74v904h-154q-5 40 0 82h154v65q0 98 -29 133t-105 35q-142 0 -206 -83.5t-64 -282.5v-152
h255q6 -44 0 -88h-254v-816q0 -241 -114.5 -373t-274.5 -132q-52 0 -89.5 25t-37.5 67q0 35 25.5 59.5t74.5 24.5q75 0 137 -82q62 30 82.5 110.5t20.5 245.5v871h-161q-5 27 0 51q60 12 92.5 20.5t47.5 18t18 21.5t6 79q10 236 141.5 367t332.5 131q87 0 156 -26
q55 18 106 40l20 -8q-2 -43 -3 -95.5t-1 -115.5v-110z" />
    <glyph glyph-name="uni01920069" unicode="&#x192;i" horiz-adv-x="1145" 
d="M387 813v-816q0 -241 -114.5 -373t-274.5 -132q-52 0 -89.5 25t-37.5 67q0 35 25.5 59.5t74.5 24.5q75 0 137 -82q62 30 82.5 110.5t20.5 245.5v871h-161q-5 27 0 51q60 12 92.5 20.5t47.5 18t18 21.5t6 79q10 236 139.5 367t337.5 131q113 0 184.5 -41t71.5 -109
q0 -48 -29 -73.5t-68 -25.5q-56 0 -93.5 46t-37.5 108q-34 12 -93 12q-119 0 -179.5 -85.5t-60.5 -279.5v-152h342q48 0 97 13t114 40l20 -8q-4 -119 -4 -211v-515q0 -56 4 -87t18 -46.5t42 -20t76 -7.5q4 -30 0 -60q-55 0 -110.5 2t-119.5 2t-118.5 -2t-112.5 -2
q-5 29 0 59q49 3 78 8t44 19t19.5 41t4.5 74v522q0 57 -19.5 74t-70.5 17h-303z" />
    <glyph glyph-name="uni0192012F" unicode="&#x192;&#x12f;" horiz-adv-x="1145" 
d="M955 220q0 -56 4 -87t18 -46.5t42 -20t76 -7.5q4 -30 0 -60q-49 0 -98 1q-150 -130 -150 -266q0 -60 36 -89.5t100 -29.5q35 0 67 7q13 -19 17 -42q-95 -70 -188 -70q-88 0 -143.5 49t-55.5 132q0 173 243 312h-58q-64 0 -118.5 -2t-112.5 -2q-4 29 0 59q49 3 78 8t44 19
t19.5 40.5t4.5 74.5v522q0 57 -19.5 74t-70.5 17h-303v-816q0 -241 -114.5 -373t-274.5 -132q-52 0 -89.5 25t-37.5 67q0 35 25.5 59.5t74.5 24.5q75 0 137 -82q62 30 82.5 110.5t20.5 245.5v871h-161q-5 27 0 51q60 12 92.5 20.5t47.5 18t18 21.5t6 79q10 236 139.5 367
t337.5 131q113 0 184.5 -41t71.5 -109q0 -48 -29 -73.5t-68 -25.5q-56 0 -93.5 46t-37.5 108q-34 12 -93 12q-119 0 -179.5 -85.5t-60.5 -279.5v-152h342q48 0 97 13t114 40l20 -8q-4 -119 -4 -211v-515z" />
    <glyph glyph-name="uni01920268" unicode="&#x192;&#x268;" horiz-adv-x="1165" 
d="M387 813v-816q0 -241 -114.5 -373t-274.5 -132q-52 0 -89.5 25t-37.5 67q0 35 25.5 59.5t74.5 24.5q75 0 137 -82q62 30 82.5 110.5t20.5 245.5v871h-161q-5 27 0 51q60 12 92.5 20.5t47.5 18t18 21.5t6 79q10 236 139.5 367t337.5 131q113 0 184.5 -41t71.5 -109
q0 -48 -29 -73.5t-68 -25.5q-56 0 -93.5 46t-37.5 108q-34 12 -93 12q-119 0 -179.5 -85.5t-60.5 -279.5v-152h342q48 0 97 13t114 40l20 -8q-4 -119 -4 -211v-195h184q5 -40 0 -82h-184v-238q0 -56 4 -87t18 -46.5t42 -20t76 -7.5q4 -30 0 -60q-55 0 -110.5 2t-119.5 2
t-118.5 -2t-112.5 -2q-4 29 0 59q49 3 78 8t44 19t19.5 40.5t4.5 74.5v258h-185q-5 40 0 82h185v182q0 57 -19.5 74t-70.5 17h-303z" />
    <glyph glyph-name="uni0192006A" unicode="&#x192;j" horiz-adv-x="1132" 
d="M387 813v-816q0 -241 -114.5 -373t-274.5 -132q-52 0 -89.5 25t-37.5 67q0 35 25.5 59.5t74.5 24.5q75 0 137 -82q62 30 82.5 110.5t20.5 245.5v871h-161q-5 27 0 51q60 12 92.5 20.5t47.5 18t18 21.5t6 79q10 236 141.5 367t342.5 131q114 0 186.5 -41t72.5 -109
q0 -48 -29 -73.5t-68 -25.5q-58 0 -95.5 46t-37.5 108q-35 12 -94 12q-122 0 -184.5 -85.5t-62.5 -279.5v-152h352q48 0 97 13t114 40l20 -8q-4 -119 -4 -211q1 -93 2 -281t1 -278v-169q0 -241 -114.5 -373t-273.5 -132q-53 0 -90 25t-37 67q0 35 25.5 59.5t73.5 24.5
q76 0 137 -82q62 30 82.5 110.5t20.5 245.5q0 115 -1 355t-1 415q0 57 -19.5 74t-70.5 17h-313z" />
    <glyph glyph-name="uni0192006B" unicode="&#x192;k" horiz-adv-x="1644" 
d="M387 813v-816q0 -241 -114.5 -373t-274.5 -132q-52 0 -89.5 25t-37.5 67q0 35 25.5 59.5t74.5 24.5q75 0 137 -82q62 30 82.5 110.5t20.5 245.5v871h-161q-5 27 0 51q60 12 92.5 20.5t47.5 18t18 21.5t6 79q10 236 141.5 367t332.5 131q87 0 156 -26q55 18 106 40l20 -8
q-2 -43 -3 -95.5t-1 -115.5v-780q29 0 60 24.5t149 140.5q74 73 96.5 98t22.5 41q0 37 -96 40q-4 30 0 60q42 0 97 -2t102 -2q43 0 113 1.5t107 1.5q4 -30 0 -58q-80 -3 -144 -35t-163 -125l-152 -143l265 -353q66 -88 111.5 -116.5t123.5 -29.5q1 -8 1.5 -15t0.5 -15
t-0.5 -15t-1.5 -15q-23 0 -73.5 2t-143.5 2q-48 0 -107 -4q0 26 -59.5 111t-210.5 290q-35 44 -53.5 53.5t-44.5 9.5v-243q0 -56 3.5 -87t16.5 -46.5t39 -20t71 -7.5q4 -30 0 -60q-53 0 -106 2t-114 2q-66 0 -120 -2t-112 -2q-5 29 0 59q49 3 78 8t44 19t19.5 41t4.5 74
v1051q0 98 -29 133t-105 35q-142 0 -206 -83.5t-64 -282.5v-152h255q6 -44 0 -88h-254z" />
    <glyph glyph-name="uni01920135" unicode="&#x192;&#x1e35;" horiz-adv-x="1644" 
d="M387 813v-816q0 -241 -114.5 -373t-274.5 -132q-52 0 -89.5 25t-37.5 67q0 35 25.5 59.5t74.5 24.5q75 0 137 -82q62 30 82.5 110.5t20.5 245.5v871h-161q-5 27 0 51q60 12 92.5 20.5t47.5 18t18 21.5t6 79q10 236 141.5 367t332.5 131q87 0 156 -26q55 18 106 40l20 -8
q-2 -43 -3 -95.5t-1 -115.5v-780q29 0 60 24.5t149 140.5q74 73 96.5 98t22.5 41q0 37 -96 40q-4 30 0 60q42 0 97 -2t102 -2q43 0 113 1.5t107 1.5q4 -30 0 -58q-80 -3 -144 -35t-163 -125l-152 -143l265 -353q66 -88 111.5 -116.5t123.5 -29.5q1 -8 1.5 -15t0.5 -15
t-0.5 -15t-1.5 -15q-23 0 -73.5 2t-143.5 2q-48 0 -107 -4q0 26 -59.5 111t-210.5 290q-35 44 -53.5 53.5t-44.5 9.5v-243q0 -56 3.5 -87t16.5 -46.5t39 -20t71 -7.5q4 -30 0 -60q-53 0 -106 2t-114 2q-66 0 -120 -2t-112 -2q-5 29 0 59q49 3 78 8t44 19t19.5 41t4.5 74
v1051q0 98 -29 133t-105 35q-142 0 -206 -83.5t-64 -282.5v-152h255q6 -44 0 -88h-254zM1424 -192q6 -48 0 -96h-548q-6 48 0 96h548z" />
    <glyph glyph-name="uni01921E33" unicode="&#x192;&#x1e33;" horiz-adv-x="1644" 
d="M387 813v-816q0 -241 -114.5 -373t-274.5 -132q-52 0 -89.5 25t-37.5 67q0 35 25.5 59.5t74.5 24.5q75 0 137 -82q62 30 82.5 110.5t20.5 245.5v871h-161q-5 27 0 51q60 12 92.5 20.5t47.5 18t18 21.5t6 79q10 236 141.5 367t332.5 131q87 0 156 -26q55 18 106 40l20 -8
q-2 -43 -3 -95.5t-1 -115.5v-780q29 0 60 24.5t149 140.5q74 73 96.5 98t22.5 41q0 37 -96 40q-4 30 0 60q42 0 97 -2t102 -2q43 0 113 1.5t107 1.5q4 -30 0 -58q-80 -3 -144 -35t-163 -125l-152 -143l265 -353q66 -88 111.5 -116.5t123.5 -29.5q1 -8 1.5 -15t0.5 -15
t-0.5 -15t-1.5 -15q-23 0 -73.5 2t-143.5 2q-48 0 -107 -4q0 26 -59.5 111t-210.5 290q-35 44 -53.5 53.5t-44.5 9.5v-243q0 -56 3.5 -87t16.5 -46.5t39 -20t71 -7.5q4 -30 0 -60q-53 0 -106 2t-114 2q-66 0 -120 -2t-112 -2q-5 29 0 59q49 3 78 8t44 19t19.5 41t4.5 74
v1051q0 98 -29 133t-105 35q-142 0 -206 -83.5t-64 -282.5v-152h255q6 -44 0 -88h-254zM1032 -298q0 47 33 81.5t84 34.5q52 0 85.5 -34.5t33.5 -81.5q0 -46 -33.5 -80.5t-85.5 -34.5q-51 0 -84 34.5t-33 80.5z" />
    <glyph glyph-name="uni01921E37" unicode="&#x192;&#x137;" horiz-adv-x="1644" 
d="M387 813v-816q0 -241 -114.5 -373t-274.5 -132q-52 0 -89.5 25t-37.5 67q0 35 25.5 59.5t74.5 24.5q75 0 137 -82q62 30 82.5 110.5t20.5 245.5v871h-161q-5 27 0 51q60 12 92.5 20.5t47.5 18t18 21.5t6 79q10 236 141.5 367t332.5 131q87 0 156 -26q55 18 106 40l20 -8
q-2 -43 -3 -95.5t-1 -115.5v-780q29 0 60 24.5t149 140.5q74 73 96.5 98t22.5 41q0 37 -96 40q-4 30 0 60q42 0 97 -2t102 -2q43 0 113 1.5t107 1.5q4 -30 0 -58q-80 -3 -144 -35t-163 -125l-152 -143l265 -353q66 -88 111.5 -116.5t123.5 -29.5q1 -8 1.5 -15t0.5 -15
t-0.5 -15t-1.5 -15q-23 0 -73.5 2t-143.5 2q-48 0 -107 -4q0 26 -59.5 111t-210.5 290q-35 44 -53.5 53.5t-44.5 9.5v-243q0 -56 3.5 -87t16.5 -46.5t39 -20t71 -7.5q4 -30 0 -60q-53 0 -106 2t-114 2q-66 0 -120 -2t-112 -2q-5 29 0 59q49 3 78 8t44 19t19.5 41t4.5 74
v1051q0 98 -29 133t-105 35q-142 0 -206 -83.5t-64 -282.5v-152h255q6 -44 0 -88h-254zM1028 -494q91 22 135 63t44 105q0 26 -9 55q-36 -36 -86 -36q-40 0 -68.5 27t-28.5 74q0 53 36 84t93 31q76 0 120 -52.5t44 -140.5q0 -103 -70.5 -173t-193.5 -95q-12 28 -16 58z" />
    <glyph glyph-name="uni0192006C" unicode="&#x192;l" horiz-adv-x="1155" 
d="M387 813v-816q0 -241 -114.5 -373t-274.5 -132q-52 0 -89.5 25t-37.5 67q0 35 25.5 59.5t74.5 24.5q75 0 137 -82q62 30 82.5 110.5t20.5 245.5v871h-161q-5 27 0 51q60 12 92.5 20.5t47.5 18t18 21.5t6 79q10 236 141.5 367t332.5 131q87 0 156 -26q57 18 106 40l20 -8
q-2 -43 -3 -95.5t-1 -115.5v-1076q0 -56 4 -87t18 -46.5t42 -20t76 -7.5q4 -30 0 -60q-55 0 -110.5 2t-119.5 2q-66 0 -120 -2t-112 -2q-5 30 0 59q49 3 78 8t44 19t19.5 41t4.5 74v1051q0 98 -29 133t-105 35q-142 0 -206 -83.5t-64 -282.5v-152h255q6 -44 0 -88h-254z" />
    <glyph glyph-name="uni0192013A" unicode="&#x192;&#x13a;" horiz-adv-x="1155" 
d="M387 813v-816q0 -241 -114.5 -373t-274.5 -132q-52 0 -89.5 25t-37.5 67q0 35 25.5 59.5t74.5 24.5q75 0 137 -82q62 30 82.5 110.5t20.5 245.5v871h-161q-5 27 0 51q60 12 92.5 20.5t47.5 18t18 21.5t6 79q10 236 141.5 367t332.5 131q87 0 156 -26q57 18 106 40l20 -8
q-2 -43 -3 -95.5t-1 -115.5v-1076q0 -56 4 -87t18 -46.5t42 -20t76 -7.5q4 -30 0 -60q-55 0 -110.5 2t-119.5 2q-66 0 -120 -2t-112 -2q-5 30 0 59q49 3 78 8t44 19t19.5 41t4.5 74v1051q0 98 -29 133t-105 35q-142 0 -206 -83.5t-64 -282.5v-152h255q6 -44 0 -88h-254z
M1145 1758q-33 -17 -80.5 -43.5t-99.5 -56.5t-103 -60.5t-91 -54.5q-25 13 -42 41q33 34 69.5 73t72.5 78t70 76t62 69q29 0 65 -33.5t77 -81.5v-7z" />
    <glyph glyph-name="uni0192013E" unicode="&#x192;&#x13e;" horiz-adv-x="1339" 
d="M387 813v-816q0 -241 -114.5 -373t-274.5 -132q-52 0 -89.5 25t-37.5 67q0 35 25.5 59.5t74.5 24.5q75 0 137 -82q62 30 82.5 110.5t20.5 245.5v871h-161q-5 27 0 51q60 12 92.5 20.5t47.5 18t18 21.5t6 79q10 236 141.5 367t332.5 131q87 0 156 -26q57 18 106 40l20 -8
q-2 -43 -3 -95.5t-1 -115.5v-1076q0 -56 4 -87t18 -46.5t42 -20t76 -7.5q4 -30 0 -60q-55 0 -110.5 2t-119.5 2q-66 0 -120 -2t-112 -2q-5 30 0 59q49 3 78 8t44 19t19.5 41t4.5 74v1051q0 98 -29 133t-105 35q-142 0 -206 -83.5t-64 -282.5v-152h255q6 -44 0 -88h-254z
M1289 1419l-132 -442q-11 -2 -28 -0.5t-28 5.5l25 447q7 9 60 9q42 0 103 -11v-8z" />
    <glyph glyph-name="uni0192013C" unicode="&#x192;&#x13c;" horiz-adv-x="1155" 
d="M387 813v-816q0 -241 -114.5 -373t-274.5 -132q-52 0 -89.5 25t-37.5 67q0 35 25.5 59.5t74.5 24.5q75 0 137 -82q62 30 82.5 110.5t20.5 245.5v871h-161q-5 27 0 51q60 12 92.5 20.5t47.5 18t18 21.5t6 79q10 236 141.5 367t332.5 131q87 0 156 -26q57 18 106 40l20 -8
q-2 -43 -3 -95.5t-1 -115.5v-1076q0 -56 4 -87t18 -46.5t42 -20t76 -7.5q4 -30 0 -60q-55 0 -110.5 2t-119.5 2q-66 0 -120 -2t-112 -2q-5 30 0 59q49 3 78 8t44 19t19.5 41t4.5 74v1051q0 98 -29 133t-105 35q-142 0 -206 -83.5t-64 -282.5v-152h255q6 -44 0 -88h-254z
M753 -494q91 22 135 63t44 105q0 26 -9 55q-36 -36 -86 -36q-40 0 -68.5 27t-28.5 74q0 53 36 84t93 31q76 0 120 -52.5t44 -140.5q0 -103 -70.5 -173t-193.5 -95q-12 28 -16 58z" />
    <glyph glyph-name="uni01920142" unicode="&#x192;&#x142;" horiz-adv-x="1155" 
d="M387 813v-816q0 -241 -114.5 -373t-274.5 -132q-52 0 -89.5 25t-37.5 67q0 35 25.5 59.5t74.5 24.5q75 0 137 -82q62 30 82.5 110.5t20.5 245.5v871h-161q-5 27 0 51q60 12 92.5 20.5t47.5 18t18 21.5t6 79q10 236 141.5 367t332.5 131q87 0 156 -26q57 18 106 40l20 -8
q-2 -43 -3 -95.5t-1 -115.5v-439l159 69q4 -46 0 -92l-159 -69v-545q0 -56 4 -87t18 -46.5t42 -20t76 -7.5q4 -30 0 -60q-55 0 -110.5 2t-119.5 2q-66 0 -120 -2t-112 -2q-5 29 0 59q49 3 78 8t44 19t19.5 41t4.5 74v489l-152 -66q-4 46 0 92l152 66v470q0 98 -29 133
t-105 35q-142 0 -206 -83.5t-64 -282.5v-152h225q6 -44 0 -88h-224z" />
    <glyph glyph-name="uni0192019A" unicode="&#x192;&#x19a;" horiz-adv-x="1155" 
d="M790 815h-169v86h169v350q0 98 -29 133t-105 35q-142 0 -206 -83.5t-64 -282.5v-152h180v-86h-179v-818q0 -241 -114.5 -373t-274.5 -132q-52 0 -89.5 25t-37.5 67q0 35 25.5 59.5t74.5 24.5q75 0 137 -82q62 30 82.5 110.5t20.5 245.5v873h-161q-5 25 0 49
q60 12 92.5 20.5t47.5 18t18 21.5t6 79q10 236 141.5 367t332.5 131q87 0 156 -26q57 18 106 40l20 -8q-2 -43 -3 -95.5t-1 -115.5v-395h184q5 -40 0 -86h-184v-595q0 -56 4 -87t18 -46.5t42 -20t76 -7.5q4 -30 0 -60q-55 0 -110.5 2t-119.5 2q-66 0 -120 -2t-112 -2
q-5 30 0 59q49 3 78 8t44 19t19.5 41t4.5 74v615z" />
    <glyph glyph-name="gamma_gamma" unicode="&#x3b3;&#x3b3;" horiz-adv-x="1783" 
d="M1241 52q1 10 2 30t1 43q0 60 -7 129.5t-21.5 138.5t-36.5 133.5t-52.5 114.5t-70 81t-87.5 35q-38 -114 -85 -217.5t-100 -198.5t-109 -182t-110 -168q-5 -39 -13.5 -98t-19 -120.5t-22.5 -117t-22 -87.5q-5 -14 -8 -21.5t-7 -11.5t-10 -6t-16 -5q-15 -4 -36 -7.5
t-43.5 -6t-43 -4t-32.5 -1.5q-20 0 -26 6t-6 17q0 15 10.5 49t28 79.5t40.5 98.5t48 106.5t51 103t49 87.5q1 10 2 30t1 43q0 61 -7 131t-22 139t-37.5 132.5t-54 112.5t-72 78t-90.5 29q-68 0 -114 -40q-34 23 -47.5 48.5t-13.5 54.5q0 24 9.5 46.5t28 39.5t45.5 27.5
t62 10.5q75 0 133 -34t101.5 -91t73.5 -132t48.5 -156t26.5 -163t8 -154v-40l7 -1q46 77 87 157.5t76 168t63.5 183.5t48.5 205q5 29 34.5 43t70.5 14q68 0 122 -34t95 -91t69.5 -132t46.5 -156t26 -163t8 -154v-40l7 -1q47 79 90 162t79.5 172.5t65.5 188t49 209.5
q3 19 18 26.5t39 7.5q60 0 114 -25q-35 -128 -88.5 -252t-116 -240t-130 -222t-130.5 -199q-5 -39 -13 -96.5t-18.5 -117t-21.5 -112.5t-21 -84q-5 -14 -8 -21.5t-7 -11.5t-10 -6t-16 -5q-15 -4 -36 -7.5t-43 -6t-42 -4t-32 -1.5q-20 0 -26 6t-6 17q0 14 10 47t27 77
t39.5 95.5t47 103.5t50 101t48.5 87z" />
    <glyph glyph-name="lambda_lambda" unicode="&#x3bb;&#x3bb;" horiz-adv-x="1759" 
d="M1725 192q3 -11 4 -22.5t1 -22.5q0 -30 -9 -59.5t-26.5 -52.5t-43.5 -37t-59 -14q-42 0 -71 20.5t-47 54.5q-17 31 -34.5 86t-38 137t-45 192t-54.5 250q-46 -90 -89 -177t-81.5 -167t-72.5 -151.5t-63 -129.5q-17 -33 -28.5 -56t-21.5 -37.5t-20 -20.5t-23 -6
q-44 0 -88.5 30t-85.5 109q-23 44 -43.5 100.5t-40.5 130t-41 166t-44 209.5q-87 -187 -162.5 -353t-147.5 -311q-12 -24 -25 -38.5t-29 -23t-35.5 -11.5t-43.5 -3q-26 0 -52.5 3.5t-54.5 14.5l-2 9q66 99 132.5 209.5t132 225t128 229.5t120.5 222q-29 116 -56 196.5
t-57 130.5t-66 72t-83 22q-37 0 -71 -10t-67 -37q-32 23 -45 48.5t-13 53.5q0 25 11.5 47.5t33 39t54 26.5t74.5 10q95 0 157 -49.5t107.5 -146.5t82.5 -242t82 -335q33 -138 57 -230t43.5 -150.5t37 -91.5t35.5 -53q6 -7 11.5 -11.5t10.5 -4.5q6 0 12 10.5t17 27.5
q98 166 188.5 334.5t185.5 342.5q-29 116 -57 197.5t-58.5 133t-66 75t-80.5 23.5q-37 0 -67.5 -9t-63.5 -36q-32 24 -44.5 49.5t-12.5 53.5q0 25 10 47t30.5 38t51.5 25.5t73 9.5q93 0 155 -50.5t107.5 -149.5t83.5 -245t83 -336q40 -172 66 -280t48.5 -169t48.5 -83
t67 -22q35 0 81 25z" />
    <glyph glyph-name=".notdef" horiz-adv-x="909" 
d="M387 230v131h111v-131h-111zM393 460l-3 34q0 107 25.5 158.5t90.5 115.5q63 63 80.5 94.5t17.5 69.5q0 71 -44.5 119.5t-104.5 48.5q-62 0 -106.5 -44t-55.5 -143l-98 16q13 140 85.5 205t179.5 65q104 0 174.5 -71.5t70.5 -187.5q0 -62 -25 -114.5t-99 -121.5
q-73 -65 -85.5 -102.5t-12.5 -141.5h-90zM860 98v1215h-811v-1215h811zM958 1412v-1412h-1007v1412h1007z" />
    <glyph glyph-name=".null" 
 />
    <glyph glyph-name="nonmarkingreturn" unicode="&#xd;" horiz-adv-x="500" 
 />
    <glyph glyph-name="space" unicode="&#xa0;" horiz-adv-x="554" 
 />
    <glyph glyph-name="space" unicode=" " horiz-adv-x="554" 
 />
    <glyph glyph-name="exclam" unicode="!" horiz-adv-x="635" 
d="M376 411h-68l-97 889q0 53 34.5 80.5t96.5 27.5t96.5 -27.5t34.5 -80.5zM210 115q0 54 37 94t95 40t95.5 -40t37.5 -94q0 -53 -37.5 -93t-95.5 -40t-95 40t-37 93z" />
    <glyph glyph-name="quotedbl" unicode="&#x22;" horiz-adv-x="816" 
d="M256 877h-57l-79 548q0 34 31.5 53t76.5 19q22 0 41.5 -5t34.5 -14t23.5 -22.5t8.5 -30.5zM616 877h-57l-79 548q0 34 31.5 53t76.5 19q22 0 41.5 -5t34.5 -14t23.5 -22.5t8.5 -30.5z" />
    <glyph glyph-name="numbersign" unicode="#" horiz-adv-x="1264" 
d="M160 810v111h286l100 406h115l-100 -406h267l102 406h114l-101 -406h233v-111h-260l-72 -288h259v-111h-286l-102 -411h-116l102 411h-265l-101 -411h-116l101 411h-233v111h261l71 288h-259zM463 522h266l72 288h-267z" />
    <glyph glyph-name="dollar" unicode="$" horiz-adv-x="1024" 
d="M932 320q0 -78 -31.5 -136.5t-83.5 -99t-120.5 -63t-141.5 -29.5v-182q-41 -3 -82 0v177q-157 4 -268 57q-110 51 -110 145q0 44 26 69.5t65 25.5q52 0 88 -52q35 -52 35 -133q75 -36 164 -39v430q-43 14 -86 30t-82.5 35t-73.5 43t-59 56t-39.5 72.5t-14.5 92.5
q0 73 29.5 127.5t79 93t113.5 60.5t133 29v169q41 3 82 0v-166q148 -6 244 -56q93 -47 93 -131q0 -43 -25 -67t-61 -24q-50 0 -83.5 45.5t-33.5 128.5q-56 31 -134 32v-395q67 -23 134 -48.5t121 -64t88 -94.5t34 -138zM765 263q0 40 -16.5 71t-45 55.5t-67 43.5t-81.5 35
v-403q42 5 80.5 19.5t67 39t45.5 59.5t17 80zM275 880q0 -36 15.5 -65t42 -52.5t62.5 -42t78 -33.5v368q-45 -6 -81.5 -20.5t-62.5 -36.5t-40 -52t-14 -66z" />
    <glyph glyph-name="percent" unicode="%" horiz-adv-x="1682" 
d="M368 1331q-46 0 -76.5 -22t-49 -61.5t-26 -93.5t-7.5 -118q0 -65 8 -124.5t27 -105.5t50.5 -73.5t77.5 -27.5q45 0 75.5 22t49.5 61t27 93t8 119t-8 125t-27.5 105.5t-51 73t-77.5 27.5zM676 1018q0 -86 -20 -153.5t-59 -115t-96 -72.5t-130 -25q-77 0 -134.5 26
t-95.5 73.5t-57 115t-19 151.5q0 77 18.5 144t56 116.5t95.5 77.5t136 28q84 0 142 -28t94 -77.5t52.5 -116.5t16.5 -144zM1309 664q-46 0 -76.5 -22t-49 -61.5t-26 -93.5t-7.5 -118q0 -65 8 -124.5t27 -105.5t50.5 -73.5t77.5 -27.5q45 0 75.5 22t49.5 61t27 93t8 119
t-8 125t-27.5 105.5t-51 73t-77.5 27.5zM1617 351q0 -86 -20 -153.5t-59 -115t-96 -72.5t-130 -25q-77 0 -134.5 26t-95.5 73.5t-57 115t-19 151.5q0 77 18.5 144t56 116.5t95.5 77.5t136 28q84 0 142 -28t94 -77.5t52.5 -116.5t16.5 -144zM409 -18q-36 22 -69 52l931 1328
q19 -11 36.5 -24t34.5 -27z" />
    <glyph glyph-name="ampersand" unicode="&#x26;" horiz-adv-x="1469" 
d="M1392 132q13 -29 17 -53q-119 -87 -247 -87q-80 0 -133 36.5t-151 157.5q-83 -105 -181 -158t-225 -53q-175 0 -293.5 106.5t-118.5 271.5q0 138 84 246t226 175q-70 71 -106 141.5t-36 149.5q0 125 93.5 214t245.5 89q129 0 214 -70t85 -187q0 -111 -71.5 -186
t-201.5 -128q159 -153 349 -394q138 206 138 294q0 23 -12.5 37t-34.5 21.5t-51.5 11t-63.5 5.5q-5 30 0 61q51 0 115 -2t136 -2q70 0 118.5 1.5t95.5 1.5q4 -30 0 -59q-29 -3 -50.5 -6t-39 -8t-32 -13.5t-28.5 -21.5q-18 -15 -44.5 -55.5t-58 -94t-67 -114t-72.5 -117.5
q108 -144 166.5 -193t111.5 -49q57 0 123 31zM420 726q-178 -96 -178 -302q0 -142 83 -230.5t222 -88.5q78 0 142.5 30t139.5 116q-194 266 -409 475zM545 845q173 76 173 253q0 88 -39.5 143.5t-114.5 55.5q-70 0 -116.5 -47.5t-46.5 -121.5q0 -80 32 -142t112 -141z" />
    <glyph glyph-name="quotesingle" unicode="'" horiz-adv-x="456" 
d="M256 877h-57l-79 548q0 34 31.5 53t76.5 19q22 0 41.5 -5t34.5 -14t23.5 -22.5t8.5 -30.5z" />
    <glyph glyph-name="parenleft" unicode="(" horiz-adv-x="756" 
d="M606 1451q-340 -271 -340 -886q0 -616 340 -886l-41 -41q-455 340 -455 927q0 607 455 927z" />
    <glyph glyph-name="parenright" unicode=")" horiz-adv-x="756" 
d="M191 1492q455 -320 455 -927q0 -587 -455 -927l-41 41q340 270 340 886q0 615 -340 886z" />
    <glyph glyph-name="asterisk" unicode="*" horiz-adv-x="908" 
d="M558 1358q-5 -13 -15.5 -34.5t-23.5 -49t-26.5 -61.5t-25.5 -71q37 12 70.5 26t61 27.5t48 25t32.5 17.5q20 10 46 10q20 0 40.5 -5t36.5 -14t26 -22t10 -29t-10 -31t-25.5 -28t-35.5 -22.5t-41 -13.5q-10 -1 -20 0q-14 1 -37.5 5t-53.5 7.5t-66 6.5t-75 3
q23 -32 46.5 -59t44 -48.5t37 -37.5t26.5 -25q7 -6 13 -16q9 -18 13.5 -38t4.5 -39q0 -32 -13 -55.5t-42 -23.5q-14 0 -29.5 6.5t-29.5 17t-26.5 25t-21.5 30.5q-4 8 -6 19q-3 13 -7.5 36t-10.5 52t-14.5 63.5t-20.5 71.5q-23 -32 -41.5 -63t-33 -58t-24.5 -48t-15 -33
q-2 -5 -4.5 -9t-7.5 -9q-21 -21 -50 -33.5t-55 -12.5q-58 0 -58 58q0 26 12.5 54t32.5 49q3 4 7 7t8 5q26 15 81.5 44t118.5 77q-38 12 -73.5 19.5t-65.5 12t-53.5 7.5t-36.5 6q-5 1 -9 2t-10 4q-35 17 -58 48.5t-23 60.5q0 30 24.5 43t56.5 13q37 0 72 -16q9 -4 17 -12
q10 -11 27 -27.5t40 -36.5t51 -43t61 -46q0 39 -4 75.5t-8.5 67t-9 54t-5.5 37.5q-1 10 0 20q3 21 12 41.5t21.5 36.5t28 26t30.5 10q19 0 33.5 -13t23.5 -33.5t12.5 -44.5t0.5 -46q-1 -11 -6 -20z" />
    <glyph glyph-name="plus" unicode="+" horiz-adv-x="1150" 
d="M1048 516q3 -44 0 -87h-429v-429q-44 -3 -87 0v429h-430q-3 43 0 87h430v430q43 3 87 0v-430h429z" />
    <glyph glyph-name="comma" unicode="," horiz-adv-x="570" 
d="M315 39q-17 -15 -35.5 -22t-36.5 -7q-22 0 -42 9t-35 25t-24 37.5t-9 47.5q0 30 11 55t30.5 43.5t44.5 28.5t54 10q43 0 75.5 -18.5t54.5 -49t33 -71t11 -84.5q0 -61 -17 -121t-51.5 -114.5t-87 -101t-123.5 -79.5l-29 54q45 24 81.5 55t62 65.5t39 72.5t13.5 77
q0 22 -3.5 43t-16.5 45z" />
    <glyph glyph-name="hyphen" unicode="&#x2010;" horiz-adv-x="701" 
d="M87 443q-4 76 0 153h521q2 -78 0 -153h-521z" />
    <glyph glyph-name="hyphen" unicode="&#xad;" horiz-adv-x="701" 
d="M87 443q-4 76 0 153h521q2 -78 0 -153h-521z" />
    <glyph glyph-name="hyphen" unicode="-" horiz-adv-x="701" 
d="M87 443q-4 76 0 153h521q2 -78 0 -153h-521z" />
    <glyph glyph-name="period" unicode="." horiz-adv-x="570" 
d="M150 117q0 54 37.5 94.5t95.5 40.5q60 0 98 -40.5t38 -94.5t-38 -94.5t-98 -40.5q-58 0 -95.5 40.5t-37.5 94.5v0z" />
    <glyph glyph-name="slash" unicode="/" horiz-adv-x="746" 
d="M67 -349h-125l649 1832h128z" />
    <glyph glyph-name="zero" unicode="0" horiz-adv-x="1024" 
d="M507 1081q-74 0 -123 -39.5t-78 -106.5t-41.5 -154.5t-12.5 -184.5q0 -66 5.5 -131t18.5 -125t33.5 -112t49.5 -90t68 -60t89 -22q72 0 121 39t79 105.5t43 154t13 185.5q0 66 -5.5 132t-18.5 126t-33.5 112t-49.5 90t-68.5 59.5t-89.5 21.5zM951 569q0 -129 -29 -236.5
t-85 -185t-137.5 -121t-186.5 -43.5q-111 0 -193.5 44.5t-137.5 123t-82 185.5t-27 232q0 116 26.5 222t81 187t137 129t195.5 48q120 0 203 -48t135.5 -128.5t76 -186.5t23.5 -222z" />
    <glyph glyph-name="one" unicode="1" horiz-adv-x="1024" 
d="M854 -1q-28 0 -58 1t-67.5 2t-86 2t-112.5 1q-59 0 -107 -1t-88 -2t-74.5 -2t-66.5 -1q-5 33 0 64q92 6 141.5 12t72.5 21t27 42.5t4 76.5v682q0 39 -7 56.5t-37 17.5q-36 0 -86.5 -6.5t-133.5 -25.5q-8 14 -11.5 30t-5.5 33q75 19 135.5 37t116 36t110 38.5t116.5 44.5
q21 -17 32 -43q-24 -27 -37 -79.5t-13 -130.5v-670q0 -38 1 -64.5t7.5 -44.5t21 -28.5t40.5 -17t66.5 -9.5t99.5 -7q4 -33 0 -65z" />
    <glyph glyph-name="two" unicode="2" horiz-adv-x="1024" 
d="M131 942q-10 11 -17.5 23t-12.5 23q81 88 172.5 129t200.5 41q79 0 145.5 -20t113.5 -57t73.5 -89.5t26.5 -117.5q0 -74 -36.5 -153t-107.5 -167.5t-175.5 -188.5t-241.5 -216q42 0 93.5 0.5t105.5 1.5t106 1.5t94 2.5q36 1 59 4t42.5 17.5t39 45t48.5 87.5q12 0 25 -1.5
t27 -6.5q-20 -79 -36.5 -154t-30.5 -148q-56 1 -119.5 2t-127.5 1.5t-126.5 0.5h-116.5q-106 0 -177.5 -0.5t-108.5 -2.5q-9 27 -9 55q167 127 279 235.5t180 201t96.5 171t28.5 145.5q0 62 -21 104.5t-56 68.5t-81 37.5t-95 11.5q-66 0 -134.5 -22.5t-125.5 -65.5z" />
    <glyph glyph-name="three" unicode="3" horiz-adv-x="1024" 
d="M321 410q-9 16 -14 30t-9 28q91 26 158 66.5t111 89t66 100.5t22 101q0 42 -15.5 79t-46.5 65t-76.5 44t-105.5 16q-63 0 -130 -22.5t-125 -65.5q-10 11 -17.5 23t-12.5 23q81 88 171 129t199 41q84 0 147.5 -21t105.5 -57t63.5 -83.5t21.5 -99.5q0 -47 -14.5 -95.5
t-44.5 -96t-75.5 -92t-107.5 -82.5q81 -13 143 -44.5t103 -78t62 -106t21 -129.5q0 -71 -21.5 -132t-59.5 -111t-89 -88t-110 -64t-122.5 -39.5t-125.5 -13.5t-117.5 12t-97.5 35t-67 56.5t-25 77.5q0 46 23.5 66t58.5 20q23 0 47 -12.5t45.5 -36.5t39 -59t28.5 -80
q22 -5 42.5 -6.5t40.5 -1.5q75 0 137.5 26.5t107 71t69 102.5t24.5 120q0 58 -20 114t-60 99.5t-98.5 70.5t-136.5 27q-56 0 -113 -16z" />
    <glyph glyph-name="four" unicode="4" horiz-adv-x="1024" 
d="M793 194v-443q-46 -3 -90 -3t-87 3v443h-582q-6 53 -6 104q155 218 312.5 426.5t324.5 418.5q70 -2 131 -12q-2 -56 -2.5 -89t-0.5 -60v-651h203q-1 -32 -3.5 -68t-6.5 -69h-193zM616 964q-124 -157 -238 -315t-226 -318h464v633z" />
    <glyph glyph-name="five" unicode="5" horiz-adv-x="1024" 
d="M875 1136q-7 -42 -16.5 -86t-22.5 -86h-539l-43 -311q48 9 96.5 14t88.5 5q132 0 221.5 -40.5t144 -103t77.5 -137.5t23 -144q0 -94 -24 -169.5t-65 -133.5t-95 -100t-113.5 -69t-121.5 -39.5t-118 -12.5q-64 0 -121 13.5t-99.5 38.5t-67.5 59t-25 75q0 46 24 67t55 21
q21 0 44.5 -11.5t45 -35.5t39.5 -60.5t28 -85.5q46 -8 84 -8q85 0 151.5 31.5t112.5 83.5t69.5 119.5t23.5 139.5q0 66 -21 129t-65.5 112t-114 78.5t-166.5 29.5q-45 0 -97 -6.5t-107 -20.5l-15 7l95 625z" />
    <glyph glyph-name="six" unicode="6" horiz-adv-x="1024" 
d="M915 1319q-20 2 -39 3t-37 1q-111 0 -202.5 -41.5t-161 -114.5t-117 -171.5t-71.5 -212.5q63 38 135 59t147 21q76 0 147.5 -24.5t126 -76.5t87.5 -131.5t33 -189.5q0 -111 -37 -197t-98.5 -145t-140.5 -89.5t-162 -30.5q-82 0 -162.5 32.5t-144.5 100.5t-103.5 173
t-39.5 250q0 99 22 201.5t65.5 198t109 179t152 146t194.5 98.5t237 36q32 0 67 -3q1 -18 -1 -36t-6 -36zM264 553q0 -131 24 -225.5t63 -155.5t88.5 -90.5t100.5 -29.5q43 0 84.5 19.5t73.5 61t52 106.5t20 157q0 96 -23 165.5t-62 114t-90 66t-107 21.5q-54 0 -109 -17
t-106 -49q-9 -71 -9 -144z" />
    <glyph glyph-name="seven" unicode="7" horiz-adv-x="1024" 
d="M271 -228q136 305 273 604.5t276 604.5q-17 0 -42.5 0.5t-54.5 0.5h-59h-54h-73.5t-72.5 -0.5t-67 -1t-57 -1.5q-36 -1 -61.5 -4.5t-46 -20t-39.5 -52.5t-42 -102q-12 0 -24.5 1.5t-26.5 6.5q19 91 31.5 173t20.5 163q54 -3 113 -5t118 -2.5t117 -1t110 -0.5h100
t96.5 0.5t81 1.5t53.5 3q3 -13 4.5 -24t2.5 -28q-64 -155 -133.5 -325.5t-136 -344.5t-127 -344.5t-106.5 -324.5q-20 -2 -43 -2.5t-43 -0.5t-39.5 0.5t-39.5 2.5z" />
    <glyph glyph-name="eight" unicode="8" horiz-adv-x="1024" 
d="M128 1051q0 74 29 139t81.5 113.5t126.5 76.5t163 28q90 0 159.5 -25.5t117 -70t72 -105t24.5 -130.5q0 -54 -23.5 -104.5t-59.5 -94t-79.5 -78.5t-84.5 -57q57 -31 110 -65t94 -77.5t66 -98.5t25 -128q0 -81 -32.5 -153t-92 -126t-143 -85.5t-186.5 -31.5
q-102 0 -180 27.5t-131.5 76t-80.5 114t-27 141.5q0 65 25.5 120.5t67 101t93 82.5t103.5 64q-48 28 -91 61.5t-75.5 74.5t-51.5 92.5t-19 117.5zM258 344q0 -60 15.5 -113.5t47 -94t79.5 -64t113 -23.5q64 0 112.5 22t81.5 59t49.5 85t16.5 100q0 63 -25 110.5t-67 86
t-96 70t-112 62.5l-50 27q-35 -26 -65 -59.5t-52.5 -74.5t-35 -89.5t-12.5 -103.5zM517 1340q-52 0 -92.5 -19.5t-68 -53t-42 -77.5t-14.5 -93q0 -61 24.5 -107.5t65 -84t93 -68.5t109.5 -61q25 19 49.5 47t43 65.5t30 85t11.5 106.5q0 50 -11.5 97t-37 83t-65 58t-95.5 22z
" />
    <glyph glyph-name="nine" unicode="9" horiz-adv-x="1024" 
d="M106 -199q17 -2 27.5 -2h24.5q136 0 237 46t171.5 124t113 180t62.5 214q-68 -45 -142 -64.5t-147 -19.5q-98 0 -171.5 36t-122.5 95t-73.5 135.5t-24.5 156.5q0 86 28.5 168t83.5 146t138.5 103t193.5 39q82 0 161.5 -31.5t142 -99.5t101.5 -175t39 -258
q0 -103 -20 -207.5t-61.5 -201t-105.5 -180t-153 -145.5t-203 -97.5t-254 -35.5q-25 0 -52 3q-2 35 6 71zM760 578q0 135 -24 231.5t-62.5 158t-87.5 90.5t-100 29q-57 0 -100 -27.5t-72.5 -74t-44.5 -107t-15 -126.5q0 -68 17.5 -135t52 -120t87 -85.5t122.5 -32.5
q53 0 108 15t112 50q3 35 5 67.5t2 66.5z" />
    <glyph glyph-name="colon" unicode=":" horiz-adv-x="570" 
d="M180 117q0 54 37.5 94.5t95.5 40.5q60 0 98 -40.5t38 -94.5t-38 -94.5t-98 -40.5q-58 0 -95.5 40.5t-37.5 94.5v0zM180 781q0 54 37.5 94.5t95.5 40.5q60 0 98 -40.5t38 -94.5t-38 -94.5t-98 -40.5q-58 0 -95.5 40.5t-37.5 94.5v0z" />
    <glyph glyph-name="semicolon" unicode=";" horiz-adv-x="570" 
d="M345 39q-17 -15 -35.5 -22t-36.5 -7q-22 0 -42 9t-35 25t-24 37.5t-9 47.5q0 30 11 55t30.5 43.5t44.5 28.5t54 10q43 0 75.5 -18.5t54.5 -49t33 -71t11 -84.5q0 -61 -17 -121t-51.5 -114.5t-87 -101t-123.5 -79.5l-29 54q45 24 81.5 55t62 65.5t39 72.5t13.5 77
q0 22 -3.5 43t-16.5 45zM180 781q0 54 37.5 94.5t95.5 40.5q60 0 98 -40.5t38 -94.5t-38 -94.5t-98 -40.5q-58 0 -95.5 40.5t-37.5 94.5v0z" />
    <glyph glyph-name="less" unicode="&#x3c;" horiz-adv-x="1150" 
d="M120 438q-5 34 0 69l888 409q21 -39 37 -79l-791 -365l791 -364q-16 -41 -37 -79z" />
    <glyph glyph-name="equal" unicode="=" horiz-adv-x="1150" 
d="M1048 326q3 -44 0 -87h-946q-3 43 0 87h946zM1048 706q3 -44 0 -87h-946q-3 43 0 87h946z" />
    <glyph glyph-name="greater" unicode="&#x3e;" horiz-adv-x="1150" 
d="M142 29q-21 38 -37 79l792 364l-792 365q17 42 37 79l889 -409q4 -35 0 -69z" />
    <glyph glyph-name="question" unicode="?" horiz-adv-x="808" 
d="M299 401l-42 372q45 -2 73 -2q184 0 255.5 32t71.5 108q0 108 -70 203t-178 144q-76 -48 -149 -48q-53 0 -89 26t-36 74q0 46 39.5 75t103.5 29q96 0 215.5 -81t187 -203t67.5 -249q0 -152 -83 -214.5t-276 -64.5l-22 -201h-68zM201 115q0 54 37 94t95 40t95.5 -40
t37.5 -94q0 -53 -37.5 -93t-95.5 -40t-95 40t-37 93z" />
    <glyph glyph-name="at" unicode="@" horiz-adv-x="1801" 
d="M1293 868q-13 -50 -28.5 -109t-31 -120l-31 -122t-28.5 -114.5t-23 -97t-15 -70.5q-3 -15 -5.5 -30.5t-2.5 -34.5q0 -22 4.5 -42t15 -35.5t27.5 -24.5t41 -9q35 0 76 15.5t82 46.5t79.5 76.5t68 106.5t47.5 136.5t18 165.5q0 128 -47 230t-127 173t-186 108.5t-224 37.5
q-113 0 -213.5 -27t-186.5 -76.5t-155 -119.5t-117 -156.5t-74 -187t-26 -210.5q0 -156 50 -281.5t139 -214.5t213 -137t272 -48q70 0 140.5 12.5t138.5 37.5t132 62t121 86q24 -20 40 -43q-61 -60 -132.5 -105t-149 -75t-159.5 -45t-165 -15q-168 0 -308.5 53.5t-242 151
t-158.5 235.5t-57 308q0 131 32 246.5t91 213t141 174.5t182 130.5t214.5 82t238.5 28.5q94 0 182.5 -19.5t166 -57t141.5 -91.5t110 -123.5t71.5 -153t25.5 -178.5q0 -106 -24 -193.5t-65 -157.5t-94.5 -122t-112.5 -86.5t-119 -51.5t-114 -17q-85 0 -134 44.5t-49 130.5
q0 24 6 51l-7 3q-23 -39 -58.5 -79.5t-77.5 -74t-87 -54.5t-85 -21q-47 0 -81 16.5t-56 46.5t-32 71.5t-10 91.5q0 67 17 143t48.5 150.5t76.5 143.5t100 121.5t119.5 83.5t135.5 31q74 0 152 -41l139 33zM1102 727q-42 36 -81.5 52.5t-77.5 16.5q-41 0 -78 -26t-68.5 -69
t-57 -99t-43.5 -116.5t-28 -121t-10 -112.5q0 -69 22 -110.5t73 -41.5q45 0 89 32t81.5 80.5t65 106t40.5 108.5z" />
    <glyph glyph-name="A" unicode="A" horiz-adv-x="1345" 
d="M397 518l-99 -273q-14 -38 -21 -64.5t-7 -45.5q0 -21 9.5 -33.5t30.5 -20t54 -12t80 -9.5q5 -32 0 -61q-48 0 -131 2t-132 2q-58 0 -108.5 -2t-109.5 -2q-5 30 0 62q36 4 63 8t48 12.5t37 22.5t31 37.5t30.5 59.5t34.5 87l428 1097q41 14 84 16l422 -1131
q27 -72 45 -111.5t40.5 -59.5t56 -26t91.5 -12q5 -32 0 -62q-69 0 -142.5 2t-144.5 2q-61 0 -138 -2t-145 -2q-5 29 0 61q48 5 81 9t53.5 10.5t29.5 17t9 28.5q0 15 -6 36.5t-17 51.5l-112 305h-445zM427 600h385l-193 526z" />
    <glyph glyph-name="B" unicode="B" horiz-adv-x="1221" 
d="M49 1388q76 0 162.5 -2t128.5 -2q69 0 138.5 2.5t138.5 2.5q227 0 346 -79t119 -229q0 -254 -312 -342v-2q181 -19 285.5 -111t104.5 -238q0 -173 -125 -278q-71 -59 -174.5 -86.5t-265.5 -27.5q-62 0 -137 3.5t-112 3.5q-43 0 -131.5 -2t-165.5 -2q-5 29 0 61
q70 7 107.5 12.5t56 20.5t23 44t4.5 82v924q0 61 -4.5 95.5t-23 51.5t-57 23.5t-106.5 12.5q-5 30 0 62zM436 673v-444q0 -99 2 -139q87 -18 162 -18q162 0 251.5 77.5t89.5 227.5q0 154 -91 227.5t-280 73.5q-90 0 -134 -5zM436 756q31 -2 82 -2q180 0 264 70.5t84 210.5
q0 137 -77.5 205t-237.5 68q-46 0 -115 -8v-544z" />
    <glyph glyph-name="C" unicode="C" horiz-adv-x="1415" 
d="M1310 410q-20 -171 -34 -353q-167 -50 -262 -67t-202 -17q-335 0 -526 191.5t-191 517.5q0 316 193.5 521t516.5 205q148 0 299 -40q38 -10 68.5 -17t57.5 -7q24 0 49 4q4 -174 20 -373q-36 -7 -66 -4q-42 189 -144 274t-278 85q-232 0 -362 -174.5t-130 -462.5
q0 -293 136 -467t382 -174q166 0 265 88t143 272q31 2 65 -2z" />
    <glyph glyph-name="D" unicode="D" horiz-adv-x="1497" 
d="M340 1384q69 0 138.5 2.5t138.5 2.5q384 0 584 -168t200 -501q0 -325 -221.5 -523.5t-549.5 -198.5q-94 0 -161.5 2.5t-122.5 2.5q-43 0 -131.5 -2t-165.5 -2q-5 29 0 61q70 7 107.5 12.5t56 20.5t23 44t4.5 82v924q0 61 -4.5 95.5t-23 51.5t-57 23.5t-106.5 12.5
q-5 30 0 62q76 0 162.5 -2t128.5 -2zM436 1300v-1056q0 -99 2 -139q98 -26 207 -26q250 0 394 168.5t144 444.5q0 296 -150.5 456t-441.5 160q-62 0 -155 -8z" />
    <glyph glyph-name="E" unicode="E" horiz-adv-x="1235" 
d="M340 1384q142 0 382.5 1t349.5 3q17 -142 43 -313q-32 -4 -63 0q-51 119 -121 174.5t-223 55.5h-272v-543h124q71 0 116 6t73 27.5t42.5 64t24.5 115.5q33 5 65 0q-1 -49 -2.5 -120.5t-1.5 -137.5q0 -67 1.5 -139t2.5 -122q-30 -4 -64 0q-10 78 -24.5 122.5t-41 66.5
t-68 27.5t-105.5 5.5h-142v-433q0 -135 4 -161h286q191 0 263 68t135 202q30 5 61 0q-42 -220 -58 -354q-195 1 -395.5 2t-385.5 1q-43 0 -131.5 -2t-165.5 -2q-5 29 0 61q70 7 107.5 12.5t56 20.5t23 44t4.5 82v924q0 61 -4.5 95.5t-23 51.5t-57 23.5t-106.5 12.5
q-5 30 0 62q76 0 162.5 -2t128.5 -2z" />
    <glyph glyph-name="F" unicode="F" horiz-adv-x="1177" 
d="M240 1143q0 61 -4.5 95.5t-23 51.5t-57 23.5t-106.5 12.5q-5 30 0 62q76 0 162.5 -2t128.5 -2q142 0 395 1t362 3q18 -148 45 -327q-31 -5 -62 -1q-49 130 -121 187.5t-226 57.5h-297v-563h144q71 0 116 6t73 27.5t42.5 64t24.5 115.5q33 5 65 0q-1 -49 -2.5 -120.5
t-1.5 -137.5q0 -67 1.5 -139t2.5 -122q-30 -4 -64 0q-10 78 -24.5 122.5t-41 66.5t-68 27.5t-105.5 5.5h-162v-414q0 -62 4 -96t24 -51.5t60.5 -23.5t118.5 -12q5 -32 0 -62q-84 0 -173.5 2t-133.5 2t-129 -2t-164 -2q-5 29 0 61q72 7 111 12.5t58 20.5t23.5 44t4.5 82v924z
" />
    <glyph glyph-name="G" unicode="G" horiz-adv-x="1525" 
d="M1321 377v-66q0 -165 14 -246q-276 -94 -512 -94q-336 0 -532 188t-196 516q0 334 195 533.5t534 199.5q152 0 308 -40q39 -10 70 -17t58 -7q25 0 51 4q4 -174 20 -373q-36 -7 -66 -4q-44 189 -149.5 274t-287.5 85q-242 0 -375.5 -169t-133.5 -476q0 -295 144.5 -463
t396.5 -168q139 0 269 52v246q0 61 -5 95.5t-26 51.5t-65.5 23.5t-122.5 12.5q-5 30 0 62q84 0 176.5 -2t138.5 -2q40 0 117 2t148 2q5 -30 0 -61q-62 -7 -95 -13t-49.5 -20.5t-20.5 -43.5t-4 -82z" />
    <glyph glyph-name="H" unicode="H" horiz-adv-x="1612" 
d="M1176 1143q0 61 -4.5 95.5t-23 51.5t-57.5 23.5t-106 12.5q-5 30 0 62q75 0 161.5 -2t129.5 -2q44 0 129 2t163 2q5 -30 0 -61q-70 -7 -109 -13t-58.5 -20.5t-24 -43.5t-4.5 -82v-924q0 -62 4 -96t23 -51.5t58.5 -23.5t110.5 -12q5 -32 0 -62q-79 0 -166 2t-130 2
q-44 0 -127.5 -2t-158.5 -2q-5 29 0 61q67 7 105.5 12.5t57 20.5t23 44t4.5 82v473h-740v-448q0 -62 4 -96t23 -51.5t58 -23.5t109 -12q5 -32 0 -62q-78 0 -164.5 2t-129.5 2q-44 0 -129 -2t-161 -2q-5 29 0 61q68 7 107.5 12.5t58.5 20.5t23.5 44t4.5 82v924
q0 61 -4.5 95.5t-23.5 51.5t-59 23.5t-109 12.5q-5 30 0 62q77 0 165 -2t131 -2q44 0 129 2t162 2q5 -30 0 -61q-70 -7 -108.5 -13t-58 -20.5t-24 -43.5t-4.5 -82v-392h740v367z" />
    <glyph glyph-name="I" unicode="I" horiz-adv-x="676" 
d="M436 1168v-924q0 -62 4 -96t23 -51.5t57.5 -23.5t112.5 -12q5 -32 0 -62q-81 0 -167.5 2t-129.5 2q-44 0 -129 -2t-164 -2q-5 29 0 61q72 7 111 12.5t58 20.5t23.5 44t4.5 82v924q0 61 -4.5 95.5t-23.5 51.5t-59 23.5t-110 12.5q-5 30 0 62q78 0 166 -2t131 -2
q44 0 129 2t164 2q5 -30 0 -61q-72 -7 -110.5 -13t-58 -20.5t-24 -43.5t-4.5 -82z" />
    <glyph glyph-name="J" unicode="J" horiz-adv-x="634" 
d="M28 1388q78 0 166 -2t129 -2q44 0 129 2t164 2q5 -30 0 -61q-72 -7 -110.5 -13t-58 -20.5t-24 -43.5t-4.5 -82v-1007q0 -315 -123.5 -471t-307.5 -156q-69 0 -118 31t-49 84q0 45 28.5 75t86.5 30q45 0 89.5 -32t75.5 -88q46 12 71.5 49t37 94t13.5 131t2 158v1077
q0 61 -4.5 95.5t-23.5 51.5t-59 23.5t-110 12.5q-5 30 0 62z" />
    <glyph glyph-name="K" unicode="K" horiz-adv-x="1392" 
d="M436 1168v-494l460 485q38 41 57.5 69t19.5 46q0 24 -37 35t-117 18q-5 32 0 61q53 0 134.5 -2t136.5 -2q64 0 120 2t122 2q5 -30 0 -62q-41 -4 -71.5 -9.5t-57 -15t-51.5 -25t-53 -40t-62.5 -59t-80.5 -82.5l-291 -304l410 -534q47 -62 78 -98t62 -55.5t70 -28
t102 -14.5q5 -32 0 -62q-74 0 -152.5 1.5t-119.5 1.5q-43 0 -98 -2l-484 654l-97 -103v-307q0 -62 4 -96t22.5 -51.5t55.5 -23.5t109 -12q5 -32 0 -62q-80 0 -165.5 2t-128.5 2q-44 0 -128 -2t-162 -2q-5 29 0 61q72 7 111 12.5t58 20.5t23.5 44t4.5 82v924q0 61 -4.5 95.5
t-23.5 51.5t-59 23.5t-110 12.5q-5 30 0 62q77 0 164 -2t130 -2q44 0 128 2t162 2q5 -30 0 -61q-70 -7 -107 -13t-56 -20.5t-23.5 -43.5t-4.5 -82z" />
    <glyph glyph-name="L" unicode="L" horiz-adv-x="1197" 
d="M436 1168v-924q0 -135 4 -161h294q168 0 240.5 68.5t141.5 227.5q30 5 61 0q-48 -245 -64 -379q-193 1 -383.5 2t-383.5 1q-43 0 -131.5 -2t-165.5 -2q-5 29 0 61q70 7 107.5 12.5t56 20.5t23 44t4.5 82v924q0 61 -4.5 95.5t-23 51.5t-57 23.5t-106.5 12.5q-5 30 0 62
q76 0 162.5 -2t128.5 -2q44 0 129 2t164 2q5 -30 0 -61q-72 -7 -110.5 -13t-58 -20.5t-24 -43.5t-4.5 -82z" />
    <glyph glyph-name="M" unicode="M" horiz-adv-x="1821" 
d="M1332 1386q42 -1 78.5 -1.5t67.5 -0.5q22 0 127.5 2t165.5 2q4 -30 0 -61q-71 -8 -111 -13.5t-59.5 -20t-23.5 -43t-3 -82.5l16 -924q1 -62 4.5 -96t22 -51.5t58 -23.5t112.5 -12q5 -32 0 -62q-60 0 -165.5 2t-126.5 2q-22 0 -122.5 -2t-159.5 -2q-5 29 0 61q67 7 105 13
t56.5 20.5t22.5 43.5t3 82l-18 1060l-500 -1276q-27 -12 -69 -10l-470 1246l-33 -1020q-2 -49 0.5 -76.5t20.5 -43t57 -23t111 -16.5q5 -32 0 -61q-59 0 -141.5 2t-93.5 2t-103 -2t-142 -2q-5 30 0 62q70 8 108 15.5t57 25.5t23.5 51t6.5 91l38 924q2 52 -1.5 80.5t-23 44
t-60 21.5t-112.5 13q-4 31 0 61q60 0 165.5 -2t127.5 -2q31 0 67.5 0.5t78.5 1.5l412 -1087z" />
    <glyph glyph-name="N" unicode="N" horiz-adv-x="1520" 
d="M1227 -13l-904 1159v-852q0 -76 4 -117t24 -62.5t60.5 -34t118.5 -19.5q5 -32 0 -62q-83 0 -156.5 2t-96.5 2q-22 0 -95 -2t-154 -2q-5 29 0 61q71 9 110.5 17.5t59 29t23.5 58t4 104.5v814q0 79 -5 123.5t-26 68.5t-63.5 33.5t-117.5 17.5q-5 30 0 62q81 0 157.5 -2
t98.5 -2q45 0 121 2l827 -1062v768q0 76 -4 117t-24 62.5t-60.5 34t-118.5 19.5q-5 32 0 62q83 0 157.5 -2t95.5 -2q22 0 95 2t154 2q5 -29 0 -61q-71 -9 -110.5 -18t-59 -29t-23.5 -57.5t-4 -104.5v-1121q-39 -9 -88 -9z" />
    <glyph glyph-name="O" unicode="O" horiz-adv-x="1565" 
d="M1246 682q0 292 -122 469.5t-343 177.5q-219 0 -340.5 -180t-121.5 -452q0 -284 123 -466t346 -182q216 0 337 170.5t121 462.5zM1470 700q0 -330 -194.5 -530t-509.5 -200q-305 0 -488 194.5t-183 515.5q0 325 192.5 526.5t505.5 201.5q305 0 491 -193t186 -515z" />
    <glyph glyph-name="P" unicode="P" horiz-adv-x="1148" 
d="M43 1388q78 0 166 -2t131 -2q35 0 125 3.5t147 3.5q224 0 350 -93t126 -267q0 -196 -128.5 -305.5t-342.5 -109.5q-88 0 -181 20v-392q0 -62 4.5 -96t25 -51.5t61.5 -23.5t121 -12q5 -32 0 -62q-85 0 -176 2t-136 2q-44 0 -129 -2t-164 -2q-5 29 0 61q72 7 111 12.5
t58 20.5t23.5 44t4.5 82v924q0 61 -4.5 95.5t-23.5 51.5t-59 23.5t-110 12.5q-5 30 0 62zM436 713q70 -16 130 -16q142 0 222.5 88t80.5 222q0 145 -80.5 225.5t-237.5 80.5q-54 0 -115 -8v-592z" />
    <glyph glyph-name="Q" unicode="Q" horiz-adv-x="1567" 
d="M1473 700q0 -280 -149 -469.5t-405 -241.5v-3q192 -171 318.5 -241t264.5 -70q70 0 151 30q14 -20 26 -47q-184 -128 -337 -128q-115 0 -229 80.5t-320 298.5q-37 40 -78.5 53.5t-105.5 28.5q-241 56 -376 237t-135 452q0 327 193.5 527.5t504.5 200.5
q306 0 491.5 -193.5t185.5 -514.5zM1249 682q0 293 -122.5 470t-344.5 177q-215 0 -337.5 -179t-122.5 -453q0 -288 124.5 -468t344.5 -180t339 173t119 460z" />
    <glyph glyph-name="R" unicode="R" horiz-adv-x="1344" 
d="M642 541q-18 26 -33.5 42t-32.5 25.5t-36.5 13.5t-44.5 7l-59 6v-391q0 -62 4 -96t22 -51.5t55 -23.5t108 -12q5 -32 0 -62q-82 0 -170 2t-131 2q-42 0 -124 -2t-158 -2q-5 29 0 61q72 7 111 12.5t58 20.5t24 44t5 82v926q0 60 -5 94.5t-24 51.5t-59 23.5t-110 11.5
q-5 30 0 62q78 0 166.5 -2t131.5 -2q35 0 125.5 3t147.5 3q225 0 351.5 -91t126.5 -265q0 -124 -81.5 -221t-237.5 -147v-3q17 -14 33 -33t36 -47l208 -300q34 -49 60 -83.5t48.5 -57.5t44.5 -37.5t47 -22.5t56.5 -12.5t73.5 -8.5q5 -32 0 -62q-74 0 -152.5 1.5t-119.5 1.5
q-43 0 -98 -2zM436 714q59 -10 111 -10q151 0 240 83t89 225q0 148 -82 223t-241 75q-55 0 -117 -8v-588z" />
    <glyph glyph-name="S" unicode="S" horiz-adv-x="1103" 
d="M174 414q39 -182 125.5 -274t239.5 -92q118 0 195.5 72.5t77.5 185.5q0 69 -27.5 118.5t-73.5 86t-104.5 64t-120.5 53.5q-66 28 -129 58.5t-113 74t-81 103.5t-31 147q0 174 124.5 285.5t329.5 111.5q75 0 162 -14t125 -14q27 0 52 4q4 -174 20 -373q-36 -7 -63 -4
q-43 171 -112.5 248.5t-196.5 77.5q-119 0 -191 -63.5t-72 -165.5q0 -67 27.5 -114.5t73 -82.5t104 -61.5t120.5 -52.5q67 -29 132 -60t116.5 -76t83 -108.5t31.5 -154.5q0 -192 -135 -306.5t-345 -114.5q-82 0 -204 19t-184 23q-3 168 -18 397q32 4 62 2z" />
    <glyph glyph-name="T" unicode="T" horiz-adv-x="1326" 
d="M664 1381q172 0 330 1t287 9q13 -161 34 -348q-32 -4 -63 0q-50 134 -118 196.5t-217 62.5h-156v-1058q0 -62 4 -96t23.5 -51.5t59 -23.5t115.5 -12q5 -32 0 -62q-82 0 -170 2t-132 2q-45 0 -131.5 -2t-166.5 -2q-5 29 0 61q74 7 114 12.5t59.5 20.5t24 44t4.5 82v1083
h-151q-153 0 -219.5 -62.5t-113.5 -196.5q-31 -4 -63 0q26 187 42 347q129 -7 283 -8t321 -1z" />
    <glyph glyph-name="U" unicode="U" horiz-adv-x="1520" 
d="M34 1388q77 0 165 -2t131 -2q44 0 129 2t162 2q5 -30 0 -61q-70 -7 -108.5 -13t-58 -20.5t-24 -43.5t-4.5 -82v-649q0 -222 97.5 -330.5t286.5 -108.5q193 0 294 122t101 375v544q0 68 -5 106t-25.5 57t-63.5 26t-117 14q-5 30 0 62q78 0 152.5 -2t97.5 -2q22 0 97 2
t156 2q5 -30 0 -61q-70 -8 -109 -14.5t-58.5 -23t-24 -49t-4.5 -92.5v-613q0 -275 -141.5 -414.5t-394.5 -139.5q-252 0 -393.5 122.5t-141.5 361.5v680q0 61 -4.5 95.5t-23.5 51.5t-59 23.5t-109 12.5q-5 30 0 62z" />
    <glyph glyph-name="V" unicode="V" horiz-adv-x="1366" 
d="M737 261l344 881q14 38 22.5 64t8.5 45t-10 31.5t-33 20.5t-59.5 13.5t-89.5 10.5q-5 32 0 61q51 0 139 -2t140 -2q62 0 115.5 2t116.5 2q5 -30 0 -62q-58 -6 -94 -13.5t-62 -29.5t-49 -65t-54 -119l-450 -1097q-43 -14 -87 -16l-430 1131q-18 48 -31.5 81t-26.5 55
t-27.5 34.5t-34.5 20t-47 11t-66 7.5q-5 32 0 62q71 0 146.5 -2t148.5 -2q62 0 141 2t149 2q5 -29 0 -61q-53 -4 -89 -8.5t-58 -11.5t-32 -18t-10 -29q0 -15 6.5 -36t17.5 -50z" />
    <glyph glyph-name="W" unicode="W" horiz-adv-x="1990" 
d="M1372 261l328 881q15 40 23.5 67.5t8.5 46.5q0 18 -9 29.5t-30 19t-54.5 12.5t-82.5 10q-5 32 0 61q49 0 134.5 -2t136.5 -2q60 0 111.5 2t112.5 2q5 -30 0 -62q-58 -6 -94 -13.5t-62.5 -30t-49 -66t-53.5 -120.5l-436 -1097q-41 -14 -82 -16l-260 761l-311 -741
q-42 -14 -84 -16l-405 1131q-26 72 -44 111t-40.5 58.5t-56.5 26t-92 12.5q-5 32 0 62q66 0 136.5 -2t138.5 -2q58 0 132 2t139 2q5 -29 0 -61q-41 -5 -69 -9t-46 -10t-26 -16.5t-8 -26.5q0 -15 6 -37t17 -53l317 -911l254 604l-84 249q-23 72 -39 111.5t-36.5 59t-52 26
t-83.5 12.5q-5 32 0 62q67 0 138.5 -2t139.5 -2q59 0 133.5 2t140.5 2q5 -29 0 -61q-49 -5 -82.5 -9t-54 -10.5t-29.5 -17t-9 -28.5q0 -15 5.5 -36.5t15.5 -51.5z" />
    <glyph glyph-name="X" unicode="X" horiz-adv-x="1388" 
d="M18 1326q-5 32 0 62q71 0 146.5 -2t148.5 -2q62 0 144.5 2t152.5 2q5 -29 0 -61q-84 -8 -120 -19t-36 -36q0 -15 11 -36t31 -52l228 -354l250 351q21 29 32 50t11 36q0 27 -40.5 38t-128.5 22q-5 32 0 61q49 0 144 -2t145 -2q59 0 90 2t132 2q5 -30 0 -62
q-57 -6 -95.5 -15.5t-71.5 -32t-67.5 -62.5t-83.5 -107l-266 -358l314 -485q42 -65 71.5 -103t59.5 -58.5t66.5 -29t93.5 -14.5q5 -32 0 -62q-72 0 -148 2t-149 2q-63 0 -146 -2t-154 -2q-5 29 0 61q88 8 125 19t37 36q0 14 -11 35.5t-30 50.5l-255 394l-274 -387
q-21 -30 -32.5 -51.5t-11.5 -36.5q0 -27 43 -38.5t134 -21.5q5 -32 0 -61q-50 0 -147 2t-148 2q-60 0 -91.5 -2t-134.5 -2q-5 30 0 62q57 6 95.5 15.5t71.5 32t67 62.5t84 107l293 395l-289 448q-42 65 -71.5 103t-59.5 58.5t-66.5 29t-93.5 14.5z" />
    <glyph glyph-name="Y" unicode="Y" horiz-adv-x="1236" 
d="M677 688l260 485q17 32 26.5 54t9.5 37t-10 24t-31.5 15.5t-56 12t-82.5 11.5q-5 32 0 61q51 0 129 -2t130 -2q62 0 115.5 2t116.5 2q5 -30 0 -62q-58 -6 -93 -13.5t-62 -29t-54 -62t-67 -112.5l-292 -521v-344q0 -62 4 -96t23 -51.5t57.5 -23.5t112.5 -12q5 -32 0 -62
q-81 0 -167.5 2t-129.5 2q-44 0 -129 -2t-164 -2q-5 29 0 61q72 7 111 12.5t58 20.5t23.5 44t4.5 82v351l-299 551q-25 45 -42.5 77t-33 53t-31 34t-35.5 21t-46.5 12t-63.5 8q-5 32 0 62q71 0 146.5 -2t148.5 -2q62 0 129 2t137 2q5 -29 0 -61q-85 -8 -120.5 -19t-35.5 -37
q0 -16 10.5 -39.5t29.5 -57.5z" />
    <glyph glyph-name="Z" unicode="Z" horiz-adv-x="1277" 
d="M298 84h465q193 0 266 77.5t137 230.5q30 5 61 0q-46 -244 -63 -392q-195 1 -333 2t-293 1q-162 0 -259.5 -1t-230.5 -4q-7 21 -8 41l904 1263h-454q-155 0 -222 -66t-114 -207q-31 -4 -63 0q28 195 46 361q129 -7 273 -8t301 -1q138 0 241.5 0.5t241.5 5.5q8 -19 9 -42z
" />
    <glyph glyph-name="bracketleft" unicode="[" horiz-adv-x="784" 
d="M180 -362v1854h444v-83h-311v-1688h311v-83h-444z" />
    <glyph glyph-name="backslash" unicode="\" horiz-adv-x="746" 
d="M27 1483h128l649 -1832h-125z" />
    <glyph glyph-name="bracketright" unicode="]" horiz-adv-x="784" 
d="M604 1492v-1854h-444v83h311v1688h-311v83h444z" />
    <glyph glyph-name="asciicircum" unicode="^" horiz-adv-x="1153" 
d="M542 1406q34 5 69 0l392 -717q-42 -23 -85 -41l-342 624l-341 -624q-44 18 -85 41z" />
    <glyph glyph-name="underscore" unicode="_" horiz-adv-x="1150" 
d="M1220 -184v-87h-1290v87h1290z" />
    <glyph glyph-name="grave" unicode="`" horiz-adv-x="554" 
d="M127 1419q62 11 133 11q52 0 60 -9l106 -389q-11 -4 -28 -5.5t-28 0.5l-243 384v8z" />
    <glyph glyph-name="a" unicode="a" horiz-adv-x="937" 
d="M911 126q13 -20 16 -39q-46 -54 -100 -78t-105 -24q-114 0 -143 128q-132 -131 -276 -131q-100 0 -164.5 58.5t-64.5 154.5q0 133 123.5 211.5t384.5 110.5l2 195q0 69 -50 106.5t-126 37.5q-54 0 -89 -16q0 -82 -42.5 -138.5t-100.5 -56.5q-34 0 -55.5 22t-21.5 55
q0 83 132 155q68 37 140 53t130 16q119 0 190 -61.5t70 -168.5l-9 -551q-2 -63 54 -63q36 0 105 24zM581 449q-184 -24 -251.5 -75.5t-67.5 -135.5q0 -66 35 -99t95 -33q68 0 186 56z" />
    <glyph glyph-name="b" unicode="b" horiz-adv-x="1096" 
d="M159 -5q4 67 4 225v972q0 57 -2.5 90t-17 52.5t-44 28.5t-91.5 16q-5 25 0 51q158 22 313 85l20 -8q-4 -84 -4 -211v-483q144 133 312 133q161 0 268 -128.5t107 -318.5q0 -217 -137 -367t-347 -150q-148 0 -286 72q-29 -31 -51 -67q-27 2 -44 8zM335 156q91 -97 223 -97
q141 0 213.5 102t72.5 266q0 177 -74 288t-212 111q-125 0 -223 -94v-576z" />
    <glyph glyph-name="c" unicode="c" horiz-adv-x="886" 
d="M813 188q18 -21 28 -44q-154 -165 -357 -165q-186 0 -301 130t-115 333q0 224 129 364t338 140q130 0 214.5 -57t84.5 -137q0 -46 -28 -73.5t-68 -27.5q-52 0 -89.5 51.5t-37.5 142.5q-41 23 -105 23q-121 0 -192.5 -110t-71.5 -276t87 -268t241 -102q113 0 243 76z" />
    <glyph glyph-name="d" unicode="d" horiz-adv-x="1120" 
d="M930 275q0 -55 2.5 -89t15.5 -53.5t42 -28.5t81 -16q5 -26 0 -53q-160 -22 -287 -58l-20 8l-5 142q-138 -145 -308 -145q-168 0 -275 128.5t-107 318.5q0 225 135.5 371t348.5 146q103 0 203 -31v282q0 57 -2 87.5t-16.5 50t-44 28.5t-92.5 16q-5 25 0 51q158 22 315 85
l20 -8q-4 -104 -6 -231v-1001zM758 754q-87 115 -227 115t-211 -98t-71 -270q0 -177 74 -288t216 -111q140 0 219 110v542z" />
    <glyph glyph-name="e" unicode="e" horiz-adv-x="918" 
d="M667 615q1 7 1 30q0 100 -51.5 164.5t-140.5 64.5q-88 0 -151.5 -67.5t-82.5 -197.5zM236 536q0 -206 88.5 -312.5t241.5 -106.5q132 0 261 85q17 -19 29 -44q-160 -179 -375 -179q-187 0 -300 130.5t-113 335.5q0 221 119 361t316 140q161 0 255 -99t94 -260
q0 -34 -3 -56z" />
    <glyph glyph-name="f" unicode="f" horiz-adv-x="644" 
d="M641 901q6 -44 0 -88h-254v-593q0 -56 5 -87t23 -46.5t53.5 -20t97.5 -7.5q4 -29 0 -60q-64 0 -129 2t-140 2q-66 0 -120 -2t-112 -2q-4 28 0 59q49 3 78 8t44 19t19.5 41t4.5 74v613h-161q-5 27 0 51q60 12 93 20.5t47.5 18.5t17 19.5t4.5 56.5q14 274 132 398t299 124
q98 0 164 -42t66 -110q0 -42 -26.5 -70t-67.5 -28q-57 0 -96.5 45.5t-39.5 109.5q-27 11 -66 11q-98 0 -144.5 -84.5t-46.5 -279.5v-152h255z" />
    <glyph glyph-name="g" unicode="g" horiz-adv-x="1059" 
d="M492 946q140 0 246 -83q113 83 207 83q43 0 69.5 -21.5t26.5 -60.5q0 -36 -25 -60.5t-62 -24.5q-32 0 -56 20.5t-30 57.5q-49 -4 -93 -34q66 -83 66 -201q0 -148 -104 -237t-264 -89q-91 0 -167 30q-60 -52 -60 -114q0 -48 36 -67t121 -19t136 1t108 1q169 0 255.5 -63.5
t86.5 -184.5q0 -174 -161 -290.5t-381 -116.5q-194 0 -290 58t-96 168q0 74 46.5 135t156.5 135q-70 16 -114 57t-44 105q0 120 153 219q-146 91 -146 260q0 149 110 242.5t269 93.5zM329 -39q-106 -92 -106 -196q0 -96 82.5 -151t203.5 -55q144 0 241 64t97 173
q0 87 -56.5 127t-189.5 40q-72 0 -122 -1t-150 -1zM291 630q0 -123 48 -195t139 -72q89 0 137 66.5t48 184.5q0 123 -47 195t-139 72q-91 0 -138.5 -66t-47.5 -185z" />
    <glyph glyph-name="h" unicode="h" horiz-adv-x="1145" 
d="M501 -1q-50 0 -105.5 2t-119.5 2q-66 0 -120 -2t-112 -2q-5 29 0 59q49 3 78 8t44 19t19.5 41t4.5 74v992q0 56 -2.5 89.5t-17 53t-44 28.5t-91.5 16q-5 25 0 51q152 21 315 85l20 -8q-4 -85 -4 -211v-498q162 148 335 148q130 0 197 -75t67 -215v-436q0 -56 4 -87
t18 -46.5t40 -20t75 -7.5q4 -30 0 -60q-56 0 -109.5 2t-117.5 2q-65 0 -117.5 -2t-104.5 -2q-4 29 0 59q44 3 70.5 8t41.5 19t19.5 40.5t4.5 74.5v388q0 135 -47.5 182.5t-141.5 47.5q-132 0 -234 -99v-499q0 -56 4 -87t18 -46.5t41 -20t72 -7.5q4 -30 0 -60z" />
    <glyph glyph-name="i" unicode="i" horiz-adv-x="565" 
d="M515 -1q-55 0 -110.5 2t-119.5 2t-118.5 -2t-112.5 -2q-4 29 0 59q49 3 78 8t44 19t19.5 40.5t4.5 74.5v431q0 55 -2.5 89t-16 53.5t-43 28.5t-82.5 16q-5 25 0 51q162 32 303 85l20 -8q-4 -119 -4 -211v-515q0 -56 4 -87t18 -46.5t42 -20t76 -7.5q4 -30 0 -60zM161 1312
q0 47 33 81.5t84 34.5q52 0 85.5 -34.5t33.5 -81.5q0 -46 -33.5 -80.5t-85.5 -34.5q-51 0 -84 34.5t-33 80.5z" />
    <glyph glyph-name="j" unicode="j" horiz-adv-x="532" 
d="M369 946q-4 -105 -4 -211q1 -93 2 -295.5t1 -292.5v-169q0 -241 -114.5 -373t-273.5 -132q-53 0 -90 25t-37 67q0 35 25.5 59.5t73.5 24.5q76 0 137 -82q62 30 82.5 110.5t20.5 245.5q0 115 -1 369.5t-1 338.5q0 56 -2.5 89.5t-16 53t-43 28.5t-82.5 16q-5 25 0 51
q164 32 303 85zM151 1312q0 47 33 81.5t84 34.5q52 0 85.5 -34.5t33.5 -81.5q0 -46 -33.5 -80.5t-85.5 -34.5q-51 0 -84 34.5t-33 80.5z" />
    <glyph glyph-name="k" unicode="k" horiz-adv-x="1044" 
d="M496 -1q-53 0 -106 2t-114 2q-66 0 -120 -2t-112 -2q-5 29 0 59q49 3 78 8t44 19t19.5 41t4.5 74v992q0 56 -2.5 89.5t-17 53t-44 28.5t-91.5 16q-5 25 0 51q152 21 315 85l20 -8q-4 -85 -4 -211v-780q29 0 60 24.5t149 140.5q74 73 96.5 98t22.5 41q0 37 -96 40
q-4 30 0 60q42 0 97 -2t102 -2q43 0 113 1.5t107 1.5q4 -30 0 -58q-80 -3 -144 -35t-163 -125l-152 -143l265 -353q66 -88 111.5 -116.5t123.5 -29.5q4 -28 0 -60q-23 0 -73.5 2t-143.5 2q-48 0 -107 -4q0 26 -59.5 111t-210.5 290q-35 44 -53.5 53.5t-44.5 9.5v-243
q0 -56 3.5 -87t16.5 -46.5t39 -20t71 -7.5q4 -30 0 -60z" />
    <glyph glyph-name="l" unicode="l" horiz-adv-x="556" 
d="M506 -1q-55 0 -110.5 2t-119.5 2q-66 0 -120 -2t-112 -2q-5 29 0 59q49 3 78 8t44 19t19.5 41t4.5 74v992q0 56 -2.5 89.5t-17 53t-44 28.5t-91.5 16q-5 25 0 51q152 21 315 85l20 -8q-4 -85 -4 -211v-1076q0 -56 4 -87t18 -46.5t42 -20t76 -7.5q4 -30 0 -60z" />
    <glyph glyph-name="m" unicode="m" horiz-adv-x="1710" 
d="M1665 -1q-54 0 -107.5 2t-117.5 2q-65 0 -117.5 -2t-99.5 -2q-4 29 0 59q42 3 67 8t40 19t19.5 40.5t4.5 74.5v388q0 135 -45 182.5t-135 47.5q-129 0 -225 -98q4 -30 4 -64v-436q0 -56 4 -87t18 -46.5t39.5 -20t73.5 -7.5q4 -30 0 -60q-54 0 -107.5 2t-117.5 2
q-65 0 -117.5 -2t-99.5 -2q-4 29 0 59q42 3 67 8t40 19t19.5 40.5t4.5 74.5v388q0 135 -45 182.5t-135 47.5q-125 0 -222 -99v-499q0 -56 4 -87t18 -46.5t40 -20t73 -7.5q4 -30 0 -60q-54 0 -107.5 2t-117.5 2t-118.5 -2t-112.5 -2q-4 29 0 59q49 3 78 8t44 19t19.5 40.5
t4.5 74.5v431q0 55 -2.5 89t-16 53.5t-43 28.5t-82.5 16q-5 25 0 51q162 32 296 85l20 -8v-148q159 148 326 148q181 0 236 -156q163 156 341 156q126 0 190.5 -75t64.5 -215v-436q0 -56 4 -87t18 -46.5t39.5 -20t73.5 -7.5q4 -30 0 -60z" />
    <glyph glyph-name="n" unicode="n" horiz-adv-x="1154" 
d="M1111 -1q-57 0 -110 2t-117 2q-66 0 -118 -2t-104 -2q-5 29 0 59q44 3 70.5 8t41 19t19.5 41t5 74v388q0 135 -48 182q-47 48 -141 48q-132 0 -234 -99v-499q0 -56 4 -87t18 -46.5t40.5 -20t72.5 -7.5q4 -30 0 -60q-54 0 -107.5 2t-117.5 2t-118.5 -2t-112.5 -2
q-5 29 0 59q49 3 78 8t44 19t19.5 41t4.5 74v431q0 56 -2.5 89.5t-16 53t-43 28.5t-82.5 16q-5 25 0 51q81 16 155 37.5t141 47.5l20 -8v-148q164 148 338 148q131 0 197.5 -74.5t66.5 -215.5v-436q0 -56 3.5 -87t17.5 -46.5t41.5 -20t74.5 -7.5q4 -30 0 -60z" />
    <glyph glyph-name="o" unicode="o" horiz-adv-x="1070" 
d="M527 -21q-212 0 -335.5 133t-123.5 341q0 222 131.5 357.5t344.5 135.5q209 0 333.5 -133t124.5 -341q0 -216 -131.5 -354.5t-343.5 -138.5zM266 476q0 -197 69 -311t201 -114q130 0 199 107t69 291q0 196 -68.5 310.5t-201.5 114.5q-129 0 -198.5 -107t-69.5 -291z" />
    <glyph glyph-name="p" unicode="p" horiz-adv-x="1115" 
d="M540 -510q-66 0 -130.5 2t-139.5 2q-64 0 -118.5 -2t-112.5 -2q-3 28 0 59q49 3 78 8t44 19t19.5 41t4.5 74v940q0 56 -2.5 89.5t-16 53t-43 28.5t-82.5 16q-5 25 0 51q157 30 299 85l19 -8q-3 -89 -3 -154q149 154 305 154q181 0 281.5 -131.5t100.5 -315.5
q0 -225 -137 -369t-344 -144q-113 0 -204 31v-306q0 -56 5 -87t23.5 -46.5t55 -20t98.5 -7.5q4 -31 0 -60zM356 172q92 -113 227 -113t207.5 98.5t72.5 269.5q0 180 -73.5 289.5t-207.5 109.5q-126 0 -226 -114v-540z" />
    <glyph glyph-name="q" unicode="q" horiz-adv-x="1097" 
d="M755 106q-136 -124 -305 -124q-168 0 -275 128.5t-107 318.5q0 225 135.5 371t348.5 146q127 0 240 -60q53 24 100 55q23 -4 41 -14q-4 -77 -4 -229v-987q0 -56 4.5 -87t19.5 -46.5t45 -20t81 -7.5q4 -30 0 -60q-60 0 -120 2t-130 2q-68 0 -125 -2t-118 -2q-5 29 0 59
q57 3 90.5 8t50.5 19t22.5 41t5.5 74v415zM757 742q-85 127 -223 127q-144 0 -215 -98t-71 -270q0 -177 74 -288t216 -111q140 0 219 80v560z" />
    <glyph glyph-name="r" unicode="r" horiz-adv-x="769" 
d="M372 946v-176q135 176 275 176q51 0 87 -27t36 -75t-31.5 -77t-76.5 -29q-70 0 -114 66q-67 0 -120 -51.5t-53 -120.5v-412q0 -56 4 -87t21 -46.5t53 -20t99 -7.5q4 -29 0 -60q-65 0 -133 2t-134 2q-64 0 -118.5 -2t-112.5 -2q-4 29 0 59q49 3 78 8t44 19t19.5 41t4.5 74
v431q0 56 -2.5 89.5t-16 53t-43 28.5t-82.5 16q-5 25 0 51q154 30 296 85z" />
    <glyph glyph-name="s" unicode="s" horiz-adv-x="833" 
d="M153 305q30 -128 95.5 -193.5t170.5 -65.5q82 0 133 43.5t51 110.5q0 47 -20 79.5t-53 55.5t-75.5 39.5t-87.5 32.5q-48 17 -95.5 37t-84.5 49.5t-60 72.5t-23 107q0 121 94.5 197t240.5 76q60 0 135 -10t97 -10q16 0 33 2q0 -121 10 -257q-36 -5 -66 -2
q-27 111 -78 158.5t-143 47.5q-82 0 -127 -36.5t-45 -99.5q0 -42 18.5 -70t49.5 -48.5t71.5 -35.5t83.5 -30q49 -17 97.5 -37.5t87 -52.5t62.5 -79t24 -117q0 -131 -99 -210.5t-255 -79.5q-44 0 -142 15.5t-151 15.5q0 120 -11 292q34 4 62 3z" />
    <glyph glyph-name="t" unicode="t" horiz-adv-x="676" 
d="M661 67q-114 -85 -255 -85q-107 0 -170 55.5t-63 158.5q0 117 3 280t7 337h-143q-5 27 0 51q183 82 264 263q35 0 58 -5q-6 -121 -6 -221h293q6 -43 0 -88h-292q-3 -133 -4.5 -241.5t-1.5 -327.5q0 -76 45 -115.5t122 -39.5q68 0 126 31q12 -25 17 -53z" />
    <glyph glyph-name="u" unicode="u" horiz-adv-x="1123" 
d="M917 946l20 -8q-4 -119 -4 -211v-500q0 -44 2.5 -71t16.5 -42.5t45 -22.5t87 -13q5 -24 0 -48q-166 -18 -296 -47l-20 8l-6 141q-159 -150 -322 -150q-126 0 -193 75t-67 215v383q0 55 -2.5 89t-16 53.5t-43 28.5t-82.5 16q-5 25 0 51q162 20 303 53l20 -8
q-4 -119 -4 -211v-387q0 -135 45.5 -182.5t135.5 -47.5q123 0 222 99v446q0 55 -2.5 89t-16 53.5t-43 28.5t-82.5 16q-5 25 0 51q162 20 303 53z" />
    <glyph glyph-name="v" unicode="v" horiz-adv-x="973" 
d="M440 -11l-296 755q-12 31 -23.5 51t-27.5 32.5t-41 20t-65 12.5q-5 29 0 60q57 0 111 -2t118 -2q55 0 114 2t105 2q4 -28 0 -59q-64 -5 -89.5 -14.5t-25.5 -37.5q0 -14 5.5 -34.5t15.5 -48.5q45 -124 92 -248t99 -251q54 125 104.5 246.5t96.5 246.5q12 29 18 49.5
t6 35.5q0 27 -26 38t-90 18q-5 31 0 59q46 0 94 -2t103 -2q54 0 87 2t71 2q4 -28 0 -60q-39 -3 -64.5 -11.5t-43.5 -24t-30.5 -38t-25.5 -52.5l-306 -724z" />
    <glyph glyph-name="w" unicode="w" horiz-adv-x="1459" 
d="M946 -11l-205 570q-49 -114 -107 -250t-124 -299l-84 -21l-286 755q-12 31 -23.5 51t-27.5 32.5t-41 20t-65 12.5q-5 29 0 60q57 0 111 -2t118 -2q54 0 111.5 2t102.5 2q4 -28 0 -59q-63 -5 -88 -14.5t-25 -37.5q0 -14 5 -34.5t15 -48.5q44 -124 89 -248t96 -251l185 438
l-28 79q-11 31 -21.5 51t-25 32.5t-37 20t-58.5 12.5q-5 29 0 60q55 0 107 -2t110 -2q50 0 104.5 2t96.5 2q4 -28 0 -59q-64 -5 -89.5 -14.5t-25.5 -37.5q0 -14 5 -34.5t15 -48.5q41 -124 83 -248t89 -251q54 126 104.5 247t96.5 246q10 28 17 49t7 36q0 25 -25.5 37.5
t-90.5 18.5q-5 31 0 59q46 0 94 -2t103 -2q52 0 85 2t71 2q4 -28 0 -60q-39 -3 -64.5 -11.5t-43.5 -24t-30.5 -38t-25.5 -52.5l-305 -726z" />
    <glyph glyph-name="x" unicode="x" horiz-adv-x="964" 
d="M786 169q19 -27 34 -45.5t34 -31.5t44.5 -20.5t66.5 -12.5q4 -29 0 -60q-57 0 -111 2t-118 2q-60 0 -119 -2t-105 -2q-4 28 0 59q60 5 82.5 11.5t22.5 20.5q0 8 -6.5 20.5t-17.5 29.5q-58 93 -148 235q-102 -132 -178 -244q-13 -20 -13 -34q0 -17 26 -25.5t89 -13.5
q3 -31 0 -59q-49 0 -100.5 2t-98.5 2q-51 0 -93.5 -2t-87.5 -2q-5 31 0 60q43 5 71 13t49.5 22t40.5 35t44 52q77 95 205 264q-115 177 -206 305q-19 27 -34 45.5t-34 31t-44.5 20.5t-66.5 13q-5 28 0 60q57 0 111 -2t123 -2q55 0 114 2t105 2q4 -28 0 -59
q-60 -5 -82.5 -11.5t-22.5 -20.5q0 -8 6.5 -20.5t16.5 -29.5q61 -99 132 -212q85 108 162 222q14 20 14 33q0 17 -24.5 24.5t-84.5 14.5q-4 31 0 59q47 0 96.5 -2t94.5 -2q51 0 91.5 2t85.5 2q5 -31 0 -60q-42 -5 -70 -13t-49 -22t-39.5 -35t-43.5 -52q-62 -75 -187 -241
q126 -192 223 -328z" />
    <glyph glyph-name="y" unicode="y" horiz-adv-x="973" 
d="M126 795q-11 20 -27.5 33t-41.5 20t-65 12q-4 28 0 59q57 0 111 -2t118 -2q55 0 114 2t105 2q4 -28 0 -58q-64 -5 -90.5 -14.5t-26.5 -37.5q0 -14 5 -35t15 -50q43 -127 88 -253q42 -117 96 -256q68 159 107 253q51 123 99 252q11 30 16.5 50t5.5 35q0 27 -29 38t-102 18
q-4 30 0 58q48 0 98 -2t107 -2q38 0 84 2t82 2q4 -28 0 -59q-39 -3 -64.5 -11.5t-43 -24t-30 -38t-25.5 -52.5l-221 -525q-64 -150 -105 -244.5t-132 -280.5q-51 -104 -107.5 -157t-111.5 -53q-40 0 -66 24t-26 62q0 57 62.5 101.5t165.5 44.5q27 44 63 117.5t77 167.5
l-282 753q-12 31 -23 51z" />
    <glyph glyph-name="z" unicode="z" horiz-adv-x="909" 
d="M279 76h227q47 0 81 3t59.5 11.5t45.5 24t39 41.5t40 63.5t49 89.5q27 0 52 -8q-37 -150 -67 -302q-169 4 -270 4h-186q-122 0 -285 -3q-7 19 -8 37l554 804h-195q-73 0 -116.5 -7.5t-71.5 -29t-48.5 -60.5t-45.5 -102q-27 -2 -54 6q26 163 34 272q166 -9 379 -9
q170 0 331 5q8 -17 9 -38z" />
    <glyph glyph-name="braceleft" unicode="{" horiz-adv-x="775" 
d="M235 571v-8q58 -14 93 -36t54.5 -55.5t26 -78.5t6.5 -103v-386q0 -110 42.5 -166.5t147.5 -56.5v-64q-91 0 -155.5 15t-106 53t-60.5 104t-19 167v382q0 56 -8.5 92t-28.5 58t-53.5 33.5t-83.5 18.5v53q50 7 83.5 19t53.5 34t28.5 57.5t8.5 91.5v383q0 101 19 166.5
t60.5 103.5t106 53t155.5 15v-64q-105 0 -147.5 -56.5t-42.5 -165.5v-387q0 -59 -6.5 -103.5t-26 -77.5t-54.5 -55.5t-93 -35.5z" />
    <glyph glyph-name="bar" unicode="|" horiz-adv-x="603" 
d="M250 -496v1988h103v-1988h-103z" />
    <glyph glyph-name="braceright" unicode="}" horiz-adv-x="775" 
d="M540 571q-58 13 -93 35.5t-54.5 55.5t-26 77.5t-6.5 103.5v387q0 109 -42.5 165.5t-147.5 56.5v64q91 0 155.5 -15t105.5 -53t60.5 -103.5t19.5 -166.5v-383q0 -56 8.5 -91.5t28.5 -57.5t53.5 -34t83.5 -19v-53q-50 -7 -83.5 -18.5t-53.5 -33.5t-28.5 -58t-8.5 -92v-382
q0 -101 -19.5 -167t-60.5 -104t-105.5 -53t-155.5 -15v64q105 0 147.5 56.5t42.5 166.5v386q0 58 6.5 103t26 78.5t54.5 55.5t93 36v8z" />
    <glyph glyph-name="asciitilde" unicode="~" horiz-adv-x="1150" 
d="M1048 539q3 -47 0 -93q-57 -45 -113 -62t-113 -17q-62 0 -123 18t-124 41t-123.5 41t-123.5 18q-57 0 -113 -17t-113 -62q-3 46 0 93q57 45 113 62t113 17q63 0 123.5 -18t123.5 -41t124 -41t123 -18q57 0 113 17t113 62z" />
    <glyph glyph-name="exclamdown" unicode="&#xa1;" horiz-adv-x="635" 
d="M259 517h68l97 -890q0 -53 -34.5 -80.5t-96.5 -27.5t-96.5 27.5t-34.5 80.5zM425 813q0 -54 -37 -94t-95 -40t-95.5 40t-37.5 94q0 53 37.5 93t95.5 40t95 -40t37 -93z" />
    <glyph glyph-name="cent" unicode="&#xa2;" horiz-adv-x="1024" 
d="M900 188q9 -11 16 -22t12 -22q-63 -66 -143 -108t-168 -54v-177q-42 -5 -82 0v174q-95 4 -171.5 42t-130.5 101t-83.5 145.5t-29.5 174.5q0 99 28.5 186.5t82 155t130.5 110t174 50.5v168q40 3 82 0v-167q60 -3 114.5 -18t96.5 -37q93 -47 93 -131q0 -43 -25 -67t-61 -24
q-50 0 -83.5 45.5t-33.5 128.5q-43 22 -101 27v-765h9q63 0 132 20.5t142 63.5zM291 482q0 -73 17.5 -134t49.5 -108t77 -78.5t100 -46.5v752q-66 -11 -112.5 -48t-75.5 -90t-42.5 -117t-13.5 -130z" />
    <glyph glyph-name="sterling" unicode="&#xa3;" horiz-adv-x="1024" 
d="M100 557h136q-14 69 -31 138t-17 140q0 81 37 141.5t95.5 101t131 60.5t142.5 20q44 0 97.5 -9t100 -30t77.5 -56t31 -87q0 -41 -25.5 -63.5t-61.5 -22.5q-51 0 -85 44.5t-34 122.5q-24 15 -53 22t-58 7q-49 0 -89.5 -16t-69.5 -46.5t-45 -74.5t-16 -99q0 -36 5 -72.5
t12 -73.5t14 -73.5t10 -73.5h349q3 -41 0 -82h-348q-2 -41 -11 -81.5t-28 -81t-49.5 -81t-75.5 -80.5l2 -6h111.5t123.5 1t124 1.5t112 2.5q36 1 59.5 5t43 19t39.5 46.5t49 88.5q12 0 25 -1.5t27 -6.5q-20 -79 -36.5 -154t-30.5 -148q-59 1 -126 2t-134.5 1.5t-133.5 0.5
h-123q-112 0 -193 -0.5t-121 -2.5q-9 27 -9 55q61 44 100.5 89.5t62 91.5t31 93t8.5 95q0 25 -3 51h-149q-3 41 0 82z" />
    <glyph glyph-name="currency" unicode="&#xa4;" horiz-adv-x="1150" 
d="M203 224q-45 39 -82 82l116 109q-88 112 -88 262t88 261l-116 110q36 41 82 82l109 -116q112 89 263 89q150 0 261 -88l110 116q43 -38 82 -82l-116 -110q89 -112 89 -262q0 -151 -89 -263l116 -109q-36 -41 -82 -82l-110 115q-112 -87 -261 -87q-151 0 -263 88zM254 677
q0 -135 93.5 -231t227.5 -96t227.5 96t93.5 231t-93.5 231.5t-227.5 96.5t-227.5 -96.5t-93.5 -231.5v0z" />
    <glyph glyph-name="yen" unicode="&#xa5;" horiz-adv-x="1024" 
d="M136 352h287v130h-287q-3 39 0 79h244l-167 305q-35 63 -56 98.5t-42 54t-49.5 25.5t-77.5 14q-4 31 0 61q63 0 130 -2t133 -2q51 0 110 2t122 2q4 -29 0 -60q-71 -8 -101 -18t-30 -35q0 -15 10 -36.5t28 -53.5l176 -324l172 323q16 30 25 50.5t9 34.5t-8.5 22.5
t-27 14.5t-48 11t-70.5 11q-5 31 0 60q23 0 51 -0.5t63 -1.5t63.5 -1.5t51.5 -0.5q55 0 102 2t103 2q4 -30 0 -61q-51 -7 -82 -15t-55.5 -27.5t-48.5 -57t-62 -103.5l-167 -294h252q3 -40 0 -79h-287v-130h287q3 -40 0 -79h-287v-41q0 -58 3.5 -89.5t21 -48t54.5 -22
t105 -11.5q5 -30 0 -62q-38 0 -76.5 0.5t-79.5 1.5t-71 1.5t-50 0.5t-50 -0.5t-69 -1.5q-38 -1 -76 -1.5t-75 -0.5q-4 31 0 61q66 7 103 12t55 19t22 41t4 77v64h-287q-3 39 0 79z" />
    <glyph glyph-name="brokenbar" unicode="&#xa6;" horiz-adv-x="513" 
d="M313 415v-777h-113v777h113zM200 715v777h113v-777h-113z" />
    <glyph glyph-name="section" unicode="&#xa7;" horiz-adv-x="1145" 
d="M699 1358q-35 9 -73 9q-141 0 -242 -99q15 -65 46 -122.5t72 -110.5t89 -104.5t98 -104.5q58 -62 113 -129t98 -144.5t69 -169t26 -202.5q0 -243 -137 -415.5t-356 -172.5q-116 0 -202 44.5t-86 121.5q0 38 24 66.5t70 28.5q59 0 96 -49.5t42 -127.5q35 -9 73 -9
q141 0 242 99q-15 65 -46 122.5t-72 110.5t-89 104.5t-98 104.5q-58 62 -113 129t-98 144.5t-69 169t-26 202.5q0 243 137 415.5t356 172.5q116 0 202 -44.5t86 -121.5q0 -38 -24 -66.5t-70 -28.5q-59 0 -96 49.5t-42 127.5zM325 1193q-69 -112 -69 -254q0 -79 23 -149
t60.5 -135t86 -126.5t99.5 -122.5q52 -62 103 -126t92 -133t68 -144t32 -161q69 112 69 254q0 79 -23 149t-60.5 135t-86 126.5t-99.5 122.5q-52 62 -103 126t-92 133t-68 144t-32 161z" />
    <glyph glyph-name="dieresis" unicode="&#xa8;" horiz-adv-x="554" 
d="M-30 1307q0 46 29 78t78 32q50 0 79 -32t29 -78t-29 -78t-79 -32q-49 0 -78 32t-29 78zM369 1307q0 46 29 78t78 32t78.5 -32t29.5 -78t-29.5 -78t-78.5 -32t-78 32t-29 78z" />
    <glyph glyph-name="copyright" unicode="&#xa9;" horiz-adv-x="2069" 
d="M1929 579q0 -199 -67 -365t-187 -286t-286 -186.5t-363 -66.5q-132 0 -250.5 30t-219.5 86.5t-181.5 137t-137 181t-87 219t-30.5 250.5q0 131 30.5 248.5t87 217.5t137 180.5t181.5 136.5t219.5 86.5t250.5 30.5q131 0 249.5 -30.5t218.5 -86.5t180.5 -136.5t137 -180.5
t87 -217.5t30.5 -248.5zM1817 579q0 178 -56.5 326t-160 254.5t-249.5 165.5t-325 59q-180 0 -326.5 -59t-250.5 -165.5t-160.5 -254.5t-56.5 -326q0 -180 56.5 -329.5t160.5 -256t250.5 -165.5t326.5 -59q179 0 325 59t249.5 165.5t160 256t56.5 329.5zM1416 405
q-7 -66 -13.5 -133t-11.5 -138q-63 -23 -112 -38t-85 -23q-71 -15 -151 -15q-119 0 -217 35.5t-168.5 102t-109 162t-38.5 215.5q0 115 39 212t108.5 167.5t166.5 110t213 39.5q96 0 189 -25t126 -25q22 0 42 4q1 -138 15 -299q-31 -6 -60 -4q-29 137 -104 206.5t-193 69.5
q-92 0 -157.5 -37.5t-107.5 -100t-61.5 -143t-19.5 -166.5q0 -90 21 -171.5t65 -144t112 -99.5t163 -37q111 0 185 67.5t105 209.5q14 1 28.5 0.5t30.5 -2.5z" />
    <glyph glyph-name="ordfeminine" unicode="&#xaa;" horiz-adv-x="726" 
d="M711 864q10 -16 13 -32q-38 -44 -83 -63.5t-87 -19.5q-95 0 -117 101q-96 -104 -204 -104q-78 0 -125.5 41t-47.5 110q0 98 93 155.5t286 76.5l1 118q1 40 -33 62.5t-82 22.5t-78 -13q0 -58 -31 -98.5t-75 -40.5q-26 0 -43.5 16t-17.5 41q0 60 100 114q52 28 108 40.5
t101 12.5q90 0 141.5 -40t50.5 -110l-7 -358q-2 -51 46 -51q32 0 91 19zM438 1074q-131 -12 -179.5 -47.5t-48.5 -94.5q0 -43 23.5 -64t68.5 -21q48 0 133 47zM87 553q-4 36 0 73h571q2 -37 0 -73h-571z" />
    <glyph glyph-name="guillemotleft" unicode="&#xab;" horiz-adv-x="929" 
d="M234 486q33 -30 72 -70.5t78 -85t74 -89.5t61 -84q-7 -11 -18 -20t-22 -17q-44 43 -93.5 87t-101.5 86.5t-106 82.5t-107 75q-1 5 -1 11v11q0 12 1 24t3 24q56 37 111.5 78t108.5 83.5t102.5 85t92.5 84.5q11 -8 22 -17t18 -20q-27 -40 -63.5 -85.5t-77 -89.5t-80.5 -84
t-74 -70zM578 484q32 -29 69.5 -67.5t74 -81.5t70.5 -86.5t59 -81.5q-8 -10 -18 -18.5t-21 -16.5q-85 83 -183.5 166.5t-201.5 152.5q-1 5 -1 10.5v10.5q0 26 4 46q108 72 210 155t185 164q11 -8 22 -16.5t17 -18.5q-26 -39 -61.5 -83t-74.5 -86.5t-78 -81.5t-72 -67z" />
    <glyph glyph-name="logicalnot" unicode="&#xac;" horiz-adv-x="1150" 
d="M1048 516v-516q-44 -3 -87 0v429h-859q-3 43 0 87h946z" />
    <glyph glyph-name="registered" unicode="&#xae;" horiz-adv-x="1067" 
d="M967 1054q0 -98 -31.5 -177.5t-88.5 -136t-136.5 -87.5t-176.5 -31q-98 0 -178 31t-137 87.5t-88 136t-31 177.5q0 96 31 175t88 135.5t137 87.5t178 31q97 0 176.5 -31t136.5 -87.5t88.5 -135.5t31.5 -175zM903 1054q0 84 -25.5 153t-73.5 118t-116.5 76t-153.5 27
q-86 0 -154.5 -27t-116.5 -76t-73.5 -118t-25.5 -153q0 -87 25.5 -156.5t73.5 -119t116.5 -76t154.5 -26.5q85 0 153.5 26.5t116.5 76t73.5 119t25.5 156.5zM465 1041v-108q0 -28 1.5 -43.5t8 -23.5t19.5 -11t36 -6q2 -15 0 -30q-29 0 -62 1t-52 1q-18 0 -52.5 -1t-65.5 -1
q-2 13 0 30q29 3 45.5 5.5t24 9.5t9 20t1.5 37v282q0 28 -1.5 44t-9 24t-24 10.5t-45.5 4.5q-2 15 0 30h36t38 -1q19 -1 33.5 -1h22.5h21t30 1t32.5 1.5t24.5 0.5q87 0 135.5 -31t48.5 -95q0 -45 -29.5 -80.5t-89.5 -57.5l-1 -3q9 -6 17.5 -14t19.5 -25l40 -64
q21 -33 35 -52t28 -28.5t31.5 -12.5t44.5 -5q2 -17 0 -30q-31 0 -63.5 0.5t-49.5 0.5h-22t-23 -1l-115 179q-14 21 -23.5 29.5t-28.5 10.5zM465 1077q21 -3 43 -3q54 0 86 27t32 76q0 101 -116 101h-20.5t-24.5 -2v-199z" />
    <glyph glyph-name="macron" unicode="&#x2c9;" horiz-adv-x="554" 
d="M551 1283q6 -48 0 -96h-548q-6 48 0 96h548z" />
    <glyph glyph-name="macron" unicode="&#xaf;" horiz-adv-x="554" 
d="M551 1283q6 -48 0 -96h-548q-6 48 0 96h548z" />
    <glyph glyph-name="degree" unicode="&#xb0;" horiz-adv-x="910" 
d="M96 1034q0 149 105 254t254 105t254 -105t105 -254t-105 -254t-254 -105t-254 105t-105 254zM203 1034q0 -107 73 -182t179 -75t179 75t73 182t-73 182t-179 75t-179 -75t-73 -182z" />
    <glyph glyph-name="plusminus" unicode="&#xb1;" horiz-adv-x="1150" 
d="M1048 616q3 -44 0 -87h-429v-329q-44 -3 -87 0v329h-430q-3 43 0 87h430v330q43 3 87 0v-330h429zM1048 86q3 -44 0 -87h-946q-3 43 0 87h946z" />
    <glyph glyph-name="twosuperior" unicode="&#xb2;" horiz-adv-x="752" 
d="M110 1495q-9 9 -15 19.5t-11 19.5q67 71 133 101.5t146 30.5q59 0 107.5 -15.5t84 -44t54.5 -68.5t19 -90q0 -57 -28 -118t-81 -128t-128.5 -144t-169.5 -166q27 0 60 0.5t67 1t67 1t61 1.5q32 1 51.5 3.5t36.5 14.5t34 38.5t43 76.5q10 0 21.5 -1t23.5 -6
q-18 -68 -32 -132t-26 -127q-85 2 -178.5 3t-175.5 1q-80 0 -135.5 -0.5t-82.5 -2.5q-8 23 -8 47q119 97 199 180.5t128.5 155t69.5 132t21 110.5q0 46 -14 77.5t-38 52t-56 30t-66 9.5q-49 0 -97 -17t-85 -46z" />
    <glyph glyph-name="threesuperior" unicode="&#xb3;" horiz-adv-x="732" 
d="M252 1165q-9 13 -13 25t-6 24q56 16 98 40t70 52.5t42 59.5t14 62q0 32 -13 56.5t-36.5 40.5t-53.5 24.5t-64 8.5q-46 0 -94.5 -15.5t-89.5 -47.5q-18 21 -28 41q63 63 132.5 96.5t154.5 33.5q42 0 85 -10t78 -31.5t57.5 -54.5t22.5 -79q0 -62 -45.5 -124.5
t-134.5 -109.5q61 -7 106.5 -27t75.5 -50.5t45 -70t15 -83.5q0 -73 -33.5 -126.5t-86 -88.5t-118.5 -52t-130 -17t-112.5 13.5t-81 35.5t-48.5 50.5t-16 56.5q0 29 17.5 48.5t45.5 19.5q18 0 39 -10t40 -30t35 -48.5t25 -66.5q36 -11 74 -11q41 0 77 13t63.5 37t43.5 58.5
t16 78.5q0 39 -13.5 73t-39 60t-60.5 41t-78 15q-18 0 -38 -2.5t-39 -8.5z" />
    <glyph glyph-name="acute" unicode="&#xb4;" horiz-adv-x="554" 
d="M426 1411l-243 -384q-11 -2 -28 -0.5t-28 5.5l106 389q7 9 60 9q72 0 133 -11v-8z" />
    <glyph glyph-name="uni00B5" unicode="&#xb5;" horiz-adv-x="1119" 
d="M711 420q0 41 3.5 95.5t9 111t13 111.5t16.5 98t19 69.5t19 26.5q13 0 38.5 -8.5t50 -20t43 -24.5t18.5 -22q0 -55 -16 -124.5t-40 -139.5t-51 -133.5t-48 -105.5q-1 -7 -1.5 -13.5t-0.5 -13.5q0 -35 10 -67t30 -57t49.5 -40t67.5 -15q51 0 90.5 23t62.5 61l9 -4
q5 -18 8 -33.5t3 -29.5q0 -34 -12 -66t-35.5 -57t-57.5 -40t-78 -15q-85 0 -137.5 61.5t-71.5 194.5q-22 -42 -49 -88t-60.5 -85t-73.5 -64t-88 -25q-47 0 -83.5 20.5t-63.5 52.5t-45 72.5t-28 79.5l-6 -1q-5 -40 -8 -79t-3 -81q0 -136 35.5 -260.5t116.5 -245.5
q-53 -54 -110 -54q-47 0 -77 34.5t-47 86t-23.5 112t-6.5 113.5q0 83 8 171.5t19.5 171.5t25.5 154t26 119q-1 27 -1 54.5v56.5q0 184 16.5 279t43.5 95q16 0 41.5 -8t49.5 -20t41 -24.5t17 -21.5q0 -42 -10.5 -94.5t-27 -110.5t-36 -118.5t-38.5 -118.5q0 -45 4.5 -91.5
t21 -85t48.5 -63t87 -24.5q48 0 87.5 21.5t72.5 58t61 85t52 103.5z" />
    <glyph glyph-name="paragraph" unicode="&#xb6;" horiz-adv-x="1145" 
d="M869 1192v-1510l-94 -21v1664l-146 3v-1700l-95 -22v1033q-231 0 -362 102t-131 291q0 171 114.5 277.5t309.5 106.5q83 0 172.5 -2t133.5 -2q45 0 132 2t167 2q5 -30 0 -62q-73 -7 -112.5 -13t-59.5 -21t-24.5 -44.5t-4.5 -83.5z" />
    <glyph glyph-name="periodcentered" unicode="&#x2219;" horiz-adv-x="570" 
d="M150 507q0 54 37.5 94.5t95.5 40.5q60 0 98 -40.5t38 -94.5t-38 -94.5t-98 -40.5q-58 0 -95.5 40.5t-37.5 94.5v0z" />
    <glyph glyph-name="periodcentered" unicode="&#xb7;" horiz-adv-x="570" 
d="M150 507q0 54 37.5 94.5t95.5 40.5q60 0 98 -40.5t38 -94.5t-38 -94.5t-98 -40.5q-58 0 -95.5 40.5t-37.5 94.5v0z" />
    <glyph glyph-name="cedilla" unicode="&#xb8;" horiz-adv-x="554" 
d="M385 0l-80 -109q98 -25 140.5 -74t42.5 -111q0 -51 -24 -92t-62 -69.5t-86 -43.5t-97 -15q-34 0 -62 7.5t-48.5 20t-32 29.5t-11.5 37q0 34 21.5 53.5t51.5 19.5q67 0 115 -101q60 1 87.5 27.5t27.5 66.5q0 62 -55 101.5t-150 46.5l-3 9l144 197h81z" />
    <glyph glyph-name="onesuperior" unicode="&#xb9;" horiz-adv-x="605" 
d="M563 763q-30 0 -58.5 1t-58 1.5t-61 1t-67.5 0.5t-67 -0.5t-60.5 -1t-58.5 -1.5t-60 -1q-3 26 0 50q64 5 98.5 10.5t51 17.5t19.5 35t3 61v514q0 35 -7 47t-25 12q-21 0 -61 -6t-106 -24q-12 23 -16 50q54 17 102 33t94.5 32.5t93 33.5t96.5 37q18 -15 27 -37
q-21 -23 -31 -66t-10 -120v-489q0 -45 2.5 -70.5t17.5 -39t48 -19t94 -11.5q3 -25 0 -51z" />
    <glyph glyph-name="ordmasculine" unicode="&#xba;" horiz-adv-x="814" 
d="M109 553q-4 36 0 73h595q2 -37 0 -73h-595zM402 746q-156 0 -246.5 90.5t-90.5 231.5q0 151 96.5 243.5t251.5 92.5q153 0 244.5 -90.5t91.5 -232.5q0 -147 -96.5 -241t-250.5 -94zM224 1083q0 -128 47 -203t137 -75q88 0 135 70t47 191q0 129 -46.5 204t-137.5 75
q-88 0 -135 -70.5t-47 -191.5z" />
    <glyph glyph-name="guillemotright" unicode="&#xbb;" horiz-adv-x="929" 
d="M695 486q-33 30 -72 70.5t-78 85t-74 89.5t-61 84q7 11 18 20t22 17q44 -43 93.5 -87t101.5 -86.5t106 -82.5t107 -75q1 -5 1 -11v-11q0 -12 -1 -24t-3 -24q-56 -38 -111.5 -78.5t-108.5 -83t-102.5 -85t-92.5 -84.5q-11 8 -22 17t-18 20q27 40 63.5 85.5t77 89.5
t80.5 84t74 70zM351 488q-32 29 -69.5 67.5t-74 81.5t-70.5 86.5t-59 81.5q8 10 18 18.5t21 16.5q85 -83 183.5 -166.5t201.5 -152.5q1 -5 1 -10.5v-10.5q0 -26 -4 -46q-108 -72 -210 -155t-185 -164q-11 8 -22 16.5t-17 18.5q25 39 61 83t75 86.5t78 81t72 67.5z" />
    <glyph glyph-name="onequarter" unicode="&#xbc;" horiz-adv-x="1437" 
d="M515 667q-55 0 -106 2t-116 2q-33 0 -62 -0.5t-55.5 -1.5t-52.5 -1.5t-54 -0.5q-4 24 0 45q58 5 89.5 10t46.5 16t17.5 31.5t2.5 56.5v363q0 32 -6 42.5t-23 10.5q-20 0 -56 -5.5t-96 -21.5q-11 21 -14 46q49 15 92.5 29.5t85.5 29.5t84.5 30.5t87.5 33.5q15 -12 25 -34
q-19 -21 -28.5 -59.5t-9.5 -108.5v-341q0 -42 2.5 -65t16 -35.5t43.5 -17.5t86 -10q3 -22 0 -46zM220 -18q-36 22 -69 52l931 1328q19 -11 36.5 -24t34.5 -27zM1125 205h-339q-2 17 -3 32.5t-1 31.5q90 115 184 224t195 218q26 -1 54.5 -3t51.5 -7q-2 -44 -2.5 -68.5
t-0.5 -45.5v-277h143q-1 -25 -3 -52.5t-5 -52.5h-135v-210q-38 -3 -72 -3q-33 0 -67 3v210zM1125 591q-67 -69 -125 -139.5t-115 -141.5h240v281z" />
    <glyph glyph-name="onehalf" unicode="&#xbd;" horiz-adv-x="1391" 
d="M515 667q-55 0 -106 2t-116 2q-33 0 -62 -0.5t-55.5 -1.5t-52.5 -1.5t-54 -0.5q-4 24 0 45q58 5 89.5 10t46.5 16t17.5 31.5t2.5 56.5v363q0 32 -6 42.5t-23 10.5q-20 0 -56 -5.5t-96 -21.5q-11 21 -14 46q49 15 92.5 29.5t85.5 29.5t84.5 30.5t87.5 33.5q15 -12 25 -34
q-19 -21 -28.5 -59.5t-9.5 -108.5v-341q0 -42 2.5 -65t16 -35.5t43.5 -17.5t86 -10q3 -22 0 -46zM220 -18q-36 22 -69 52l931 1328q19 -11 36.5 -24t34.5 -27zM852 562q-8 8 -13.5 17.5t-9.5 17.5q55 64 110 92t121 28q49 0 89 -12t69 -34t45 -53t16 -70q0 -44 -21.5 -90
t-62.5 -98t-101 -112t-137 -131q19 0 43 0.5t48.5 1t48.5 1t44 1.5q29 1 47 3t33 13.5t30.5 35.5t39.5 69q9 0 19 -1t21 -5q-16 -62 -28.5 -120.5t-23.5 -115.5q-70 2 -148 2.5t-146 0.5h-112t-69 -2q-7 20 -7 43q95 75 159 139t103 119t56 101.5t17 85.5q0 35 -11.5 59.5
t-30 40t-43.5 22.5t-52 7q-38 0 -76 -15t-67 -41z" />
    <glyph glyph-name="threequarters" unicode="&#xbe;" horiz-adv-x="1508" 
d="M208 985q-8 13 -11.5 23.5t-5.5 21.5q92 25 138 67t46 90q0 23 -10 41.5t-27.5 31t-41 19t-49.5 6.5q-37 0 -75.5 -13.5t-71.5 -42.5q-8 8 -14 18t-11 19q52 57 109.5 87.5t127.5 30.5q48 0 85 -11.5t62.5 -30.5t38.5 -45t13 -54q0 -47 -36.5 -95.5t-115.5 -84.5
q52 -5 90 -21t63.5 -40.5t38 -56t12.5 -67.5q0 -58 -26 -100.5t-68 -70.5t-94 -41.5t-103 -13.5q-48 0 -89.5 10.5t-72 28.5t-48 43t-17.5 55q0 26 15.5 43.5t41.5 17.5q17 0 35.5 -8.5t36 -25t31.5 -42t22 -59.5q27 -10 54 -10q30 0 56.5 9t46.5 26.5t31.5 44t11.5 61.5
q0 29 -11.5 56t-32 47.5t-49 33t-63.5 12.5q-32 0 -63 -10zM1196 205h-339q-2 17 -3 32.5t-1 31.5q90 115 184 224t195 218q26 -1 54.5 -3t51.5 -7q-2 -44 -2.5 -68.5t-0.5 -45.5v-277h143q-1 -25 -3 -52.5t-5 -52.5h-135v-210q-38 -3 -72 -3q-33 0 -67 3v210zM1196 591
q-67 -69 -125 -139.5t-115 -141.5h240v281zM291 -18q-36 22 -69 52l931 1328q19 -11 36.5 -24t34.5 -27z" />
    <glyph glyph-name="questiondown" unicode="&#xbf;" horiz-adv-x="808" 
d="M509 527l42 -372q-45 2 -73 2q-184 0 -255.5 -32t-71.5 -108q0 -108 70 -203t178 -144q76 48 149 48q53 0 89 -26t36 -74q0 -46 -39.5 -75t-103.5 -29q-96 0 -215.5 81t-187 203t-67.5 249q0 152 83 214.5t276 64.5l22 201h68zM607 813q0 -54 -37 -94t-95 -40t-95.5 40
t-37.5 94q0 53 37.5 93t95.5 40t95 -40t37 -93z" />
    </font>
</defs>
</svg>
